#TITLE:サヨナラ・ヘヴン;
#SUBTITLE:;
#ARTIST:猫叉Master;
#TITLETRANSLIT:Sayonara Heaven;
#SUBTITLETRANSLIT:;
#ARTISTTRANSLIT:Nekomata Master;
#GENRE:;
#CREDIT:;
#MENUCOLOR:;
#METERTYPE:DDR;
#BANNER:Sayonara Heaven.png;
#BACKGROUND:Sayonara Heaven-bg.png;
#LYRICSPATH:;
#CDTITLE:cdtitle.png;
#MUSIC:Sayonara Heaven.mp3;
#OFFSET:-0.003;
#SAMPLESTART:70.823;
#SAMPLELENGTH:15.000;
#SELECTABLE:YES;
#LISTSORT:;
#BPMS:0.000=111.000;
#STOPS:;
#BGCHANGES:3.000=Sayonara Heaven.avi=1.000=1=0=0,
99999=-nosongbg-=1.000=0=0=0 // don't automatically add -songbackground-
;
#ATTACKS:;

//---------------dance-single - ----------------
#NOTES:
     dance-single:
     :
     Hard:
     10:
     0.466,0.454,0.130,0.462,0.203:
0000
0000
0000
0000
,
0000
0000
0000
0000
,
0000
0000
0000
0000
,
0000
0000
0000
0000
,
0000
0000
0000
0000
,
0001
0000
0000
0001
0100
0000
0010
0000
0000
0000
1000
0000
0000
0000
0001
0000
,
0010
0000
0000
0010
0100
0000
1000
0000
0000
0000
0001
0000
1001
0000
0000
0000
,
0100
0000
0000
0100
0010
0000
0100
0000
1000
0000
0001
1000
0001
0000
0100
0000
,
0102
1000
0023
0230
,
2300
0001
3020
0230
,
0302
1000
0023
0230
,
0301
0100
1000
0010
0100
0001
1000
0100
,
2100
0001
3020
0230
,
0302
1000
0023
0230
,
2300
0001
3020
0230
,
1300
0000
0100
0000
0001
0000
0100
0000
0010
0000
0000
1000
0001
0000
0010
0000
,
0100
0000
0000
0100
0000
0000
0100
0000
2000
0000
0000
0000
3001
0000
0100
0000
,
0010
0100
0100
0010
0200
0000
0310
1000
,
0100
0000
0000
0100
0010
0000
0001
0000
0100
0000
0000
0100
0000
0000
0100
0000
,
0010
0000
0000
0010
0000
0000
0010
0000
1000
0000
0000
0000
0001
0000
1000
0100
,
1000
0000
0000
0100
0000
0000
1000
0000
0020
0000
0000
0000
0130
0000
0001
0000
,
0010
0100
0100
0010
0002
0000
1003
0100
,
0010
0000
0000
0010
0001
0000
0100
0000
0010
0000
0000
1000
0000
0000
0010
0000
,
0100
0000
0000
0001
0000
0000
0010
0000
0110
0000
0000
0000
1001
0000
0001
0100
,
0001
0000
0000
1000
0000
0000
0100
0000
0020
0000
0001
0000
0031
0000
0100
0010
,
0100
0000
0000
0010
0000
0000
1000
0000
0200
0000
0010
0000
0310
0000
0100
1000
,
0100
0000
0000
0010
0000
0000
0001
0000
0100
0000
0000
0010
0100
0000
0001
0000
,
2001
0000
0000
0000
3020
0000
0000
0000
0230
0000
0000
0000
0301
0000
1000
0100
,
1000
0000
0000
0010
0000
0000
0100
0000
0002
0000
0010
0000
0013
0000
0100
1000
,
0100
0000
0000
0010
0000
0000
0001
0000
2000
0000
0010
0000
3010
0000
0100
0001
,
0100
0000
0000
0010
0000
0000
1000
0000
0001
0000
0000
0010
0100
0000
1000
0000
,
2001
3200
0320
0031
,
1000
0000
0100
0000
1000
0000
0000
0000
0001
0000
0100
0000
0001
0000
0000
0000
0000
0000
1000
0000
0000
0010
0000
0000
,
0100
0000
0000
0001
0100
0000
0010
0000
0100
0000
0000
0001
0100
0000
0010
0000
,
0100
0000
0000
0001
0100
0000
0010
0000
0200
0000
0000
0000
0310
0000
1000
0000
,
0100
0000
0000
0010
0100
0000
1000
0000
0100
0000
0010
0000
0001
0000
1000
0000
,
0010
0100
0010
1000
0002
0000
1003
0010
,
0100
0000
0000
0001
0010
0000
0100
0000
0010
0000
0000
0001
0010
0000
0100
0000
,
0010
0000
0000
0001
0010
0000
0100
0000
0020
0000
0000
0000
0031
0000
1000
0000
,
0010
0000
0000
0100
0010
0000
1000
0000
0010
0000
0100
0000
0001
0000
1000
0000
,
0100
0010
0100
1000
0002
0000
1003
0100
,
0010
0000
0000
0001
0100
0000
1000
0000
0100
0000
0000
0001
0100
0000
1000
0000
,
0100
0000
0000
0001
0100
0000
1000
0000
0200
0000
0000
0000
0301
0000
0010
0000
,
0100
0000
0000
1000
0100
0000
0001
0000
0100
0000
1000
0000
0010
0000
0100
0000
,
0001
0100
1000
0100
0002
0000
1003
0100
,
0110
0000
0000
0011
0000
0000
0001
0000
1001
0000
0000
1010
0000
0000
0100
0000
,
0110
0000
0000
0101
0000
0000
0001
0000
1001
0000
0000
1000
0100
0000
0010
0000
,
0100
0000
0000
1000
0001
0000
0010
0000
0100
0000
0001
0000
0100
0000
1000
0000
,
2100
0001
3020
0230
,
0302
1000
0023
0230
,
2300
0001
3020
0230
,
1300
0100
0001
0100
0010
1000
0001
0100
,
0102
1000
0023
0230
,
2300
0001
3020
0230
,
0302
1000
0023
0230
,
0301
0000
0100
0000
1000
0000
0100
0000
0010
0000
0000
0001
2000
0000
0000
0000
,
3000
0000
0000
0000
;

//---------------dance-single - ----------------
#NOTES:
     dance-single:
     :
     Medium:
     7:
     0.384,0.363,0.073,0.470,0.049:
0000
0000
0000
0000
,
0000
0000
0000
0000
,
0000
0000
0000
0000
,
0000
0000
0000
0000
,
0000
0000
0000
0000
,
0001
0000
0000
1000
0000
0000
0001
0000
0000
0000
0100
0000
0000
0000
0010
0000
,
1000
0000
0000
0001
0000
0000
1000
0000
0000
0000
0100
0000
0010
0000
0000
0000
,
0001
0000
0000
0100
0000
0000
0010
0000
1000
0000
0001
0000
1000
0000
0100
0000
,
0020
0000
0230
2300
,
3002
0000
0203
0320
,
2030
0000
3020
0230
,
0301
1000
0100
1000
0001
0000
0110
0000
,
0020
0000
0230
0302
,
2003
0000
3200
0320
,
0032
0000
0023
0230
,
1300
0001
0100
0001
1000
0000
0110
0000
,
0010
0000
0000
0100
0000
0000
0010
0000
0200
0000
0000
0000
0310
0000
0000
0000
,
1000
0001
0001
0100
0020
0000
0130
0000
,
0002
0000
0013
0100
2000
0000
3010
0100
,
0002
0000
1003
0100
0001
0000
0100
0000
,
1000
0000
0000
0001
0000
0000
1000
0000
0002
0000
0000
0000
0103
0000
0000
0000
,
0010
1000
1000
0010
2000
0000
3100
0000
,
0020
0000
0031
0100
2000
0000
3100
0010
,
2000
0000
3100
0010
0002
0000
0003
0000
,
1000
0200
0320
0032
,
0203
0000
0310
0100
0200
0000
0320
0000
,
1030
0000
0001
1000
0100
0000
0010
0001
,
1000
1100
1010
1001
,
0001
0200
0320
2030
,
3200
0000
0310
0010
0100
0100
0010
0001
,
0001
0000
1000
0001
0100
0000
0010
1000
,
0001
0011
0101
1001
,
0010
0000
0100
0000
0010
0000
0000
0000
0100
0000
0010
0000
0100
0000
0000
0000
0000
0000
0001
0000
0000
1000
0000
0000
,
0100
0000
1000
0001
0100
0000
1000
0001
,
0100
0000
1000
0001
0100
0000
0010
1000
,
0100
0000
0010
0100
1000
0100
0010
0001
,
0100
0010
0001
0010
1000
0000
0001
0010
,
0100
0000
1000
0010
0100
0000
1000
0010
,
0100
0000
1000
0010
0100
0000
0001
1000
,
0100
0000
0010
0001
0010
0100
1000
0100
,
0001
0100
0010
0001
0100
0000
0010
1000
,
0200
0000
0310
0001
0100
0000
0010
0001
,
0100
0000
0010
0001
0100
0000
0010
1000
,
0002
0000
1003
0100
0001
0100
1000
0010
,
0100
1000
0100
0001
1000
0000
0001
0000
,
1000
0000
0000
1000
0000
0000
1000
0000
0100
0000
0000
0100
0000
0000
0100
0000
,
0001
0000
0000
0001
0000
0000
0001
0000
0010
0000
0000
0000
0010
0000
0000
0000
,
1000
0000
0001
0100
0010
0010
0010
0010
,
0020
0000
0000
0230
,
0302
0000
2003
3200
,
0320
0000
0032
0203
,
0310
1000
0100
0001
0100
1000
0010
0100
,
0002
0000
1003
0100
,
0020
0000
0230
2300
,
3002
0000
0203
0320
,
1030
0010
0001
0010
1000
0000
2002
0000
,
3003
0000
0000
0000
;

//---------------dance-single - ----------------
#NOTES:
     dance-single:
     :
     Easy:
     4:
     0.224,0.226,0.073,0.000,0.000:
0000
0000
0000
0000
,
0000
0000
0000
0000
,
0000
0000
0000
0000
,
0000
0000
0000
0000
,
0000
0000
0000
0000
,
1000
1000
0100
0100
,
0001
0000
0001
0100
0001
0000
0000
0000
,
0001
0100
1000
0001
,
0010
0010
0100
0100
,
1000
1000
0001
0001
,
0100
0100
0010
0010
,
1000
0001
1001
0000
,
0010
0010
0100
0100
,
0001
0001
1000
1000
,
0100
0100
0010
0010
,
0001
1000
1001
0000
,
0010
0010
0100
1000
,
0100
0100
0001
0000
,
1000
1000
0100
0010
,
0001
0001
0100
0000
,
0010
0010
0100
0001
,
1000
1000
0100
0000
,
0010
0010
0100
1000
,
0001
0001
0100
0000
,
0010
0010
0100
0100
,
0001
1000
0100
0000
,
0010
0010
0001
0001
,
0100
0010
1000
0000
,
0100
0100
1000
1000
,
0010
0100
0001
0000
,
0100
0100
0001
0001
,
1000
0000
0001
0000
,
1001
0000
0110
0000
,
0001
0001
0001
0100
,
1000
0100
0001
0000
,
1000
1000
1000
0100
,
0001
0100
1000
0000
,
0001
0001
0001
0010
,
1000
0010
0001
0000
,
1000
1000
1000
0010
,
0001
0010
1000
0000
,
1000
0001
0100
0010
,
1000
0100
0110
0000
,
0001
0100
0010
1000
,
0010
0100
0110
0000
,
0001
0000
0000
1000
1000
0000
0000
0001
,
0001
0000
0000
1000
1000
0000
0000
0000
,
0010
0010
0010
0010
,
0110
0100
0001
0001
,
1000
1000
0100
0100
,
0010
0010
0001
0001
,
0100
0100
0010
1000
,
0001
0001
0010
0010
,
0100
0100
1000
1000
,
0010
0010
0100
0100
,
0001
1000
1001
1001
;

//---------------dance-single - ----------------
#NOTES:
     dance-single:
     :
     Beginner:
     2:
     0.072,0.113,0.000,0.000,0.000:
0000
0000
0000
0000
,
0000
0000
0000
0000
,
0000
0000
0000
0000
,
0000
0000
0000
0000
,
0000
0000
0000
0000
,
1000
0000
0000
0000
,
0001
0000
0000
0000
,
1000
0000
0000
0000
,
0001
0000
0000
0000
,
1000
0000
0000
0000
,
0001
0000
0000
0000
,
0100
0000
0100
0000
,
0100
0000
0000
0000
,
0001
0000
0000
0000
,
1000
0000
0000
0000
,
0100
0000
0100
0000
,
0100
0000
0000
0000
,
0010
0000
0000
0000
,
0001
0000
0000
0000
,
1000
0000
0000
0000
,
0010
0000
0000
0000
,
0100
0000
0000
0000
,
0001
0000
0000
0000
,
1000
0000
0000
0000
,
0100
0000
0100
0000
,
0010
0000
0010
0000
,
0100
0000
0100
0000
,
1000
0000
1000
0000
,
0001
0000
0001
0000
,
0100
0000
0100
0000
,
0001
0000
0001
0000
,
1000
0000
0000
0000
,
0000
0000
0000
0000
,
0010
0000
0000
0000
,
0100
0000
0000
0000
,
0010
0000
0000
0000
,
0100
0000
0000
0000
,
0001
0000
0000
0000
,
1000
0000
0000
0000
,
0001
0000
0000
0000
,
1000
0000
0000
0000
,
0100
0000
0000
0000
,
0010
0000
0000
0000
,
0100
0000
0000
0000
,
0010
0000
0000
0000
,
0001
0000
0000
0000
,
1000
0000
0000
0000
,
0001
0000
0001
0000
,
0001
0000
0000
0000
,
0100
0000
0000
0000
,
0010
0000
0000
0000
,
1000
0000
0000
0000
,
0100
0000
0000
0000
,
0010
0000
0000
0000
,
0001
0000
0000
0000
,
1000
0000
0001
0001
;

//---------------dance-double - ----------------
#NOTES:
     dance-double:
     :
     Hard:
     10:
     0.450,0.432,0.065,0.389,0.199:
00000000
00000000
00000000
00000000
,
00000000
00000000
00000000
00000000
,
00000000
00000000
00000000
00000000
,
00000000
00000000
00000000
00000000
,
00000000
00000000
00000000
00000000
,
00001000
00000000
00000000
00001000
01000000
00000000
00010000
00000000
10000000
00000000
00000000
10000000
01000000
00000000
00010000
00000000
,
00001000
00000000
00000000
00001000
00000100
00000000
00000001
00000000
00000010
00000000
00000000
00000000
00000100
00000000
00010000
00000000
,
00001000
00000000
00000000
00001000
01000000
00000000
00001000
00000000
00010000
00000000
01000000
00000000
10000000
00000000
00100000
00000000
,
01200000
00000000
10000000
00000000
00010000
00000000
01300000
00001000
,
00020000
00000100
00030020
00000230
,
00000302
00000010
00000203
00001000
,
00000310
00001000
00000100
00010000
00001000
01000000
00010000
00100000
,
02000000
10000000
03002000
00003200
,
00000320
00000001
00002030
00023000
,
00230000
10000000
00320000
00032000
,
01003000
00000000
00010000
00000000
00100000
00000000
01000000
00000000
10000000
00000000
00000000
00010000
01000000
00000000
00010000
00100000
,
00010000
00000000
00000000
00100000
00000000
00000000
00001000
00000000
00020000
00000000
00000000
00000000
00030100
00000000
00000010
00000000
,
00001000
00010000
01000000
00100000
02000000
00000000
13000000
00010000
,
01000000
00000000
00000000
00001000
00100000
00000000
00001000
00000000
00010000
00000000
00000000
00000010
00000000
00000000
00000100
00000000
,
00000001
00000000
00000000
00000010
00000000
00000000
00001000
00000000
00010000
00000000
00000000
00000000
00001000
00000000
00010000
00000010
,
00010000
00000000
00000000
00000010
00000000
00000000
00000100
00000000
00000002
00000000
00000000
00000000
00000013
00000000
00001000
00000000
,
00010000
01000000
10000000
00010000
02000000
00000000
03001000
00010000
,
00000100
00000000
00000000
00000010
00000100
00000000
00010000
00000000
01000000
00000000
00000000
00100000
00000000
00000000
00001000
00000000
,
01000000
00000000
00000000
00010000
00000000
00000000
10000000
00000000
01000000
00000000
00000000
00100000
00010000
00000000
10000000
00100000
,
01000000
00000000
00000000
01000000
00000000
00000000
02000000
00000000
00000000
00000000
00010000
00000000
03010000
00000000
00100000
00001000
,
00010000
00000000
00000000
00010000
00000000
00000000
00020000
00000000
00000000
00000000
00000100
00000000
00030100
00000000
00000010
00000001
,
00000100
00000000
00000000
00000100
00000000
00000000
00000100
00000000
00000010
00000000
00010000
00000000
00001000
00000000
00100000
00000000
,
20000000
00000000
00000000
00000000
30020000
00000000
00000000
00000000
00032000
00000000
00000000
00000000
00003010
00000000
00000001
00000010
,
00000100
00000000
00000000
00000100
00000000
00000000
00000200
00000000
00000000
00000000
00001000
00000000
00001300
00000000
00000010
00010000
,
00001000
00000000
00000000
00001000
00000000
00000000
00002000
00000000
00000000
00000000
01000000
00000000
01003000
00000000
00100000
10000000
,
01000000
00000000
00000000
01000000
00000000
00000000
01000000
00000000
00100000
00000000
00001000
00000000
00010000
00000000
00000010
00000000
,
00000002
00002003
00023000
00130000
,
10000000
00000000
01000000
00000000
00010000
00000000
00000000
00000000
00001000
00000000
00000100
00000000
00000001
00000000
00000000
00000000
00000000
00000000
00001000
00000000
00000000
00000100
00000000
00000000
,
00000010
00000000
00000000
00000010
00000100
00000000
00010000
00000000
00001000
00000000
00000000
00001000
01000000
00000000
00100000
00000000
,
10000000
00000000
00000000
10000000
01000000
00000000
00010000
00000000
00002000
00000000
00000000
00000000
00003100
00000000
00000001
00000000
,
00000010
00000000
00000000
00000010
00000100
00000000
00001000
00000000
00000100
00000000
00010000
00000000
01000000
00000000
10000000
00000000
,
00100000
00100000
10000000
00010000
00200000
00000000
00310000
01000000
,
00100000
00000000
00000000
00100000
01000000
00000000
00001000
00000000
00010000
00000000
00000000
00010000
00000100
00000000
00000010
00000000
,
00000001
00000000
00000000
00000001
00000100
00000000
00001000
00000000
00020000
00000000
00000000
00000000
01030000
00000000
10000000
00000000
,
00100000
00000000
00000000
00100000
01000000
00000000
00010000
00000000
01000000
00000000
00001000
00000000
00000100
00000000
00000001
00000000
,
00000010
00000010
00000001
00001000
00000020
00000000
00000130
00000001
,
00001000
00000000
00000000
00000100
00010000
00000000
00001000
00000000
01000000
00000000
00000000
00010000
00100000
00000000
01000000
00000000
,
10000000
00000000
00000000
00010000
01000000
00000000
00001000
00000000
00020000
00000000
00000000
00000000
00031000
00000000
00000100
00000000
,
00000001
00000000
00000000
00000010
00001000
00000000
00010000
00000000
01000000
00000000
10000000
00000000
00100000
00000000
00010000
00000000
,
00100000
10000000
01000000
00001000
00000200
00000000
00000310
00000001
,
00000101
00000000
00000000
00000100
00000000
00000000
00000010
00000000
00001010
00000000
00000000
00001000
00000000
00000000
00000100
00000000
,
00010100
00000000
00000000
00010000
00000000
00000000
00001000
00000000
01001000
00000000
00000000
00000000
01010000
00000000
00000000
00000000
,
00010000
00000000
00000000
10000000
01000000
00000000
00010000
00000000
00001000
00000000
00001010
00000000
00000010
00000000
00000011
00000000
,
00000002
00000000
00000100
00000000
00020003
00000000
00031000
01000000
,
00200000
00000000
10000000
00000000
02300000
00000000
03010000
00100000
,
02000000
10000000
03200000
00001000
,
00310000
00000100
00000010
00001000
00000100
00000010
00001000
00010000
,
02000000
00000000
00100000
00000000
03002000
00000000
00003100
00001000
,
00000020
00000000
00000001
00000000
00000230
00000000
00001300
00010000
,
02000000
00100000
03002000
00010000
,
00003001
00000000
00000010
00000000
00001000
00000000
00010000
00000000
01000000
00000000
00000000
00010000
00002000
00000000
00000000
00000000
,
00003000
00000000
00000000
00000000
;

//---------------dance-double - ----------------
#NOTES:
     dance-double:
     :
     Medium:
     7:
     0.340,0.341,0.032,0.162,0.081: // measure 1
00000000
00000000
00000000
00000000
,  // measure 2
00000000
00000000
00000000
00000000
,  // measure 3
00000000
00000000
00000000
00000000
,  // measure 4
00000000
00000000
00000000
00000000
,  // measure 5
00000000
00000000
00000000
00000000
,  // measure 6
10000000
01000000
00010000
00001000
,  // measure 7
00010000
01000000
10000000
00010000
01000000
00000000
00001000
00000000
,  // measure 8
00010000
00000000
00001000
00010000
00000100
00001000
00000010
00000100
,  // measure 9
00000020
00000000
00000100
00000000
00001030
00000000
00000100
00010000
,  // measure 10
00002000
00000000
00100000
00000000
00013000
00000000
01000000
10000000
,  // measure 11
00200000
01000000
20300000
30020000
,  // measure 12
00130000
01000000
10000000
00010000
01000000
00000000
01100000
00000000
,  // measure 13
00200000
00000000
10000000
00000000
01300000
00000000
00010000
00100000
,  // measure 14
00002000
00000000
00010000
00000000
00003100
00000000
00000001
00000010
,  // measure 15
00000200
00000001
00001300
00000010
,  // measure 16
00001000
00000100
00010000
00001000
00010000
00000000
00011000
00000000
,  // measure 17
00001000
00000000
01000000
00001000
00100000
00000000
00010000
00000000
,  // measure 18
10000000
00000000
01000000
00100000
00001000
00000000
00010000
00000000
,  // measure 19
00001000
00000100
00000010
00001000
,  // measure 20
00000100
00000010
00000001
00001000
00000100
00000000
00010000
00000000
,  // measure 21
00001000
00000000
01000000
00010000
00100000
00000000
01000000
00000000
,  // measure 22
10000000
00000000
00010000
01000000
00001000
00000000
00010000
00000000
,  // measure 23
00000100
00000100
00000010
00000001
,  // measure 24
00000100
00000010
00001000
00000100
00001000
00000000
00001100
00000000
,  // measure 25
00000100
00000000
00010000
00000000
00000100
00010000
00010000
00000000
,  // measure 26
00001000
00000000
01000000
00000000
00001000
01000000
01000000
00000000
,  // measure 27
00010000
00100000
00010000
00100000
,  // measure 28
00002000
00023000
02030000
23000000
,  // measure 29
31000000
00000000
00100000
00000000
00010000
01000000
01000000
00000000
,  // measure 30
00001000
00000000
00010000
00000000
00000100
00000010
00000010
00000000
,  // measure 31
00000001
00000100
00000010
00001000
,  // measure 32
00000100
00010000
00001000
01000000
,  // measure 33
00010000
00000000
10000000
00000000
00010000
00000000
00000000
00000000
00100000
00000000
01000000
00000000
00100000
00000000
00000000
00000000
00000000
00000000
00010000
00000000
00000000
00010000
00000000
00000000
,  // measure 34
10000000
00000000
00000000
01000000
00000000
00000000
00100000
00000000
00000000
00000000
00010000
00000000
01000000
00000000
00000000
00000000
,  // measure 35
00001000
00000000
00000000
00010000
00000000
00000000
00000100
00000000
00000000
00000000
00000010
00000000
00000010
00000000
00000000
00000000
,  // measure 36
00000001
00000000
00000100
00000000
00000100
00000000
00000000
00000000
00000010
00000000
00000000
00001000
00000000
00000000
00000100
00000000
,  // measure 37
00000000
00000000
00010000
00000000
00001000
00000000
00000000
00000000
01000000
00000000
00000000
00010000
00000000
00000000
00010000
00000000
,  // measure 38
10000000
00000000
01000000
00100000
00000000
00000000
00001000
00000000
00000000
00000000
00100000
00001000
00000000
00000000
00010000
00000000
,  // measure 39
00000000
00000000
00000100
00001000
00000000
00000000
00000010
00000000
00000000
00000000
00000100
00000000
00000100
00000000
00000000
00000000
,  // measure 40
00000010
00000000
00001000
00000000
00001000
00000000
00000000
00000000
00000100
00000000
00000000
00010000
00000000
00000000
00001000
00000000
,  // measure 41
00000000
00000000
01000000
00000000
01000000
00000000
00000000
00000000
00010000
00000000
00000000
00100000
00000000
00000000
01000000
00000000
,  // measure 42
10000000
00000000
00000000
01000000
00000000
00000000
01000000
00000000
00100000
00000000
00000000
00100000
00000000
00000000
00100000
00000000
,  // measure 43
00001000
00000000
00000000
00001000
00000000
00000000
00001000
00000000
00010000
00000000
00000100
00000000
00000100
00000000
00000000
00000000
,  // measure 44
00000010
00000000
00000000
00000001
00000000
00000000
00000001
00000000
00000100
00000000
00000010
00000000
00001000
00000000
00000100
00000000
,  // measure 45
00010000
00001000
00100000
00010000
01000000
00000000
00100000
00000000
,  // measure 46
10000000
00000000
00000000
10000000
00000000
00000000
10000000
00000000
01000000
00000000
00000000
01000000
00000000
00000000
01000000
00000000
,  // measure 47
00100000
00000000
00000000
00100000
00000000
00000000
00100000
00000000
00001000
00000000
00000000
00000000
00010000
00000000
00000000
00000000
,  // measure 48
00000100
00000000
00001000
00001000
00000001
00000001
00000100
00000010
,  // measure 49
00000200
00000000
00000010
00000000
00000301
00000000
00001000
00000100
,  // measure 50
00020000
00000000
00000100
00000000
00031000
00000000
01000000
00010000
,  // measure 51
00200000
00000000
01000000
00000000
00310000
00000000
10000000
01000000
,  // measure 52
00100000
00000000
00010000
01000000
00001000
00000000
00010000
00000100
,  // measure 53
00002000
00000000
00000010
00000000
00003100
00000000
00000010
00000001
,  // measure 54
00000200
00000000
00000010
00000000
00000301
00000000
00001000
00000100
,  // measure 55
00020000
00001000
01030000
10000000
,  // measure 56
01000000
00010000
00001000
00000100
00000001
00000000
00002002
00000000
,  // measure 57
00003003
00000000
00000000
00000000
;

//---------------dance-double - ----------------
#NOTES:
     dance-double:
     :
     Easy:
     3:
     0.160,0.159,0.000,0.008,0.000: // measure 1
00000000
00000000
00000000
00000000
,  // measure 2
00000000
00000000
00000000
00000000
,  // measure 3
00000000
00000000
00000000
00000000
,  // measure 4
00000000
00000000
00000000
00000000
,  // measure 5
00000000
00000000
00000000
00000000
,  // measure 6
00000000
00000000
00000000
00000000
,  // measure 7
10000000
00000000
00010000
01000000
,  // measure 8
00001000
00000000
00010000
00000100
,  // measure 9
00001000
00000000
00000010
00000100
,  // measure 10
00000001
00000000
00000010
00000000
,  // measure 11
00000100
00000000
00001000
00000100
,  // measure 12
00010000
00000000
00001000
01000000
,  // measure 13
00010000
00000000
00100000
01000000
,  // measure 14
10000000
00000000
00010000
00000000
,  // measure 15
10000000
00000000
00010000
01000000
,  // measure 16
00001000
00000000
00010000
00000000
,  // measure 17
00000100
00001000
00000010
00000000
,  // measure 18
00001000
00000000
00000100
00000000
,  // measure 19
00000010
00000001
00000100
00000000
,  // measure 20
00000001
00000000
00000010
00000000
,  // measure 21
00000100
00010000
00001000
00000000
,  // measure 22
00010000
00000000
00000100
00000000
,  // measure 23
00010000
00001000
01000000
00000000
,  // measure 24
00001000
00000000
00010000
00000000
,  // measure 25
01000000
10000000
00010000
00000000
,  // measure 26
01000000
00010000
10000000
00000000
,  // measure 27
00100000
10000000
00010000
00000000
,  // measure 28
00100000
00000000
00001000
00000000
,  // measure 29
00010000
00000100
00001000
00000000
,  // measure 30
00000010
00000100
00000001
00000000
,  // measure 31
00000010
00000000
00001000
00000000
,  // measure 32
00010000
00000000
10000000
00000000
,  // measure 33
00010000
00000000
00001000
00010000
,  // measure 34
00001000
01000000
00010000
00000000
,  // measure 35
10000000
01000000
00010000
00000000
,  // measure 36
00001000
00000100
00000001
00000000
,  // measure 37
00001000
00000100
00010000
00000000
,  // measure 38
00001000
01000000
00100000
00000000
,  // measure 39
10000000
01000000
00100000
00000000
,  // measure 40
00010000
01000000
00001000
00000000
,  // measure 41
00010000
00000100
00001000
00000000
,  // measure 42
00000010
00000100
00000001
00000000
,  // measure 43
00000010
00000100
00001000
00000000
,  // measure 44
00000100
00010000
00001000
00000000
,  // measure 45
01000000
00010000
00100000
00000000
,  // measure 46
01000000
00000000
10000000
00000000
,  // measure 47
00010000
00000000
01000000
00000000
,  // measure 48
00001000
00000000
00010000
00001000
,  // measure 49
00000100
00000000
00000001
00000010
,  // measure 50
00000100
00000000
00001000
00000100
,  // measure 51
00010000
00000000
00001000
01000000
,  // measure 52
00010000
00000000
00100000
00000000
,  // measure 53
01000000
00000000
10000000
00100000
,  // measure 54
01000000
00000000
00010000
00100000
,  // measure 55
00001000
00000000
00010000
00000100
,  // measure 56
00001000
00000000
00000010
00000200
,  // measure 57
00000300
00000000
00000000
00000000
;
