#TITLE:Sakura Reflection;
#SUBTITLE:;
#ARTIST:Ryu☆;
#TITLETRANSLIT:;
#SUBTITLETRANSLIT:;
#ARTISTTRANSLIT:Ryu*;
#GENRE:;
#CREDIT:;
#MENUCOLOR:;
#METERTYPE:DDR;
#BANNER:Sakura Reflection.png;
#BACKGROUND:Sakura Reflection-bg.png;
#LYRICSPATH:;
#CDTITLE:cdtitle.png;
#MUSIC:Sakura Reflection.mp3;
#OFFSET:-0.377;
#SAMPLESTART:88.869;
#SAMPLELENGTH:12.000;
#SELECTABLE:YES;
#LISTSORT:;
#BPMS:0.000=181.000;
#STOPS:;
#BGCHANGES:;
#ATTACKS:;

//---------------dance-single - ----------------
#NOTES:
     dance-single:
     :
     Hard:
     12:
     0.669,0.764,0.341,0.265,0.047:
0000
0000
0000
0000
,
1000
0000
0001
0100
0000
0010
0000
0100
,
0000
0001
1000
0001
1000
0000
0100
0000
,
0010
0000
0100
1000
0000
0001
0000
1000
,
0000
0001
0100
0010
1000
0100
0010
0001
,
1000
0000
0010
0100
0000
0001
0000
0100
,
0000
0010
1000
0010
1000
0000
0100
0000
,
0010
0000
0100
1000
0000
0001
0000
0100
,
0000
0010
1000
0100
0010
0100
1000
0001
,
0100
0000
0100
0001
0000
1000
0000
0100
,
0000
0010
0010
0010
0010
0000
0001
0000
,
0010
0000
0010
1000
0000
0010
0000
0001
,
0000
0100
0100
0100
0010
1000
0010
0100
,
0001
0000
0001
0100
0000
1000
0000
0100
,
0000
0001
0001
0001
0001
0000
1000
0000
,
0100
0000
0100
1000
0000
0010
0000
0100
,
0000
0001
0001
0001
0100
1000
0100
0001
,
2000
0100
0000
0010
0000
0100
0000
3001
,
0020
0100
0000
0100
0000
0130
1000
0100
,
0020
0001
0000
0100
0000
0001
0000
0130
,
2000
0010
0000
0100
0000
3010
0100
0001
,
2000
0100
0000
0010
0000
0100
0000
3001
,
0200
0010
0000
1000
0000
0310
0100
1000
,
0200
0001
0000
1000
0000
0010
0000
0301
,
0020
0100
0000
1000
0000
0130
0010
0100
,
1000
0001
0000
1100
0000
0101
0000
1100
,
0000
0110
0000
0110
0000
0001
0100
1000
,
0100
0001
0000
0110
0000
1100
0000
0110
,
0000
0011
0000
0011
0000
1000
0010
0001
,
0100
0010
0000
1010
0000
0110
0000
0101
,
0000
0110
0000
0110
0000
0010
1000
0010
,
0001
0010
0000
1100
0000
0101
0000
1100
,
1001
0000
1001
0000
0100
0010
1000
0100
,
0010
0001
0000
1100
0000
0101
0000
1100
,
0000
1001
0000
1001
0000
0010
1000
0100
,
0010
0100
0000
1100
0000
0101
0000
1100
,
0000
0110
0000
0110
0000
0001
0100
1000
,
0100
0001
0000
0010
0000
0001
0000
0100
,
0000
0010
0000
1000
0000
0100
0000
1000
,
0010
0100
0001
0010
0100
1000
0100
0001
,
0100
0000
0100
0000
0100
0010
0100
0010
,
0200
0000
0000
0000
,
0000
0000
0000
0000
0300
0000
1000
0100
,
0010
0000
0001
0100
1000
0100
0001
0000
,
1000
0100
0001
0100
1000
0000
0010
0100
,
0001
0000
1000
0010
0001
0010
1000
0000
,
0001
0000
1000
0100
0001
0000
0100
1000
,
0010
0000
0001
0010
1000
0010
0001
0010
,
1000
0100
0001
0100
1000
0000
0001
1000
,
0100
0000
0001
0100
1000
0010
0001
0010
,
1000
0001
0010
0100
1000
0000
0001
0100
,
0010
0010
1000
1000
,
0100
0100
0001
0011
,
0010
0010
0001
0001
,
0100
0100
1000
1010
,
0010
1000
0100
0001
,
0010
0001
0100
1100
,
0010
1000
0100
0010
0001
0100
0010
1000
,
0100
0010
0001
1000
0020
0100
0130
0000
,
0002
0000
0000
0000
1003
0000
0100
0000
0010
0000
0100
1000
0100
0000
0010
0000
,
0001
0100
0010
0100
0002
0000
1003
0100
,
2000
0000
0000
0000
3001
0000
0100
0000
0010
0000
0100
0001
0100
0000
0010
0000
,
2000
0000
3100
0100
0200
0000
0310
0001
,
2000
0000
3100
0001
0100
1000
0100
0001
,
0100
1000
0010
0100
0002
0000
1003
0001
,
0200
0000
0000
0000
0310
0000
1000
0000
0001
0000
0010
0100
0010
0000
0001
0000
,
0100
0010
1000
0001
0010
0000
0110
0000
,
1001
0000
0000
0000
1000
0000
0100
0000
0001
0000
0100
1000
0100
0000
0010
0000
,
0001
0100
0010
1000
0002
0000
1003
0001
,
0200
0000
0000
0000
0310
0000
1000
0000
0001
0000
0010
0001
0010
0000
0100
0000
,
2000
0000
0000
0000
3001
0100
0001
0100
0002
0000
0000
0000
1003
0000
0100
0000
,
0002
0000
0000
0000
0103
0000
1000
0000
0010
0100
0010
0100
0010
0000
1000
0000
,
0001
0010
1000
0010
0002
0000
1003
0010
,
0002
0000
0000
0000
0013
0000
0100
0000
0001
0000
1000
0100
1000
0000
0001
0000
,
0010
0100
1000
0001
0200
0000
0310
0000
,
2002
0000
0000
0000
,
0000
0000
0000
3003
;

//---------------dance-single - ----------------
#NOTES:
     dance-single:
     :
     Medium:
     9:
     0.459,0.473,0.038,0.190,0.000:
0000
0000
0000
0000
,
1000
0001
0100
0010
,
1000
0000
0001
0100
0010
0000
0100
0000
,
0001
0010
0100
1000
,
0001
0000
0010
0100
1000
0000
0100
0000
,
1000
0001
0100
0010
,
1000
0000
0100
0010
0001
0000
0010
0000
,
0100
1000
0001
0100
,
0010
0000
1000
0001
0100
0000
0010
0000
,
0100
0001
0010
0100
,
1000
0000
0001
0100
0010
0000
1000
0000
,
0100
0010
0100
1000
,
0001
0000
1000
0000
0010
0100
0001
0000
,
1000
0100
0000
0100
,
0000
0010
0000
0010
,
0001
0100
0010
1000
,
0001
1000
0001
1000
0010
0100
0010
0100
,
0020
0000
0000
0000
,
2030
0000
0000
0000
,
3200
0000
0000
0000
,
0320
0000
0000
0000
,
0032
0000
0000
0000
,
0203
0000
0000
0000
,
2300
0000
3020
0000
,
0031
0000
1000
0000
0001
1000
0001
1000
,
0010
0100
0001
0010
,
0100
0000
1000
0000
0001
1000
0001
0000
,
0100
0010
1000
0100
,
1000
0000
0010
0000
0100
0001
0100
0000
,
0001
1000
0100
0010
,
0100
0000
1000
0000
0001
0100
0001
0000
,
1000
0001
0100
0010
,
1000
0000
0001
0000
0010
0100
0010
0000
,
1000
0100
1000
0000
0001
0100
0001
0000
,
1000
0000
0010
0000
0100
0001
0100
0000
,
0001
0010
0001
0000
1000
0010
1000
0000
,
0001
0000
0100
0000
0010
1000
0010
0000
,
0001
0100
0010
0100
,
0001
0000
1000
0000
,
0100
0010
0100
1000
,
0001
0000
0100
0000
0010
0100
0000
0200
,
0000
0000
0000
0000
,
0000
0000
0000
0000
0300
0000
0001
1000
,
0001
0000
1000
0001
1000
0000
0010
0000
,
0100
0000
0100
0000
0100
0000
0001
1000
,
0001
0000
1000
0001
1000
0000
0100
0000
,
0010
0000
0010
0000
0010
0000
0001
1000
,
0001
0000
1000
0001
1000
0000
0010
0000
,
0100
0000
0001
0000
1000
0000
0100
0010
,
0100
0000
0010
0100
0010
0000
0100
0000
,
1000
0000
0001
0000
0100
0000
0010
1000
,
0200
1300
2000
3010
,
0020
0031
0002
0103
,
0200
0301
0002
0013
,
0020
1030
2000
3100
,
0010
0001
1000
0100
,
0010
0001
1000
0100
,
1000
0010
0100
0001
1000
0010
0100
0001
,
1000
0001
1001
1001
,
0010
0000
0010
0000
0100
0001
0100
0000
,
0010
1000
0100
0010
0001
0000
0010
0000
,
0100
1000
0010
0010
,
0100
0001
0100
0000
0010
0000
0100
0001
,
0100
0010
1000
1000
,
0100
0010
0001
1000
0100
0000
0010
0100
,
1000
0001
0100
0100
,
0010
1000
0001
0010
0100
0000
0110
0000
,
0001
0001
1000
1000
,
0001
0100
0010
0100
0001
0000
1000
0100
,
0010
0010
0100
0100
,
1000
0000
0001
0100
0010
0000
1000
0100
,
0010
0100
0000
0100
,
1000
0001
0000
0001
,
1000
0100
0001
0100
,
1000
0010
0100
0001
2000
0000
3000
0000
,
2002
0000
0000
0000
,
0000
0000
0000
3003
;

//---------------dance-single - ----------------
#NOTES:
     dance-single:
     :
     Beginner:
     2:
     0.118,0.178,0.000,0.000,0.000:
0000
0000
0000
0000
,
1000
0000
0000
0000
,
0001
0000
0000
0000
,
1000
0000
0000
0000
,
0100
0100
0100
0000
,
0010
0000
0000
0000
,
0001
0000
0000
0000
,
0100
0000
0000
0000
,
0001
0000
0000
0000
,
0001
0000
0000
0000
,
0100
0000
0000
0000
,
0010
0000
0000
0000
,
0100
0100
0100
0000
,
0001
0000
0000
0000
,
0000
0000
0000
0000
,
1000
0000
0000
0000
,
0000
0000
0000
0000
,
0010
0000
0000
0000
,
0000
0000
0000
0000
,
0100
0000
0000
0000
,
0000
0000
0000
0000
,
0001
0000
0000
0000
,
0000
0000
0000
0000
,
1000
0000
1000
0000
,
1000
1000
1000
0000
,
0100
0000
0000
0000
,
0010
0000
0000
0000
,
0001
0000
0000
0000
,
0100
0000
0100
0000
,
0100
0000
0000
0000
,
0010
0000
0000
0000
,
1000
0000
0000
0000
,
0001
0001
0001
0000
,
0100
0000
0000
0000
,
0010
0000
0000
0000
,
1000
0000
0000
0000
,
0100
0000
0100
0000
,
0100
0000
0000
0000
,
0000
0000
0000
0000
,
0010
0000
0000
0000
,
0000
0000
0000
0000
,
0001
0000
0000
0000
,
0000
0000
0000
0000
,
0100
0000
0000
0000
,
0100
0000
0000
0000
,
0100
0000
0100
0000
,
0100
0000
0000
0000
,
0001
0000
0000
0000
,
0001
0000
0001
0000
,
0001
0000
0000
0000
,
1000
0000
0000
0000
,
0100
0000
0000
0000
,
0001
0000
0000
0000
,
0010
0000
0000
0000
,
1000
0000
0000
0000
,
0100
0000
0000
0000
,
0001
0000
0000
0000
,
0010
0000
0000
0000
,
1000
1000
1000
0000
,
1000
0000
0000
0000
,
0001
0000
0000
0000
,
0100
0000
0000
0000
,
0010
0000
0010
0000
,
0010
0000
0000
0000
,
0100
0000
0000
0000
,
0001
0000
0000
0000
,
1000
0000
1000
0000
,
1000
0000
0000
0000
,
0100
0000
0000
0000
,
0010
0000
0000
0000
,
0100
0000
0100
0000
,
0100
0000
0000
0000
,
1000
0000
0000
0000
,
0001
0000
0000
0000
,
0100
0100
0100
0000
,
0100
0000
0000
0000
;

//---------------dance-single - ----------------
#NOTES:
     dance-single:
     :
     Easy:
     5:
     0.284,0.327,0.000,0.095,0.000:
0000
0000
0000
0000
,
0100
0001
0000
0001
,
0000
1000
0000
1000
,
0100
0010
0000
0010
,
0000
0010
0100
1000
,
0100
0010
0000
0001
,
0000
0100
0000
0010
,
1000
0100
0000
1000
,
0000
0010
0100
0001
,
0010
0100
0000
1000
,
0000
0100
0000
0010
,
0001
0100
0000
0010
,
0000
1000
0100
1000
,
0001
0100
0000
0000
,
0100
0000
0000
0000
,
0100
0010
0000
0010
,
0100
0100
0010
0010
,
2000
0000
0000
3000
,
0002
0000
0000
0003
,
0200
0000
0000
0300
,
0020
0000
0000
0030
,
2000
0000
0000
3000
,
0002
0000
0000
0003
,
0020
0000
0000
0030
,
0200
0000
0000
0300
,
1000
0100
0000
0100
,
1000
0100
0000
0010
,
0001
0100
0000
0100
,
0001
0100
0000
0010
,
1000
0100
0000
0100
,
1000
0100
0000
0010
,
0001
1000
0000
1000
,
0100
1000
0000
0001
,
0100
0010
0000
0010
,
1000
0010
0000
0100
,
0001
0010
0000
0010
,
0100
0010
0000
0100
,
1000
0001
0000
1000
,
0000
0001
0000
1000
,
0010
0010
0100
0100
,
0001
1000
0001
1000
,
0200
0000
0000
0000
,
0000
0000
0300
0000
,
0010
0010
0010
0000
,
0100
0000
1000
0000
,
0010
0010
0010
0000
,
0100
0000
0001
0000
,
0010
0010
0010
0000
,
0001
0000
0100
0000
,
0010
0010
0010
0000
,
1000
0000
0100
0000
,
0010
0000
0010
0000
,
0001
0000
0001
0000
,
0100
0000
0100
0000
,
1000
0000
1000
0000
,
0010
0001
0010
0001
,
0100
0001
0100
0001
,
1000
0100
1000
0100
,
1000
0010
1000
0010
,
0100
0100
0100
0010
,
0100
0100
0100
0000
,
0001
0001
0001
1000
,
0001
0001
0001
0000
,
0010
0010
0010
0100
,
0010
0010
0010
0000
,
0100
0100
0100
1000
,
0100
0100
0100
0000
,
1000
0001
0100
0001
,
1000
0100
0001
0000
,
0100
1000
0001
1000
,
0100
1000
0001
0000
,
0100
0010
0000
0010
,
0000
1000
0000
1000
,
0001
0010
0100
1000
,
0001
0100
0010
0000
,
0200
0000
0000
0000
,
0000
0000
0000
0300
;

//---------------dance-double - ----------------
#NOTES:
     dance-double:
     :
     Hard:
     12:
     0.588,0.582,0.218,0.114,0.000:
00000000
00000000
00000000
00000000
,
00010000
00000000
01000000
10000000
00000000
01000000
00000000
00100000
,
00000000
00100000
00010000
00100000
00010000
00000000
01000000
00000000
,
00001000
00000000
00000100
00000001
00000000
00000100
00000000
00000010
,
00000000
00000010
00001000
00000010
00010000
00001000
00010000
01000000
,
10000000
00000000
00100000
10000000
00000000
00100000
00000000
01000000
,
00000000
01000000
00010000
01000000
00010000
00000000
00100000
00000000
,
00001000
00000000
00000010
00000001
00000000
00000010
00000000
00000100
,
00000000
00000100
00001000
00000100
00010000
00001000
00010000
00100000
,
00010000
00000000
00001000
00000100
00000000
00000001
00000000
00000010
,
00000000
00000010
00000100
00001000
00000100
00000000
00010000
00000000
,
00001000
00000000
01000000
00100000
00000000
10000000
00000000
00100000
,
00000000
01000000
00010000
01000000
00001000
00010000
00001000
00100000
,
00010000
10000000
01000000
00100000
,
00010000
00001000
00000100
00000010
,
00000001
00001000
00010000
10000000
,
00010000
00001000
00000001
00000100
,
00000010
00001000
00000000
00001000
00000000
00000100
00000000
00000100
,
00000000
00010000
00000000
00010000
00000000
00001000
01000000
00001000
,
00100000
00010000
00000000
00010000
00000000
01000000
00000000
01000000
,
00000000
00100000
00000000
00100000
00000000
10000000
01000000
10000000
,
00010000
01000000
00000000
01000000
00000000
00001000
00000000
00001000
,
00000000
00010000
00000000
00010000
00000000
00000100
00000001
00000100
,
00000010
00000001
00000000
00000001
00000000
00000100
00000000
00000100
,
00000000
00001000
00000000
00001000
00000000
01000000
00010000
01000000
,
00100000
10000000
00000000
11000000
00000000
01010000
00000000
00011000
,
00000000
00002000
00000000
00023000
00000000
00031000
00010000
00000010
,
00000100
00000001
00000000
00000011
00000000
00001010
00000000
00011000
,
00000000
00020000
00000000
00032000
00000000
00013000
00001000
00100000
,
01000000
10000000
00000000
10100000
00000000
00110000
00000000
00011000
,
00000000
00002000
00000000
00023000
00000000
00031000
00010000
00000100
,
00000010
00000001
00000000
00000101
00000000
00001100
00000000
00011000
,
00000000
00020000
00000000
00032000
00000000
00013000
00001000
00100000
,
01000000
10000000
01000000
00100000
00000000
00001000
00000000
00010000
,
00000000
00000100
00000000
00000010
00000000
00000001
00001000
00000010
,
00000100
00000001
00000100
00000010
00000000
00010000
00000000
00001000
,
00000000
01000000
00000000
00100000
00000000
10000000
00010000
00100000
,
01000000
10000000
00010000
01000000
,
00001000
00010000
00000010
00000100
,
00001000
00010000
00100000
01000000
00001000
00010000
00000010
00000100
,
00001000
00010000
00100000
01000000
00001000
00010000
00000010
00000100
,
00020000
00000000
00000000
00000000
,
00030000
00000000
00000000
00000000
00000000
00000000
00010000
01000000
,
00100000
00000000
00001000
00000010
00000100
00000000
00001000
00000000
,
00010000
01000000
10000000
01000000
00010000
00000000
00001000
00000010
,
00000100
00000000
00010000
01000000
00100000
00000000
00001000
00000000
,
00000010
00000000
00000001
00000100
00000010
00000000
00001000
00000100
,
00000010
00000000
00010000
00100000
01000000
00000000
10000000
00000000
,
00010000
01000000
00001000
00010000
00000100
00000000
00001000
00000010
,
00000100
00000000
00010000
01000000
00100000
00000000
10000000
00000000
,
00010000
01000000
00010000
00001000
00000010
00000000
00000100
00000000
,
00000001
00000001
00000010
00000010
,
00001000
00001000
00010000
00010000
,
00100000
00100000
10000000
10000000
,
01000000
01000000
00010000
00010000
,
00001000
00001000
00000100
00000100
,
00000001
00000001
00000010
00000010
,
00001000
00010000
01000000
10000000
01000000
00010000
00001000
00000010
,
00000001
00000010
00001000
00010000
00011000
00000000
00011000
00000000
,
00001000
00000000
01000000
00001000
00100000
00010000
01000000
00001000
,
00010000
01000000
10000000
01000000
00010000
00000000
00001000
00000000
,
00010000
00000000
00000100
00010000
00000010
00001000
00000100
00010000
,
00000010
00000000
00000100
00001000
00010000
00000000
00001000
00010000
,
01000000
00000000
10000000
01000000
00010000
00000100
00010000
01000000
,
00100000
00010000
00000010
00010000
00100000
00000000
00001000
00010000
,
00001000
00000000
00010000
00001000
00000100
00000001
00000100
00000010
,
00001000
00000100
00010000
00001000
00100000
00000000
00110000
00000000
,
11000000
00000000
00010000
01000000
00001000
00010000
00001000
00000100
,
00000001
00000010
00000100
00001000
00000010
00000000
00001010
00000000
,
00000101
00000000
00001000
00000100
00010000
00001000
00010000
01000000
,
10000000
00000000
00100000
01000000
00010000
00000000
01010000
00000000
,
10100000
00000000
10000000
00100000
00010000
00001000
00000100
00000001
,
00000100
00000010
00001000
00000001
00000010
00000000
00000110
00000000
,
00001001
00000000
00000001
00000100
00001000
00010000
00100000
10000000
,
00010000
00100000
10000000
00100000
00002000
00000000
00003000
00000000
,
00022000
00000000
00000000
00000000
,
00000000
00000000
00000000
00033000
;

//---------------dance-double - ----------------
#NOTES:
     dance-double:
     :
     Medium:
     9:
     0.470,0.473,0.019,0.028,0.000: // measure 1
00000000
00000000
00000000
00000000
,  // measure 2
10000000
01000000
00100000
00010000
,  // measure 3
01000000
00001000
01000000
00001000
01000000
00000000
00001000
00000000
,  // measure 4
00010000
00000100
00000010
00000001
,  // measure 5
00001000
00000100
00001000
00000100
00001000
00000000
00000100
00000000
,  // measure 6
00010000
00001000
01000000
00010000
,  // measure 7
10000000
01000000
10000000
01000000
10000000
00000000
01000000
00000000
,  // measure 8
00010000
00001000
00000100
00000001
,  // measure 9
00001000
00000010
00001000
00000010
00001000
00000000
00000100
00000000
,  // measure 10
00010000
00001000
00000100
00000010
,  // measure 11
00001000
00000100
00001000
00000100
00001000
00000000
00000010
00000000
,  // measure 12
00000100
00001000
00010000
01000000
,  // measure 13
10000000
00010000
10000000
00010000
10000000
00000000
00100000
00000000
,  // measure 14
01000000
00010000
00000000
00100000
,  // measure 15
00000000
00001000
00000000
00010000
,  // measure 16
00000000
00000100
00000010
00000001
,  // measure 17
00000100
00001000
00010000
01000000
,  // measure 18
10000000
01000000
00000000
00000000
00100000
00000000
00010000
00000000
,  // measure 19
01000000
00001000
00000000
00000000
00010000
00000000
00000100
00000000
,  // measure 20
00001000
00000010
00000000
00000000
00000100
00000000
00000001
00000000
,  // measure 21
00000010
00000100
00000000
00000000
00001000
00000000
00000010
00000000
,  // measure 22
00010000
00001000
00000000
00000000
00100000
00000000
00010000
00000000
,  // measure 23
01000000
00100000
00000000
00000000
10000000
00000000
01000000
00000000
,  // measure 24
00010000
00001000
00000000
00000000
00000100
00000000
00000001
00000000
,  // measure 25
00001000
00000100
00001000
00000100
00010000
00001000
00010000
00000000
,  // measure 26
00001000
01000000
00000000
00100000
00000000
01000000
00000000
00010000
,  // measure 27
01000000
00100000
10000000
01000000
,  // measure 28
00010000
00001000
00000000
00010000
00000000
00000100
00000000
00001000
,  // measure 29
00000010
00000100
00000001
00000010
,  // measure 30
00000100
00010000
00000000
00001000
00000000
00100000
00000000
00010000
,  // measure 31
01000000
00100000
10000000
00010000
,  // measure 32
01000000
00001000
00000000
00010000
00000000
00000100
00000000
00001000
,  // measure 33
00000010
00000000
00000100
00000000
00000001
00000010
00000100
00000000
,  // measure 34
00001000
00000100
00000000
00010000
00000000
00001000
00000000
01000000
,  // measure 35
00000000
00100000
00000000
01000000
00000000
00001000
00010000
00000000
,  // measure 36
00000100
00001000
00000000
00000010
00000000
00000100
00000000
00000001
,  // measure 37
00000000
00000010
00000000
00000100
00000000
00010000
00001000
00000000
,  // measure 38
01000000
00100000
10000000
00100000
,  // measure 39
01000000
00010000
00100000
00001000
,  // measure 40
00010000
00000010
00001000
00000100
,  // measure 41
00000010
00000000
00000010
00000000
00000001
00000100
00000001
00000100
,  // measure 42
00000020
00000000
00000000
00000000
,  // measure 43
00000030
00000000
00000000
00000000
00000000
00000000
00001000
00000100
,  // measure 44
00001000
00000100
00010000
00001000
,  // measure 45
01000000
00010000
01000000
00000000
00100000
00000000
10000000
01000000
,  // measure 46
10000000
01000000
00100000
00010000
,  // measure 47
01000000
00000000
00001000
00010000
00001000
00000000
00010000
00000100
,  // measure 48
00010000
00000010
00001000
00000100
,  // measure 49
00000010
00000001
00000010
00000000
00000100
00000000
00010000
00001000
,  // measure 50
00010000
00001000
01000000
00100000
,  // measure 51
10000000
01000000
10000000
00000000
00010000
00000000
01000000
00001000
,  // measure 52
01000000
00100000
10000000
01000000
,  // measure 53
00010000
00001000
00000010
00000001
,  // measure 54
00000100
00001000
00010000
00100000
,  // measure 55
10000000
01000000
00010000
00001000
,  // measure 56
00000010
00000001
00000100
00001000
,  // measure 57
00010000
00100000
10000000
01000000
,  // measure 58
00010000
01000000
10000000
00100000
,  // measure 59
00010000
00001000
00000100
00000100
,  // measure 60
00000010
00000000
00001000
00000100
00000010
00000000
00000010
00000100
,  // measure 61
00001000
00000000
00000100
00000000
00010000
00000000
00001000
01000000
,  // measure 62
00001000
00000000
00100000
00010000
01000000
00000000
01000000
00010000
,  // measure 63
00100000
00000000
01000000
00000000
10000000
00000000
00010000
01000000
,  // measure 64
00001000
00000000
01000000
00001000
00010000
00000000
00000100
00000000
,  // measure 65
00001000
00000010
00000100
00000000
00000010
00000000
00001000
00000100
,  // measure 66
00010000
00000000
00001000
01000000
00100000
00000000
00100000
01000000
,  // measure 67
00001000
00010000
01000000
10010000
,  // measure 68
10000000
00000000
01000000
00100000
00010000
00000000
01000000
00001000
,  // measure 69
00010000
00000000
00000100
00000000
00001000
00000000
00000010
00000100
,  // measure 70
00000001
00000000
00000010
00000100
00010000
00000000
00001000
00000000
,  // measure 71
01000000
00000000
00010000
00000000
00100000
00000000
01000000
10000000
,  // measure 72
01000000
00000000
00010000
00001000
00010000
00000000
00001000
00000000
,  // measure 73
00000100
00000001
00000100
00000000
00000010
00000000
00001000
00000100
,  // measure 74
00010000
00000000
00001000
01000000
00010000
00000000
00100000
01000000
,  // measure 75
10000000
01000000
00100000
00010000
01000000
00000000
00000000
00000000
,  // measure 76
20020000
00000000
00000000
00000000
,  // measure 77
00000000
00000000
00000000
30030000
;

//---------------dance-double - ----------------
#NOTES:
     dance-double:
     :
     Easy:
     5:
     0.291,0.291,0.009,0.028,0.000: // measure 1
00000000
00000000
00000000
00000000
,  // measure 2
00010000
00000000
00001000
00000000
,  // measure 3
00010000
00001000
00010000
01000000
,  // measure 4
10000000
00000000
00010000
00000000
,  // measure 5
10000000
01000000
00010000
00001000
,  // measure 6
00010000
00000000
00001000
00000000
,  // measure 7
00010000
00001000
00000100
00000001
,  // measure 8
00001000
00000000
00000001
00000000
,  // measure 9
00001000
00000001
00000100
00001000
,  // measure 10
00010000
00000000
00001000
00000000
,  // measure 11
00010000
00001000
00010000
01000000
,  // measure 12
10000000
00000000
00010000
00000000
,  // measure 13
10000000
01000000
00010000
00001000
,  // measure 14
00010000
00000000
00001000
00000000
,  // measure 15
00010000
00001000
00000100
00000001
,  // measure 16
00001000
00000000
00000001
00000000
,  // measure 17
00001000
00000001
00000100
00001000
,  // measure 18
00010000
00000000
00001000
00000000
,  // measure 19
00010000
00000000
01000000
00000000
,  // measure 20
10000000
00000000
01000000
00000000
,  // measure 21
00010000
00000000
00001000
00000000
,  // measure 22
00000100
00000000
00000001
00000000
,  // measure 23
00000100
00000000
00001000
00000000
,  // measure 24
00010000
00000000
01000000
00000000
,  // measure 25
10000000
00000000
01000000
00000000
,  // measure 26
00010000
00001000
00010000
00001000
,  // measure 27
00010000
00000000
01000000
00000000
,  // measure 28
10000000
00010000
10000000
00010000
,  // measure 29
10000000
00000000
01000000
00000000
,  // measure 30
00010000
00001000
00010000
00001000
,  // measure 31
00010000
00000000
00001000
00000000
,  // measure 32
00000100
00000001
00000100
00000001
,  // measure 33
00000100
00000000
00000001
00000000
,  // measure 34
00000100
00001000
00000100
00001000
,  // measure 35
00000100
00000000
00001000
00000000
,  // measure 36
00010000
00001000
00010000
00001000
,  // measure 37
00010000
00000000
00001000
00000000
,  // measure 38
00010000
01000000
00010000
01000000
,  // measure 39
00010000
00000000
01000000
00000000
,  // measure 40
10000000
00010000
10000000
00010000
,  // measure 41
10000000
00000000
01000000
00000000
,  // measure 42
00020000
00000000
00000000
00000000
,  // measure 43
00030000
00000000
00000000
00000000
,  // measure 44
00001000
00010000
01000000
10000000
,  // measure 45
01000000
00010000
00001000
00000000
,  // measure 46
00010000
00001000
00000100
00000001
,  // measure 47
00000100
00001000
00010000
00000000
,  // measure 48
00001000
00010000
00100000
10000000
,  // measure 49
00100000
00010000
00001000
00000000
,  // measure 50
00010000
00001000
00000010
00000001
,  // measure 51
00000010
00001000
00010000
00000000
,  // measure 52
00001000
00000000
00010000
00000000
,  // measure 53
01000000
00000000
10000000
00000000
,  // measure 54
00100000
00000000
00010000
00000000
,  // measure 55
00001000
00000000
00000100
00000000
,  // measure 56
00000001
00000000
00000010
00000000
,  // measure 57
00001000
00000000
00010000
00000000
,  // measure 58
01000000
00000000
10000000
00000000
,  // measure 59
00100000
00000000
00010000
00000000
,  // measure 60
00001000
00010000
00001000
00010000
,  // measure 61
01000000
00010000
01000000
00000000
,  // measure 62
00010000
01000000
00010000
01000000
,  // measure 63
10000000
01000000
10000000
00000000
,  // measure 64
01000000
10000000
01000000
10000000
,  // measure 65
00100000
10000000
00100000
00000000
,  // measure 66
10000000
00100000
10000000
00100000
,  // measure 67
00010000
00100000
00010000
00000000
,  // measure 68
00100000
00010000
00100000
00010000
,  // measure 69
00001000
00010000
00001000
00000000
,  // measure 70
00010000
00001000
00010000
00001000
,  // measure 71
00000100
00001000
00000100
00000000
,  // measure 72
00001000
00000000
00000100
00000000
,  // measure 73
00000001
00000000
00000010
00000000
,  // measure 74
00001000
00010000
01000000
10000000
,  // measure 75
00100000
00010000
00001000
00000000
,  // measure 76
00022000
00000000
00000000
00000000
,  // measure 77
00000000
00000000
00000000
00033000
;
