#TITLE:砂漠の雪;
#SUBTITLE:;
#ARTIST:MELL;
#TITLETRANSLIT:Sabaku no Yuki;
#SUBTITLETRANSLIT:;
#ARTISTTRANSLIT:;
#GENRE:;
#CREDIT:;
#MENUCOLOR:;
#METERTYPE:DDR;
#BANNER:Sabaku no Yuki.png;
#BACKGROUND:Sabaku no Yuki-bg.png;
#LYRICSPATH:;
#CDTITLE:cdtitle.png;
#MUSIC:Sabaku no Yuki.mp3;
#OFFSET:-0.025;
#SAMPLESTART:60.020;
#SAMPLELENGTH:15.000;
#SELECTABLE:YES;
#LISTSORT:;
#DISPLAYBPM:128.000;
#BPMS:0.000=128.000,224.000=124.121,224.500=120.471,225.000=117.029,226.000=124.752,227.000=125.386,228.000=115.381,229.000=119.301,229.500=89.693,230.000=83.592,230.500=81.920,231.000=78.769,231.500=75.852,232.000=71.860,232.500=71.860,233.000=75.852,233.500=61.440,234.000=49.548,235.000=40.157,235.500=41.236;
#STOPS:;
#BGCHANGES:;
#ATTACKS:;

//---------------dance-single - ----------------
#NOTES:
     dance-single:
     :
     Hard:
     9:
     0.446,0.444,0.275,0.308,0.029:
0000
0000
0000
0000
,
0000
0000
0000
0000
,
0000
0000
0000
0000
,
0000
0000
0000
0000
,
0001
0100
1000
0100
,
0001
0010
1000
0010
,
0001
0100
1000
0010
,
0001
0010
0100
1001
,
0002
0000
0010
0000
0103
1000
0100
0001
,
0010
0000
0100
0000
1000
1000
0001
0100
,
0020
0000
1000
0000
0130
0001
0010
0100
,
1000
0001
1100
0101
,
0110
0000
1000
0000
0001
0000
1000
0100
,
0020
1000
0100
0031
,
0100
0000
0001
0000
1000
0000
0001
0010
,
0200
0001
0010
1300
,
0120
0000
0001
0000
1030
0100
0001
1000
,
0010
0000
0001
0000
1000
1000
0010
0100
,
0210
0000
1000
0000
0301
0010
0100
0001
,
0100
1000
0101
1100
,
1001
0000
0001
1000
0100
0000
0001
0100
,
2000
0000
0010
0000
0100
0000
3001
0001
,
0020
0000
1030
0010
0002
0000
1003
0010
,
0200
0000
1000
0000
0301
0010
0100
1000
,
1001
0000
0110
0100
0001
1000
0100
0010
,
0001
0000
1000
0010
0010
0000
0110
0000
,
1100
0000
0011
0001
1000
0100
0001
0100
,
0010
0000
0000
0001
0000
0000
1000
0000
1000
0000
0000
0000
0101
0000
0000
0000
,
1010
0000
1100
0100
0001
0100
0010
1000
,
0010
0000
0000
0001
0000
0000
0100
0000
0100
0000
0000
0000
1001
0000
0000
0000
,
0120
0000
1030
1000
0100
0010
0001
0001
,
2002
0000
0000
3003
,
1000
0000
0010
0000
0100
0000
0001
1000
0000
0001
1000
0000
0100
0000
0010
0000
,
0002
0000
0013
0100
1000
0000
1001
0001
,
2000
3200
0302
0023
,
1030
0000
0100
1000
1100
0000
0101
0000
,
2000
0000
3200
0000
0310
0001
0100
1000
,
0200
0000
0001
0000
1300
0100
0001
1000
,
0200
0000
0320
0000
0031
0010
0001
0100
,
1000
0000
0100
0001
1000
0000
0110
0000
,
0001
0000
0010
0000
0100
0000
1000
0001
0000
1000
0001
0000
0100
0000
0010
0000
,
2000
0000
0000
3010
0000
0000
0100
0000
0001
0000
0000
0000
1001
0000
1000
0000
,
0002
0203
2300
3020
,
0031
0000
0100
0001
0101
0000
1100
0000
,
0002
0000
0203
0000
0310
1000
0100
0001
,
0200
0000
1000
0000
0301
0100
1000
0001
,
0200
0000
0320
0000
1030
0010
1000
0100
,
0001
0000
0100
1000
0001
0000
0110
0000
,
1002
0000
0010
0000
0100
0100
0103
0000
,
2001
0000
0010
0000
0100
0100
3100
0000
,
0210
0000
1000
0000
0001
0001
0301
0000
,
0120
0000
1000
0000
0001
0001
0031
0000
,
1000
0010
0001
0100
1000
0000
0100
0000
,
1000
0100
0001
0010
1000
0000
0010
0000
,
0001
0010
1000
0000
0001
0100
1000
0000
,
0001
0100
1000
0100
0001
1000
0100
0000
,
0010
0100
1000
0001
0100
0000
1000
0000
,
0100
0000
0010
1000
0100
0001
0100
0010
,
0001
1000
0010
0100
0001
0000
0100
0010
,
0000
1001
0000
0000
;

//---------------dance-single - ----------------
#NOTES:
     dance-single:
     :
     Medium:
     6:
     0.276,0.321,0.067,0.275,0.000:
0000
0000
0000
0000
,
0000
0000
0000
0000
,
0000
0000
0000
0000
,
0000
0000
0000
0000
,
1000
1000
0100
0100
,
0010
0010
0001
0001
,
1000
0010
0100
0001
,
1000
0010
0100
0001
,
2000
0000
3100
0000
0010
0100
1000
0000
,
0002
0000
0103
0000
0010
0100
0001
0000
,
2000
0000
3010
0000
0100
0010
1000
0000
,
0001
0000
2000
3002
,
0103
0000
0000
0000
0100
0000
0100
0010
,
0100
0000
0001
1000
,
0100
0000
0010
0100
1000
0000
0001
0000
,
2002
0000
0000
3003
,
0002
0000
0103
0000
0010
0100
0001
0000
,
2000
0000
3100
0000
0010
0100
1000
0000
,
0002
0000
0013
0000
0100
0010
0001
0000
,
1000
0000
0002
2003
,
3001
0000
0000
0000
0100
0000
0010
0100
,
0001
0000
0010
0100
,
1000
0000
0100
0010
0001
0000
0010
0100
,
1000
0000
0001
0100
,
0010
0000
0010
0000
0100
0001
0100
0000
,
0020
0000
0000
0100
0130
0000
0000
0000
,
0001
0000
1000
0100
,
0010
0100
1000
0000
,
0001
0000
0000
0000
0010
0000
0100
0001
,
2000
0000
0000
0001
3001
0000
0000
0000
,
0100
0000
0010
0000
0100
0001
1000
0100
,
0020
0000
0000
0030
,
0001
0100
0001
0000
1000
0000
1000
0000
,
0100
0000
0010
0100
1000
0000
0000
0000
,
0002
0203
0320
2030
,
3001
0000
0000
0000
,
1000
0000
0100
0000
0010
0100
1000
0000
,
0002
0000
0103
0000
,
0010
0000
0100
0000
0001
0010
0100
0000
,
2000
0000
0000
0001
3001
0000
0000
0000
,
1000
0100
0010
0000
0001
0000
0100
0010
,
0100
0001
1000
0000
,
0200
0320
0032
2003
,
3010
0000
0000
0000
,
0100
0000
0001
0000
1000
0100
1000
0001
,
0200
0000
0310
0010
,
0100
0000
0001
0000
1000
0100
1000
0000
,
0002
0000
0023
0000
,
0230
0000
0000
0000
,
0000
0300
1100
0110
,
0022
0000
0000
0000
,
0000
0033
0101
0110
,
2020
0000
0000
0000
,
0000
0000
0000
3030
,
1000
0000
0001
0000
,
0100
0000
0010
0000
1000
0001
1000
0000
,
0100
0010
0001
0010
,
0100
0000
1000
0000
,
0001
0000
0100
0000
,
0000
1001
0000
0000
;

//---------------dance-single - ----------------
#NOTES:
     dance-single:
     :
     Easy:
     4:
     0.175,0.222,0.000,0.200,0.000:
0000
0000
0000
0000
,
0000
0000
0000
0000
,
0000
0000
0000
0000
,
0000
0000
0000
0000
,
1000
0000
1000
0000
,
0001
0000
0001
0000
,
1000
0000
1000
0000
,
0001
0001
0001
0001
,
0200
0000
0310
0010
,
0020
0000
0030
1000
,
2000
0000
3000
0001
,
0002
0000
1003
0100
,
0010
0000
0001
0000
,
2000
0000
0000
3000
,
0001
0000
1000
0000
,
0200
0000
0300
0000
,
0020
0000
0030
0001
,
0002
0000
0003
1000
,
2000
0000
3000
0100
,
0100
0000
0010
0001
,
1000
0000
0001
0000
,
0200
0000
0000
0300
,
0010
0000
1000
0000
,
0002
0000
0000
0003
,
0010
0000
0010
0100
,
1000
0000
1000
0000
,
0001
0000
0001
0100
,
0010
0000
0010
0000
,
0100
0000
0100
0001
,
1000
0000
1000
0000
,
0100
0000
0100
0010
,
0002
0000
0003
0000
,
1000
1000
1000
0001
,
0200
0000
0310
0000
,
0100
0001
1000
0100
,
0020
0000
0030
0000
,
0001
0010
0100
1000
,
0020
0000
0030
0000
,
0100
0001
1000
0100
,
0020
0000
0031
0000
,
1000
1000
1000
0001
,
0200
0000
0310
0000
,
1000
0010
0100
0001
,
0020
0000
0030
0000
,
0100
1000
0001
0100
,
0020
0000
0030
0000
,
0100
0001
0010
0100
,
2000
0000
3002
0000
,
0203
0000
0000
0000
,
0300
0000
0010
0010
,
0020
0000
0000
0000
,
0030
0000
1000
1000
,
2000
0000
0000
0000
,
3000
0000
0000
0000
,
0001
0000
1000
0000
,
0001
0100
0010
0000
,
0100
0000
0100
0000
,
0100
0000
0100
0000
,
0100
0000
0100
0000
,
0000
0100
0000
0000
;

//---------------dance-single - ----------------
#NOTES:
     dance-single:
     :
     Beginner:
     1:
     0.115,0.148,0.000,0.008,0.000:
0000
0000
0000
0000
,
0000
0000
0000
0000
,
0000
0000
0000
0000
,
0000
0000
0000
0000
,
1000
0000
1000
0000
,
0001
0000
0001
0000
,
1000
0000
1000
0000
,
0001
0000
0001
0000
,
0100
0000
0100
0000
,
0100
0000
0000
0001
,
0001
0000
0001
0000
,
0001
0000
1000
0000
,
1000
0000
0100
0000
,
0100
0000
0000
0010
,
0010
0000
0010
0000
,
0010
0000
0000
0000
,
0001
0000
0001
0000
,
0001
0000
0000
1000
,
1000
0000
1000
0000
,
1000
0000
0100
0000
,
0100
0000
0010
0000
,
0010
0000
0000
0000
,
0001
0000
0001
0000
,
0001
0000
0000
0000
,
1000
0000
1000
0000
,
0001
0000
0001
0000
,
1000
0000
1000
0000
,
1000
0000
0000
0000
,
0001
0000
0001
0000
,
1000
0000
1000
0000
,
0001
0000
0001
0000
,
0001
0000
0000
0000
,
0100
0000
0100
0000
,
0100
0000
0100
0000
,
0100
0100
0100
0000
,
0100
0000
0000
0000
,
0010
0010
0010
0000
,
0010
0000
0000
0000
,
0010
0010
0010
0000
,
0010
0000
0010
0000
,
1000
0000
1000
0000
,
1000
1000
1000
0000
,
1000
0000
1000
0000
,
1000
0000
0000
0000
,
0001
0000
0001
0001
,
0001
0000
0000
0000
,
1000
0000
1000
1000
,
1000
0000
1000
0000
,
1000
0000
0000
0000
,
0000
0000
0100
0100
,
0100
0000
0000
0000
,
0000
0000
0010
0010
,
0020
0000
0000
0000
,
0000
0000
0000
0000
,
0000
0000
0000
0000
,
0000
0030
0000
0000
,
0001
0000
0000
0000
,
1000
0000
0000
0000
,
0001
0000
0000
0000
,
0000
0100
0000
0000
;

//---------------dance-double - ----------------
#NOTES:
     dance-double:
     :
     Hard:
     10:
     0.395,0.419,0.042,0.117,0.029:
00000000
00000000
00000000
00000000
,
00000000
00000000
00000000
00000000
,
00000000
00000000
00000000
00000000
,
00000000
00000000
00000000
00000000
,
10000000
01000000
00010000
00001000
,
00000010
00000001
00000100
00001000
,
00010000
00100000
10000000
00010000
,
00100000
00001000
00010000
00000100
,
00001000
00000000
00000010
00000000
00000100
00000001
00000100
00000010
,
00001000
00000000
00000100
00000000
00010000
00000000
00001000
00100000
,
00010000
00000000
01000000
00000000
00100000
10000000
00100000
01000000
,
00001000
00010000
00000100
00000010
,
00000011
00000000
00000001
00000000
00000100
00000000
00000010
00001000
,
00000100
00000000
00010000
00000000
00001000
00000000
01000000
00010000
,
00100000
00000000
00001000
00010000
00000100
00000000
00010000
00001000
,
01000000
00000000
00100000
00000000
10000000
01000000
00010000
01000000
,
10000000
00000000
01000000
00000000
00100000
00001000
00010000
00000100
,
00001000
00000000
00000010
00000000
00000100
00000000
00000001
00000100
,
00001000
00000000
00000100
00000000
00000010
00001000
00000100
00010000
,
00001000
01000000
01010000
00110000
,
01100000
00000000
01000000
00000000
10000000
00000000
00010000
01000000
,
00001000
00000000
00010000
00000000
00000100
00000000
00000010
00000001
,
00000100
00000000
00001000
00010000
01000000
00000000
10000000
00100000
,
01000000
00000000
00010000
00000000
00100000
01000000
10000000
01000000
,
00001000
00000000
00000100
00000010
00000001
00000000
00000100
00000010
,
00001000
00000000
00000100
00010000
00001000
00000000
01000000
00000000
,
00010000
00000000
00100000
01000000
10000000
01000000
00010000
00000000
,
00001000
00000000
00000000
00000100
00000000
00000000
00000010
00000000
00001000
00000000
00000000
00000000
00000100
00000000
00000000
00000000
,
00010000
00000000
00001000
01000000
00100000
01000000
00001000
00010000
,
00000100
00000000
00000000
00000010
00000000
00000000
00000001
00000000
00000100
00000000
00000000
00000000
00000010
00000000
00000000
00000000
,
00001000
00000100
00010000
00001000
00100000
00010000
01000000
00100000
,
10000000
01000000
00100000
00010000
02000000
00000000
00000000
00000000
,
03100000
00000000
10000000
00000000
00010000
00000000
01000000
00001000
00000000
01000000
00001000
00000000
00010000
00000000
00000100
00000000
,
00000020
00000000
00000031
00000100
00000010
00000000
00001000
00000100
,
00020000
00032000
02003000
03020000
,
00130000
00000000
01000000
10000000
00010000
00000000
00100000
00000000
,
01000000
00000000
10000000
00000000
01000000
00010000
00001000
00000100
,
00000002
00000000
00000013
00000000
00000001
00000100
00000010
00001000
,
00000100
00000000
00010000
00000000
00001000
01000000
00100000
10000000
,
02000000
00000000
03010000
00001000
00000100
00000000
00000001
00000000
,
00000010
00000000
00000001
00000000
00001000
00000000
00000100
00010000
00000000
00000100
00010000
00000000
00001000
00000000
01000000
00000000
,
00100000
00000000
00000000
10000000
00000000
00000000
01000000
00000000
00100000
00000000
00000000
00000000
00010000
00000000
00100000
00000000
,
00002000
00023000
00030200
00002300
,
00003010
00000000
00000100
00000001
00001000
00000000
00000010
00000000
,
00000100
00000000
00000001
00000000
00000100
00001000
00010000
01000000
,
20000000
00000000
30100000
00000000
10000000
01000000
00100000
00010000
,
00100000
00000000
00001000
00000000
00010000
00000100
00000010
00000001
,
00000200
00000000
00001300
00010000
01000000
00000000
10000000
00000000
,
01000000
00000000
00100000
00000000
00010000
01000000
00010000
00100000
,
00001000
00000000
00010000
00000000
00000100
00001000
00000100
00000010
,
00000100
00000000
00001000
00000000
00000001
00000100
00000010
00000100
,
00000001
00000000
00001000
00000000
00000100
00010000
00000100
00001000
,
00000100
00000000
00000010
00000000
00000001
00000100
00000010
00001000
,
00000100
00000000
00010000
00000000
00001000
01000000
00010000
00000000
,
00100000
01000000
00010000
00000000
01000000
10000000
00100000
00000000
,
00010000
00100000
01000000
00010000
00100000
01000000
10000000
01000000
,
00010000
00001000
00010000
00001000
00000100
00000000
00000010
00000000
,
00001000
00000000
00000100
00000010
00000001
00000100
00000010
00001000
,
00000100
00010000
00001000
01000000
00010000
00000000
00100000
01000000
,
00000000
10010000
00000000
00000000
;

//---------------dance-double - ----------------
#NOTES:
     dance-double:
     :
     Medium:
     7:
     0.281,0.296,0.067,0.108,0.000:
00000000
00000000
00000000
00000000
,
00000000
00000000
00000000
00000000
,
00000000
00000000
00000000
00000000
,
00000000
00000000
00000000
00000000
,
10000000
01000000
10000000
01000000
,
00100000
00001000
00100000
00001000
,
00010000
00000100
00010000
00000100
,
00001000
00000010
00001000
00000010
,
00000100
00000000
00000001
00000000
00000010
00000001
00000100
00000001
,
00000010
00000100
00010000
00001000
,
01000000
00010000
00100000
01000000
,
10000000
00000000
00010000
01010000
,
01000000
00000000
00001000
00000000
00010000
00000000
00000100
00001000
,
00000002
00000000
00000000
00000000
00000010
00000000
00000103
00000010
,
00000100
00000000
00000001
00001000
00000100
00000000
00010000
00001000
,
01000000
00000000
00010000
00000000
00100000
01000000
10000000
00000000
,
01000000
00000000
00010000
00000000
00001000
00000100
00000010
00000000
,
00000100
00000001
00000010
00000001
,
00000100
00000000
00000010
00000000
00001000
00000100
00010000
00000000
,
00001000
01000000
00010000
10000000
,
01000000
00000000
01000000
00000000
00100000
00000000
01000000
00010000
,
01000000
00000000
00100000
00010000
,
01000000
00000000
00001000
00010000
00000100
00000000
00001000
00000010
,
00000100
00000000
00000001
00000010
,
00000001
00000000
00000100
00001000
00000100
00000000
00000010
00000000
,
00001000
00000100
00010000
00000000
,
00001000
00000000
01000000
00000000
00010000
00100000
00010000
00000000
,
01000000
00100000
10000000
00000000
,
01000000
00010000
00001000
00000100
,
00000001
00000010
00000001
00000000
,
00000100
00000000
00000010
00000100
00000001
00001000
00000100
00000000
,
00020000
00000000
00000000
00030000
,
00001000
01000000
00001000
00000000
00001000
01000000
00001000
00000000
,
00010000
01000000
10000000
00000000
,
00100000
00100000
01000000
00010000
,
00200000
00000000
00301000
00010000
,
00000100
00000000
00001000
00000000
00000010
00000100
00000010
00000000
,
00002000
00000000
00003100
00010000
,
00001000
00000000
01000000
00000000
00010000
00100000
01000000
00000000
,
00100000
00001000
00010000
00000000
,
00010000
00000100
00010000
00000000
00010000
00000100
00010000
00000000
,
00001000
00000100
00000001
00000000
,
00000010
00000010
00000100
00001000
,
00000020
00000000
00010030
00001000
,
01000000
00000000
00010000
00000000
00100000
01000000
00100000
00000000
,
00020000
00000000
01030000
00001000
,
00010000
00000000
00000100
00000000
00001000
00000010
00000100
00000000
,
00000020
00000000
00020030
00000000
,
00032000
00000000
00000000
00000000
,
00003000
00000000
01001000
01010000
,
02200000
00000000
00000000
00000000
,
03300000
00000000
01100000
01010000
,
02002000
00000000
00000000
03003000
,
00010000
00000000
00000100
00000000
,
00000010
00000001
00000100
00001000
,
00010000
01000000
10000000
00100000
,
10000000
01000000
00100000
00000000
00010000
00000000
01000000
00000000
,
00001000
00000000
00010000
00000100
00010000
00000000
00000100
00000000
,
00001000
00000010
00000100
00000000
00000001
00000000
00000100
00001000
,
00000000
00011000
00000000
00000000
;

//---------------dance-double - ----------------
#NOTES:
     dance-double:
     :
     Easy:
     4:
     0.188,0.222,0.000,0.008,0.000: // measure 1
00000000
00000000
00000000
00000000
,  // measure 2
00000000
00000000
00000000
00000000
,  // measure 3
00000000
00000000
00000000
00000000
,  // measure 4
00000000
00000000
00000000
00000000
,  // measure 5
10000000
00100000
01000000
00000000
,  // measure 6
00010000
00100000
01000000
00000000
,  // measure 7
00100000
00010000
01000000
00000000
,  // measure 8
00001000
00010000
00000100
00000000
,  // measure 9
00000010
00000000
00000001
00000100
,  // measure 10
00000010
00000000
00001000
00000100
,  // measure 11
00010000
00001000
01000000
00100000
,  // measure 12
10000000
00000000
01000000
00010000
,  // measure 13
00001000
00000000
00000100
00000000
,  // measure 14
00000001
00000000
00000000
00000010
,  // measure 15
00000001
00000000
00000100
00000010
,  // measure 16
00001000
00000000
00000000
00000000
,  // measure 17
00000001
00000100
00001000
00010000
,  // measure 18
01000000
00000000
00000000
10000000
,  // measure 19
01000000
00010000
00001000
00000100
,  // measure 20
00000001
00000000
00000010
00000100
,  // measure 21
00010000
00000000
00001000
00000000
,  // measure 22
01000000
00000000
00000000
00010000
,  // measure 23
00100000
00010000
10000000
00010000
,  // measure 24
01000000
00000000
00000000
00000000
,  // measure 25
00000100
00001000
00000010
00000100
,  // measure 26
00000001
00000000
00001000
00000000
,  // measure 27
00010000
10000000
00010000
00100000
,  // measure 28
01000000
00000000
00100000
00000000
,  // measure 29
00000010
00000100
00000001
00000010
,  // measure 30
00000100
00000000
00010000
00000000
,  // measure 31
00001000
01000000
00010000
00100000
,  // measure 32
02000000
00000000
03000000
00000000
,  // measure 33
10000000
01000000
00100000
00010000
,  // measure 34
01000000
00000000
00001000
00000000
,  // measure 35
00010000
00000100
00001000
00000010
,  // measure 36
00000100
00000000
00000001
00000000
,  // measure 37
00000010
00000001
00000100
00001000
,  // measure 38
00010000
00000000
01000000
00000000
,  // measure 39
10000000
00100000
00010000
00001000
,  // measure 40
00000100
00000000
00000010
00000000
,  // measure 41
00100000
00010000
01000000
00010000
,  // measure 42
00100000
00000000
01000000
00000000
,  // measure 43
10000000
00000000
00010000
00000000
,  // measure 44
00001000
00000000
00000001
00000000
,  // measure 45
00000010
00000001
00000100
00000000
,  // measure 46
00000010
00000000
00001000
00000000
,  // measure 47
00000100
00010000
00001000
00000000
,  // measure 48
01000000
00000000
00010000
00000000
,  // measure 49
00100000
01000000
10000000
00000000
,  // measure 50
01000000
00000000
00010000
00001000
,  // measure 51
00000100
00000000
00000001
00000000
,  // measure 52
00000010
00000000
00000001
00000100
,  // measure 53
00000010
00000000
00001000
00000000
,  // measure 54
00000100
00000000
00010000
00000000
,  // measure 55
00001000
01000000
00001000
00000000
,  // measure 56
00100000
00010000
01000000
00000000
,  // measure 57
00100000
10000000
01000000
00010000
,  // measure 58
00001000
00000100
00000001
00000010
,  // measure 59
00000001
00000000
00000100
00000000
00000010
00000000
00001000
00000100
,  // measure 60
00000000
00000010
00000000
00000000
;
