#TITLE:NNRT;
#SUBTITLE:;
#ARTIST:Levaslater;
#TITLETRANSLIT:;
#SUBTITLETRANSLIT:;
#ARTISTTRANSLIT:;
#GENRE:;
#CREDIT:;
#MENUCOLOR:;
#METERTYPE:DDR;
#BANNER:NNRT.png;
#BACKGROUND:NNRT-bg.png;
#LYRICSPATH:;
#CDTITLE:cdtitle.png;
#MUSIC:NNRT.mp3;
#OFFSET:-0.404;
#SAMPLESTART:75.246;
#SAMPLELENGTH:15.000;
#SELECTABLE:YES;
#LISTSORT:;
#DISPLAYBPM:101.000:202.000;
#BPMS:0.000=101.000,18.000=116.000,18.500=125.000,19.000=149.000,19.500=173.000,20.000=185.000,20.500=197.000,21.000=202.000,149.000=404.000,159.000=386.000,159.500=358.000,160.000=330.000,160.500=291.000,161.000=260.000,161.500=240.000,162.000=205.000,162.500=202.000,163.000=101.000,181.000=116.000,181.500=125.000,182.000=149.000,182.500=173.000,183.000=185.000,183.500=197.000,184.000=202.000,216.000=232.000,217.000=250.000,218.000=298.000,219.000=346.000,220.000=370.000,221.000=394.000,222.000=202.000,394.000=192.000,398.000=96.000;
#STOPS:;
#BGCHANGES:;
#ATTACKS:;

//---------------dance-single - ----------------
#NOTES:
     dance-single:
     :
     Hard:
     13:
     0.745,0.985,0.308,0.278,0.090:
0000
0000
0000
0000
,
0000
0000
0000
0000
,
0000
0000
0000
0000
,
0200
0320
0032
1003
,
2002
0000
0000
3003
,
0000
0000
1000
0100
0010
0100
1000
0001
,
0100
0000
0010
0100
0001
1000
0200
0000
,
0320
0000
0031
0010
0100
0000
1000
0010
,
0100
0000
0001
0100
1000
0100
0001
0000
,
0010
0100
1000
0001
0100
0010
0100
0001
,
1000
0000
0100
0010
0100
0010
0002
0000
,
2003
0000
3001
0100
0010
0000
1000
0100
,
0010
0000
0001
0010
1000
0010
0002
0000
,
0003
0000
0100
0001
1000
0100
0010
0100
,
1000
0001
0100
1000
0100
0001
0101
0000
,
1100
0000
0100
1000
0010
0100
0001
0010
,
0100
1000
0010
0100
1000
0100
0001
0100
,
0010
1000
0100
1000
0001
0100
0010
0100
,
0001
1000
0100
0001
0100
1000
1100
0000
,
0101
0000
0100
0001
0010
0100
1000
0010
,
0100
0001
0010
0100
0001
0100
2000
0000
,
3000
0000
0001
0010
0100
1000
0001
0010
,
0100
1000
0001
0100
0010
1000
0001
0100
,
0010
0000
1000
0100
0010
0001
1000
0100
,
0010
0001
1000
0010
0100
0001
1000
0010
,
0100
0000
0001
0100
1000
0100
0001
0100
,
1000
0100
0001
0010
1000
0010
0001
0010
,
1000
0000
0010
0001
0100
0001
0010
0001
,
0100
0001
0010
0100
1000
0100
0010
0100
,
1000
0000
0101
0000
0000
1100
0000
1001
,
0000
0101
0110
0000
0000
1010
0000
0110
,
0101
0000
1000
0000
0100
0010
0100
1000
,
0001
0100
1000
0000
0100
0001
1000
0000
,
0100
0000
0010
0100
1000
0001
0100
0010
,
1000
0100
0010
0100
1000
0001
0100
0010
,
0100
0000
0001
0010
0100
1000
0100
0010
,
0001
0100
0010
0100
1000
0100
0001
1000
,
0100
0010
0002
0000
0000
0000
0000
0000
,
0000
0000
0000
0000
,
0000
0000
0000
0000
,
0000
0000
0000
0000
0003
0000
1000
0001
,
0100
0000
0010
0000
0100
0001
1000
0000
0100
0000
0010
0000
0002
0000
0023
0000
,
0230
0000
2300
0000
3002
0000
0000
0003
0000
1000
0100
1000
0010
0000
1100
0000
,
0010
0000
0101
0000
0001
0000
1100
0000
1000
0000
0101
0000
0010
1000
0010
0100
,
0010
0001
0010
0100
0010
0000
0100
0010
0000
0100
0001
1000
0002
0000
0000
0000
,
0000
0003
2000
0000
0000
0000
3000
0000
,
0001
0100
0010
1000
0100
0000
0100
0010
,
0001
0100
0010
1000
0100
0000
0100
0010
,
0001
0100
0010
1000
0100
0000
0100
0010
,
0001
0100
1000
0100
0001
0000
1001
0000
,
1000
0100
0010
0001
0100
0000
0100
0010
,
1000
0100
0010
0001
0100
0000
0100
0010
,
1000
0100
0010
0001
0100
0000
0100
0010
,
1000
0100
0010
0001
1000
0000
1001
0000
,
0000
0000
0000
0000
,
0000
0000
0000
0000
1000
0100
0001
0100
,
1000
0000
0001
0100
1000
0100
0001
0010
,
0100
1000
0110
0101
,
1001
1100
0200
0000
,
0300
1000
0100
0010
0100
1000
0001
0100
,
1000
0000
0100
0001
1000
0100
0010
0100
,
1000
0001
0010
0100
1000
0010
0100
0010
,
0001
0010
0100
0010
1000
0100
0100
0010
,
0000
0100
1000
0001
0101
0100
0010
0100
,
2000
0000
3100
0001
1000
0100
0010
0100
,
2000
3001
0101
0110
,
1100
1001
0202
0000
,
0303
0010
1000
0100
0010
0100
1000
0001
,
0200
0000
0310
1000
0100
0001
0100
1000
,
0010
0100
1000
0100
0001
0010
0100
0010
,
1000
0010
0100
0010
0001
0100
0100
0010
,
0000
1000
0100
0010
0002
0000
0000
0000
,
0000
0003
2000
0000
,
0000
0100
3100
0000
1000
0100
0010
0100
,
0001
0100
0010
0001
0100
0010
0001
0010
,
0100
0010
2000
0000
3001
0000
1100
0000
,
0101
1100
0002
0103
,
0010
0100
0101
0000
0001
0100
0010
0100
,
1000
0100
0010
1000
0100
0010
1000
0010
,
0100
0010
0002
0000
1003
0000
0101
0000
,
1100
0101
2000
3100
,
0010
0100
1100
0000
0002
0000
0000
0100
,
0000
0100
0000
0103
0010
1000
0001
0100
,
0010
0100
0010
0000
0100
0000
0001
0000
1000
0000
0100
0000
0010
0000
0001
0000
,
1000
0001
1000
0000
0001
0000
0010
0000
0100
0000
1000
0000
0001
0000
0100
0000
,
0010
0100
0010
0000
0100
0000
0001
0000
1000
0000
0100
0000
0010
0000
0001
0000
,
0100
0010
0100
0000
0001
0000
0010
0000
0100
0000
1000
0000
0010
0000
0100
0000
,
0001
0010
0001
0000
0100
0000
0010
0000
1000
0000
0100
0000
0010
0000
0001
0000
,
1000
0001
1000
0000
0001
0000
0010
0000
0100
0000
1000
0000
0010
0000
0100
0000
,
0001
0100
0001
0000
0100
0000
0010
0000
1000
0000
0001
0000
0010
0000
0100
0000
,
1000
0001
1000
0000
0100
0000
0010
0000
0001
0000
0000
0000
0100
0000
0000
0000
,
0101
0101
0000
0000
1000
0000
0100
0000
,
1100
1100
0000
0000
0010
0001
0100
0010
,
0100
0001
0100
0000
0010
0000
1000
0000
0100
0000
0010
0000
0001
0000
1000
0000
,
0001
0100
0001
0000
1000
0000
0100
0000
0001
0000
0100
0000
1000
0000
0010
0000
,
0100
0001
0100
0000
0010
0000
0001
0000
0010
0000
1000
0000
0100
0000
0010
0000
,
0100
1000
0100
0000
0010
0000
0001
0000
0100
0000
1000
0000
0100
0000
0010
0000
,
1000
0100
1000
0000
0100
0000
0010
0000
0001
0000
0100
0000
0010
0000
1000
0000
,
0001
0100
0001
0000
0010
0000
0100
0000
0000
0000
0000
0000
0000
0000
0000
0000
,
0000
0000
2000
3020
,
0230
0000
0302
0000
2000
0000
0000
3003
;

//---------------dance-single - ----------------
#NOTES:
     dance-single:
     :
     Challenge:
     14:
     0.741,0.910,0.421,0.458,0.135:
0000
0000
0000
0000
,
0000
0000
0000
0000
,
0000
0000
0000
0000
,
2000
3200
0320
0032
,
2000
0000
0000
0000
,
3003
0000
1000
0100
0010
0100
1000
0100
,
0010
0000
0001
0100
0010
0000
0110
0000
,
0101
0000
1000
0100
0010
0100
1000
0001
,
0100
0000
0010
0100
0001
0000
0101
0000
,
1100
0000
0001
0100
0010
0100
0001
0100
,
0010
0000
1000
0100
0010
0000
0110
0000
,
1100
0000
0001
0100
0010
0100
0001
1000
,
0100
0000
0010
0100
1000
0000
2002
0000
,
3003
0000
1000
0100
0001
0100
1000
0100
,
0001
0100
0010
0001
0100
0010
2000
0000
,
3002
0000
0103
0001
0100
0010
1000
0100
,
0010
0100
1000
0100
0001
0100
1000
0100
,
0010
0000
0001
0100
1000
0100
0001
0100
,
1000
0100
0010
1000
0100
0010
0002
0000
,
2003
0000
3100
1000
0100
0010
0001
0100
,
0010
0100
0001
0100
1000
0100
0002
0000
,
0003
0000
1000
0100
0010
0001
1000
0100
,
0010
0001
0100
0010
0100
0001
2000
0000
,
3002
0000
0103
0000
0010
1000
0010
0100
,
0001
0100
0010
1000
0100
0010
0001
0100
,
1000
0100
0001
1000
0001
0010
0100
1000
,
0100
0010
0001
0100
0001
1000
0200
0000
,
0320
0000
0031
0000
0100
0001
0100
0010
,
1000
0010
0100
0001
0010
0100
1000
0001
,
0100
0010
0200
0000
0000
0010
0000
0010
,
0000
0010
0320
0000
0000
1000
0000
1000
,
1030
0000
0001
0000
0100
0010
0100
0001
,
1000
0001
0010
0100
1000
0100
0010
0001
,
0100
0010
1000
0001
1000
0100
0010
0001
,
0100
0010
0100
0001
0100
0001
2000
0000
,
3200
0000
0310
0000
0100
0010
0110
0000
,
1001
0000
0100
0000
0010
0100
0001
1000
,
0100
0020
0000
0000
,
0000
0000
0000
0000
,
0000
0000
0000
0000
,
0000
0000
0000
0000
0000
0000
0000
0000
0030
0000
0000
0000
0001
0100
0001
1000
,
0100
0000
1000
0100
1000
0001
0100
0010
0100
0000
0001
0000
1000
0000
0002
0000
,
2003
0000
3200
0000
0320
0000
0030
0000
0000
0010
0100
0010
0001
0000
0100
0000
,
0001
0000
0101
0000
1000
0000
0100
0000
1000
0000
1100
0000
1000
0100
0001
1000
,
0001
0100
1000
0000
0001
0000
0100
0001
0000
0100
0001
1000
0200
0000
0000
0000
,
0000
0300
0020
0000
0000
0000
0030
0000
,
1100
0000
0100
0100
,
0101
0000
0001
0001
,
0011
0000
0010
0010
,
1010
0000
0000
0000
1000
0000
0000
0000
1000
0000
0000
0000
1000
0100
1000
0000
,
0001
0100
0001
0100
0010
1000
0010
1000
,
0001
0010
0001
0010
0100
1000
0100
1000
,
0001
0100
0100
0100
0010
0100
0100
0100
,
0001
0100
1000
0100
0001
0100
1000
0100
,
0000
0000
0000
0000
,
0000
0000
0011
0101
,
0011
0000
0100
1000
1010
0000
1100
0000
,
1010
0001
0201
2300
,
3020
0032
0203
0300
,
0000
0010
0100
0010
1010
0000
1100
0000
,
1010
0000
1000
0001
0101
0000
0011
0000
,
0101
1000
1200
0302
,
0023
0000
2030
0000
3200
0000
0300
0010
,
0000
0010
0100
0010
0001
0100
0001
1000
,
0100
0000
0010
0100
1000
0001
0100
1000
,
0100
0010
2010
3200
,
0302
0023
2030
3000
,
0000
0010
0100
0010
1000
0100
1000
0001
,
0100
0000
0010
0100
0001
1000
0100
0001
,
0100
0010
0012
0203
,
2300
0000
3020
0000
0032
0000
0003
0100
,
0000
0100
0010
0100
0020
0000
1000
0000
,
0000
0000
0000
0000
0100
0000
0030
0000
0001
0100
0001
0000
1000
0100
1000
0000
,
0001
1000
1001
0000
1100
0000
1001
0000
,
1100
0000
1000
0001
0101
0000
1001
0000
,
0101
0000
0011
0000
1010
0000
1000
0001
,
0100
0001
1000
0100
0020
0000
0130
0000
,
1000
0001
0100
0010
0110
0000
0101
0000
,
0110
0000
0001
1000
1100
0000
0110
0000
,
1100
0110
0101
1001
,
1010
0101
1001
0100
,
0100
0000
0100
0000
0020
0000
0000
0100
,
0000
0000
0100
0000
0000
0000
0130
0000
0001
0000
1000
0100
1000
0000
0001
0000
,
1000
0000
0001
0100
0001
0000
1000
0000
0100
0000
0010
0000
0100
1000
0100
1000
,
0002
0000
0000
0000
0203
0000
0000
0000
0310
0000
0000
0000
1000
0001
1000
0001
,
0100
0010
0100
0001
0010
0100
0010
0100
,
1000
0001
0100
0010
0100
0001
0100
0001
,
1000
0000
0100
0010
0100
0000
1000
0000
0001
0000
0100
0000
0010
0100
0010
0100
,
0002
0000
0000
0000
2003
0000
0000
0000
3100
0000
0000
0000
0010
0100
0010
0100
,
1000
0001
0100
1000
0100
0001
1000
0100
,
0010
0001
1000
0000
0001
0000
1000
0000
,
0101
1100
0000
0000
1000
0000
0001
0000
,
1100
0000
0101
0000
0000
0000
0000
0000
0010
0000
0000
0000
0001
1000
0001
1000
,
0100
0010
0100
1000
0010
0100
0010
0100
,
0001
1000
0100
0010
0100
1000
0100
1000
,
0001
0000
0100
0010
0100
0000
0001
0000
1000
0000
0100
0000
0010
0100
0010
0100
,
2000
0000
0000
0000
3002
0000
0000
0000
0103
0000
0000
0000
0010
0100
0010
0100
,
0001
1000
0100
0001
0100
1000
0001
0100
,
0010
0000
1000
0000
0001
1000
0001
1000
0000
0000
0000
0000
0000
0000
0000
0000
,
0000
0000
0200
0302
,
0023
0000
2030
0000
3200
0000
0000
0300
;

//---------------dance-single - ----------------
#NOTES:
     dance-single:
     :
     Medium:
     10:
     0.532,0.795,0.045,0.301,0.004:
0000
0000
0000
0000
,
0000
0000
0000
0000
,
0000
0000
0000
0000
,
1000
0001
0100
0010
,
0200
0000
0000
0000
,
0300
0001
1000
0001
,
1000
0100
0001
0100
,
0001
1000
0010
1000
,
0010
0000
0001
0000
0100
0000
0001
0100
,
0010
1000
0100
1000
,
0100
0000
0010
0000
0100
1000
0001
0000
,
0010
0001
0100
0001
,
0100
0000
0010
0000
0100
0001
2000
0000
,
3000
0001
0100
1000
,
0100
0000
0001
0010
0100
0000
1000
0000
,
0100
0010
0100
1000
,
0001
0000
0100
0010
1000
0000
0010
0000
,
0001
1000
0100
0001
,
1000
0000
0100
0010
0001
0000
1000
0000
,
0100
0001
1000
0010
,
0001
0000
1000
0010
0100
0001
2000
0000
,
3001
0000
0100
0000
0010
0100
0001
0100
,
0010
0000
1000
0000
0100
0010
0100
1000
,
0100
0000
0010
0000
0001
1000
0100
1000
,
0001
0000
0100
0000
0010
0100
0001
0100
,
0010
0000
1000
0000
0001
0010
0100
0010
,
0001
0000
1000
0000
0010
0100
1000
0100
,
0010
0000
1000
0000
0001
0100
0010
0100
,
0001
0000
0010
0000
0100
1000
0001
0100
,
0010
0000
0100
0000
0000
0001
0000
1000
,
0000
0001
0100
0000
0000
0010
0000
0100
,
0010
0100
0001
1000
,
0100
0000
0010
0000
0100
1000
0001
0100
,
0010
0000
0100
0000
0001
0010
0100
1000
,
0010
0000
0100
0000
0001
0100
0010
1000
,
0100
0000
0010
0100
0010
0100
1000
0100
,
0010
0000
0001
0100
0010
0100
0001
0100
,
0010
0200
0000
0000
,
0000
0000
0000
0000
,
0000
0000
0000
0000
,
0000
0000
0000
0000
0300
0000
0100
0100
,
0100
0000
0001
0001
0001
0000
2000
3200
,
0320
0032
2003
0000
3000
0000
0001
0101
,
0001
0101
0100
0110
0100
0110
0010
1000
,
0010
0000
1000
0000
0001
0000
0000
0001
0000
0000
0001
0000
0200
0000
0000
0000
,
0000
0300
0020
0000
0000
0000
0030
0000
,
0100
0001
0100
0000
,
0001
0010
0001
0000
,
0010
1000
0010
0000
,
1000
0100
1000
0000
,
0100
0001
0100
0001
,
0010
0001
0010
0001
,
1000
0100
1000
0100
,
1000
0010
1000
0010
1000
0000
0000
0000
,
0000
0000
0000
0000
,
0000
0000
0000
0000
0100
0000
0001
1000
,
0100
0000
0010
0000
0100
0000
1000
0001
,
0100
0010
0100
0002
,
2003
3200
0320
0030
,
0000
0001
0100
0000
0001
0000
1000
0100
,
0010
0000
0100
0000
1000
0000
0001
0100
,
0010
0100
0001
2000
,
3200
0000
0320
0000
0031
0000
0000
0001
,
0000
1000
0001
0000
0100
0000
0001
0100
,
1000
0000
0100
0000
0001
0000
1000
0100
,
0001
0100
1000
0020
,
0230
0302
2003
3000
,
0000
0001
0100
0000
0010
0000
0100
0001
,
0010
0000
1000
0000
0010
0000
0001
0100
,
1000
0100
0010
2000
,
3200
0000
0320
0000
0031
0000
0000
0001
,
0000
0100
0001
0000
1000
0000
0100
0000
,
1000
0000
0100
0000
0010
0001
0010
0100
,
1000
0100
0010
0000
0002
0000
0103
0000
,
0002
0103
0020
1030
,
0020
0000
1030
0000
0100
0000
1000
0100
,
0010
0001
0010
0100
1000
0000
0001
0100
,
0010
1000
0010
0100
0002
0000
0013
0000
,
0002
0013
0200
1300
,
0200
1300
0020
0130
,
0020
0130
0001
1001
,
1000
0000
1001
0000
0001
0000
0000
1000
,
0000
1000
0000
1000
0100
0010
0001
0000
,
0100
0010
0001
0000
0100
0010
0001
0010
,
0100
1000
0001
0000
0100
0010
1000
0000
,
0100
0010
1000
0000
0100
0010
1000
0010
,
0100
0001
0010
0000
0100
1000
0001
0000
,
0100
1000
0001
0000
0100
1000
0001
0100
,
0010
1000
0100
0000
0010
0001
1000
0000
,
0010
0001
1000
0000
0010
0001
0100
0010
,
1000
0100
0001
0000
0100
0000
1000
0000
,
0010
0010
0000
0000
0100
0000
0001
0000
,
0010
0010
0000
0000
0100
0000
1000
0000
,
0001
0100
0010
0000
1000
0000
0100
0010
,
0100
1000
0001
0000
0100
0000
0010
0000
,
0100
0001
1000
0000
0100
0000
0001
0100
,
1000
0100
0010
0000
0001
0100
0010
0000
,
1000
0100
0010
0000
0001
0100
1000
0100
,
0001
0100
1000
0100
0000
0000
0000
0000
,
0000
0000
0020
0230
,
0302
2003
3200
0300
;

//---------------dance-single - ----------------
#NOTES:
     dance-single:
     :
     Easy:
     8:
     0.392,0.453,0.150,0.083,0.000: // measure 1
0000
0000
0000
0000
,  // measure 2
0000
0000
0000
0000
,  // measure 3
0000
0000
0000
0000
,  // measure 4
1000
1000
0100
0100
,  // measure 5
0020
0000
0000
0000
,  // measure 6
0030
0000
0010
0000
,  // measure 7
0010
0000
0001
0000
,  // measure 8
0001
0000
1000
0000
,  // measure 9
1000
0100
0100
0100
,  // measure 10
0000
0010
0100
1000
,  // measure 11
0100
0010
0100
1000
,  // measure 12
0001
0100
0010
1000
,  // measure 13
0010
0100
0100
0100
,  // measure 14
0000
0001
0010
0100
,  // measure 15
1000
0000
0100
0000
0010
0001
0010
0000
,  // measure 16
0100
1000
0010
0100
,  // measure 17
0001
0000
0100
0000
0010
1000
0010
0000
,  // measure 18
0100
0001
0010
1000
,  // measure 19
0010
0000
0001
0000
0100
0010
0100
0000
,  // measure 20
0010
0001
0010
1000
,  // measure 21
0010
0000
0100
0000
0001
1000
0001
0000
,  // measure 22
0000
0010
0001
0100
,  // measure 23
1001
0010
0001
0100
,  // measure 24
0000
0010
1000
0100
,  // measure 25
1001
0010
1000
0100
,  // measure 26
0000
0001
1000
0100
,  // measure 27
1001
0001
1000
0100
,  // measure 28
0000
0010
0010
0100
,  // measure 29
0100
1000
0100
0010
,  // measure 30
0000
0100
0100
0100
,  // measure 31
0100
0100
0100
0100
,  // measure 32
0000
0010
0001
0100
,  // measure 33
1001
0010
0001
0100
,  // measure 34
0000
0010
0010
0010
,  // measure 35
0010
0010
0010
0010
,  // measure 36
0000
0100
0001
0010
,  // measure 37
1001
0100
0001
0010
,  // measure 38
0100
1000
0000
0000
,  // measure 39
0000
0000
0000
0000
,  // measure 40
0000
0000
0000
0000
,  // measure 41
0000
0000
0000
1000
,  // measure 42
0001
0000
0100
0000
0010
0000
0100
0001
,  // measure 43
1000
0100
0010
0000
0000
0010
0001
0100
,  // measure 44
0000
0100
0010
1000
0000
1000
0100
0010
,  // measure 45
0000
0010
0001
0100
0000
0100
0001
0000
,  // measure 46
0000
1000
0000
0000
,  // measure 47
0110
0000
0000
0000
,  // measure 48
1001
0000
0000
0000
,  // measure 49
0110
0000
0000
0000
,  // measure 50
0100
0100
0100
0000
,  // measure 51
0001
0100
1000
0010
,  // measure 52
0001
0100
1000
0010
,  // measure 53
0001
0010
1000
0100
,  // measure 54
0001
0010
1000
0100
,  // measure 55
0000
0000
0000
0000
,  // measure 56
0000
0000
0001
0001
,  // measure 57
0100
0100
0001
1000
,  // measure 58
0100
0010
0100
0110
,  // measure 59
0010
0110
0200
0000
,  // measure 60
0300
0000
1000
0100
,  // measure 61
0010
0010
0001
0100
,  // measure 62
0010
0010
1000
1001
,  // measure 63
0001
0000
1001
0000
1000
0000
0000
1000
,  // measure 64
0000
1000
0010
0100
,  // measure 65
0001
1000
0100
0010
,  // measure 66
0001
0100
0010
0110
,  // measure 67
0100
0010
0220
0000
,  // measure 68
0330
0000
0100
0001
,  // measure 69
1000
0100
0001
0100
,  // measure 70
0010
0001
1000
1001
,  // measure 71
1000
0001
2002
0000
,  // measure 72
3003
0000
0200
0000
,  // measure 73
0300
0000
0020
0000
,  // measure 74
0030
0000
1000
0100
,  // measure 75
0001
0100
1000
0100
,  // measure 76
0001
0100
1000
0001
,  // measure 77
0100
0010
2000
0000
,  // measure 78
3000
0000
0001
0100
,  // measure 79
1000
0100
0001
0100
,  // measure 80
1000
0100
0001
1000
,  // measure 81
0100
0010
0002
0000
,  // measure 82
0003
0000
0200
0000
,  // measure 83
0300
0000
0001
0010
,  // measure 84
0001
0010
0001
0000
1000
0000
0010
0000
,  // measure 85
1000
0010
1000
0000
0001
0000
0100
0000
,  // measure 86
0001
0100
0001
0000
1000
0000
0100
0000
,  // measure 87
1000
0100
1000
0000
0001
0000
0010
0000
,  // measure 88
0100
0010
0001
0000
1000
0000
0010
0000
,  // measure 89
0100
0010
1000
0000
0001
0000
1000
0000
,  // measure 90
0001
0100
0001
0000
1000
0000
0001
0000
,  // measure 91
1000
0100
1000
0000
0001
0000
1000
0000
,  // measure 92
0001
0001
0000
0000
1000
0000
0001
0000
,  // measure 93
1000
1000
0000
0000
0010
0000
0100
0000
,  // measure 94
0001
0100
0010
0000
1000
0000
0100
0000
,  // measure 95
0010
0100
1000
0000
0001
0000
0100
0000
,  // measure 96
0001
1001
1000
0100
,  // measure 97
0010
0110
0100
1000
,  // measure 98
0001
0000
0100
0000
0010
0100
0010
0100
,  // measure 99
0010
0100
0010
0100
0000
0000
0000
0000
,  // measure 100
0000
0000
0010
1000
,  // measure 101
0001
0110
1001
0000
;

//---------------dance-single - ----------------
#NOTES:
     dance-single:
     :
     Beginner:
     3:
     0.215,0.264,0.000,0.068,0.000:
0000
0000
0000
0000
,
0000
0000
0000
0000
,
0000
0000
0000
0000
,
0000
0000
0000
0000
,
0000
0000
0000
0000
,
0000
1000
0000
0000
,
0000
0001
0000
0000
,
0000
0100
0000
0100
,
0000
0100
0100
0100
,
0000
0010
0000
0010
,
0000
0100
0000
0100
,
0000
0001
0000
0001
,
0000
1000
1000
1000
,
0000
0100
0000
0100
,
0000
0010
0010
0100
,
0000
0100
0000
0100
,
0000
0010
0010
0100
,
0000
1000
0000
1000
,
0000
0001
0001
1000
,
0000
0001
0000
0001
,
0000
1000
1000
0001
,
0000
0200
0000
0300
,
0000
0200
0000
0300
,
0000
0200
0000
0300
,
0000
0200
0000
0300
,
0000
0020
0000
0030
,
0000
0020
0000
0030
,
0000
0020
0000
0030
,
0000
0020
0000
0030
,
0000
0100
0000
0100
,
0000
0100
0100
0100
,
0000
0001
0000
1000
,
0000
0001
0000
1000
,
0000
0001
0000
0100
,
0000
0100
0100
0010
,
0000
0100
0000
0100
,
0000
0010
0000
0010
,
0000
0100
0000
0000
,
0000
0000
0000
0000
,
0000
0000
0000
0000
,
0000
0000
0000
0000
,
0000
0000
0000
0000
,
0000
0000
0000
0001
,
0000
1000
0000
0001
,
0001
1000
0000
0100
,
0000
0010
0000
0000
,
0100
0000
0000
0000
,
0100
0000
0000
0000
,
0100
0000
0000
0000
,
0100
0100
0100
0000
,
1000
0000
1000
0000
,
0001
0000
0001
0000
,
0100
0000
0100
0000
,
0100
0100
0100
0000
,
0000
0000
0000
0000
,
0000
0000
0100
0000
,
0100
0000
0001
0000
,
0001
0000
1000
1000
,
1000
1000
1000
0000
,
0000
0000
0100
0000
,
0100
0000
0010
0000
,
0010
0000
0001
0001
,
0001
0001
0001
0000
,
0000
0000
0010
0000
,
0010
0000
0100
0000
,
0100
0000
1000
1000
,
1000
1000
1000
0000
,
0000
0000
0010
0000
,
0010
0000
0100
0000
,
0100
0000
0001
0001
,
0001
0001
0001
0000
,
0000
0000
1000
0000
,
0000
0000
0001
0000
,
0000
0000
0100
0000
,
0100
0000
0010
0000
,
0010
0000
0100
0000
,
0100
0000
0001
0000
,
0001
0000
1000
0000
,
1000
0000
0001
0000
,
0001
0000
1000
0000
,
1000
0000
0100
0000
,
0100
0000
0020
0000
,
0030
0000
0010
0000
,
0100
0100
0100
0000
,
0010
0010
0010
0000
,
0100
0100
0100
0000
,
1000
1000
1000
0000
,
0001
0001
0001
0000
,
1000
1000
1000
0000
,
0001
0001
0001
0000
,
0100
0100
0100
0000
,
0100
0000
0010
0000
,
0010
0000
0100
0100
,
0100
0000
0001
0001
,
0001
0000
0100
0100
,
0100
0000
0001
0001
,
0001
0000
1000
1000
,
1000
0000
0100
0100
,
0100
0000
0000
0000
,
0000
0000
0010
0010
,
0010
0010
0010
0000
;

//---------------dance-double - ----------------
#NOTES:
     dance-double:
     :
     Hard:
     14:
     0.715,0.796,0.376,0.218,0.026:
00000000
00000000
00000000
00000000
,
00000000
00000000
00000000
00000000
,
00000000
00000000
00000000
00000000
,
01000000
00100000
00010000
00001000
,
00000001
00000000
00000000
00000000
,
00000000
00000000
10000000
01000000
00100000
00010000
00100000
01000000
,
10000000
00000000
01000000
00010000
00001000
00000000
00011000
00000000
,
00001100
00000000
00000001
00000010
00001000
00010000
00001000
00000100
,
00000001
00000000
00001000
00000100
00010000
00001000
00000100
00000010
,
00001000
00000000
00000001
00000100
00000010
00001000
00000010
00000100
,
00000001
00000000
00000100
00001000
00010000
00000000
00011000
00000000
,
01010000
00000000
10000000
00100000
00010000
00001000
00010000
01000000
,
10000000
00000000
00010000
01000000
00001000
00010000
02000000
00000000
,
03000000
00000000
10000000
01000000
00010000
01000000
00010000
00001000
,
00000100
00000010
00010000
00100000
00010000
00000100
00001000
00000000
,
00001100
00000000
00000100
00010000
00000100
00000010
00000100
00001000
,
00000010
00010000
00001000
01000000
10000000
01000000
00001000
00000100
,
00000001
00001000
00000001
00000100
00001000
00000100
00001000
00010000
,
01000000
00100000
00001000
00000010
00001000
01000000
00010000
00000000
,
01010000
00000000
01000000
00001000
01000000
00100000
01000000
00010000
,
00100000
00001000
00010000
00000100
00000001
00000100
00020000
00000000
,
00030000
00000000
10000000
01000000
00100000
00010000
10000000
01000000
,
00100000
00010000
10000000
00000000
11000000
00000000
00220000
00000000
,
00330000
00000000
00000001
00000100
00000010
00001000
00000001
00000100
,
00000010
00001000
00000001
00000000
00000011
00000000
00002200
00000000
,
00003300
00000000
10000000
01000000
00010000
00001000
00000010
00000001
,
00000100
00001000
00010000
00100000
10000000
00000000
20020000
00000000
,
30030000
00000000
00000001
00000100
00001000
00010000
00100000
10000000
,
01000000
00010000
00001000
00000010
00000001
00000000
00002002
00000000
,
00003003
00000000
11000000
00000000
00000000
01010000
00000000
01010000
,
00000000
00011000
00011000
00000000
00000000
00001010
00000000
00000011
,
00000011
00000000
00000001
00000100
00001000
00000100
00000001
00000100
,
00001000
00010000
00100000
10000000
00100000
00010000
00100000
10000000
,
10010000
00000000
10000000
01000000
00010000
01000000
10000000
01000000
,
00010000
00001000
00000010
00000001
00000010
00001000
00000010
00000001
,
00001001
00000000
00000001
00000100
00001000
00000000
00010000
00000000
,
00100000
00000000
10000000
01000000
00010000
00001000
00000010
00000001
,
00001000
00002002
00000000
00000000
,
00000000
00000000
00000000
00000000
,
00000000
00000000
00000000
00000000
,
00000000
00000000
00000000
00000000
00003003
00000000
00000000
00000000
00000000
00000000
00000000
00000000
10000000
01000000
00100000
00000000
,
00010000
00000000
01000000
00000000
00001000
00010000
00000010
00000000
00000100
00000000
00001000
00000000
00000100
00000000
00000002
00000000
,
00002003
00000000
00023000
00000000
20030000
00000000
00000000
30000000
00000000
10000000
01000000
00000000
00100000
00000000
00010000
00000000
,
00000010
00000011
00000100
00010000
01000000
11000000
00010000
10000000
,
00001000
01000000
00000100
00010000
00000001
00000100
00000020
00000000
,
00000000
00002030
00000000
00003000
,
10000000
01000000
00010000
00001000
00000010
00000000
00000100
00001000
,
00000001
00000100
00001000
00010000
00100000
00000000
01000000
00010000
,
10000000
01000000
00010000
00001000
00000010
00000000
00000100
00001000
,
00000001
00000100
00001000
00010000
00001000
00000000
00011000
00000000
,
10000000
01000000
00100000
00010000
01000000
00010000
00100000
00001000
,
00010000
00000100
00001000
00000010
00001000
00000100
00000010
00000001
,
00001000
00000100
00001000
00001000
00000100
00010000
00000100
00000100
,
00010000
00001000
01000000
00010000
20000000
00000000
30000000
00000000
,
00000000
00000000
00000000
00000000
,
00000000
00000000
00000000
00000000
00000001
00000100
00001000
00000100
,
00000001
00000000
00001000
00000100
00010000
00001000
01000000
00100000
,
10000000
11000000
01010000
00011000
,
00001010
00000011
00002002
00003003
,
00000000
00000010
00010000
00100000
10000000
01000000
00010000
01000000
,
10000000
00000000
00010000
01000000
00001000
00010000
00000100
00000010
,
00000001
00000100
00000010
00001000
00010000
01000000
00010000
00000100
,
00010000
01000000
00010000
00100000
00010000
01000000
01000000
00010000
,
00000000
00010000
00100000
01000000
10000000
01000000
00010000
01000000
,
10000000
00000000
00010000
01000000
00001000
00010000
00000100
00000010
,
00000001
00000101
00001100
00011000
,
00110000
10100000
20020000
30030000
,
00000000
00100000
00001000
00000010
00000001
00000100
00001000
00000100
,
00000001
00000000
00001000
00000100
00010000
00001000
01000000
00100000
,
10000000
01000000
00100000
00010000
00001000
00000100
00001000
01000000
,
00001000
00000100
00001000
00000010
00001000
00000100
00000100
00001000
,
00000000
00001000
00000010
00000100
00000002
00000000
00000000
00000000
,
00000003
00000000
20000000
00000000
,
30000000
00000000
00000000
00000000
10000000
01000000
00010000
01000000
,
10000000
01000000
00100000
00000000
00001000
00010000
01000000
00010000
,
00001000
00010000
00000100
00000000
00000010
00000001
00000100
00001000
,
00010000
00100000
00010000
00001000
00000100
00000001
00000010
00001000
,
00010000
00001000
00000010
00000001
00001000
00000100
00000010
00000100
,
00001000
00000100
00010000
00000000
00001000
01000000
00010000
01000000
,
00100000
01000000
10000000
00000000
01000000
00010000
10000000
01000000
,
00010000
00000100
00001000
01000000
10000000
00000000
00010000
00000000
,
10010000
00000000
10010000
00000000
00011000
00000000
00000000
00011000
,
00000000
00011000
00000000
00011000
00001000
00000100
00000001
00000100
,
00001000
00000100
00000001
00000100
00001000
00010000
00100000
10000000
,
00010000
10000000
01000000
00010000
00001000
00000010
00000001
00000010
,
00001000
00000010
00000001
00000010
00001000
00010000
01000000
10000000
,
00010000
01000000
00001000
00010000
00000100
00000010
00000001
00000010
,
00000100
00000010
00000001
00000010
00000100
00010000
00001000
01000000
,
00010000
01000000
10000000
01000000
00010000
00100000
01000000
00100000
,
00010000
00100000
01000000
00100000
00010000
00001000
00000100
00000010
,
00002002
00003003
00000100
00010000
,
00011000
01001000
00000000
00000000
01000000
00000000
00001000
00000000
,
00011000
00010100
00000000
00000000
00001000
00010000
00001000
01000000
,
00001000
00010000
00001000
00000000
00010000
00000000
00100000
00000000
01000000
00000000
00010000
00000000
01000000
00000000
10000000
00000000
,
01000000
00010000
01000000
00000000
00001000
00000000
00000000
00000000
00010000
00000000
00001000
00000000
00010000
00000000
00000100
00000000
,
00010000
00001000
00010000
00000000
00001000
00000000
00000010
00000000
00000100
00000000
00001000
00000000
00000100
00000000
00000001
00000000
,
00000100
00001000
00000100
00000000
00010000
00000000
00000000
00000000
00001000
00000000
01000000
00000000
10000000
00000000
01000000
00000000
,
00001000
01000000
10000000
01000000
00010000
00000100
00000001
00000100
,
00010000
00000100
00000001
00000000
00000000
00000000
00000000
00000000
,
00000000
00000000
10000000
00010000
,
00001000
00000000
00000001
00000000
00022000
00000000
00000000
00033000
;

//---------------dance-double - ----------------
#NOTES:
     dance-double:
     :
     Challenge:
     16:
     0.795,1.000,0.473,0.210,0.195:
00000000
00000000
00000000
00000000
,
00000000
00000000
00000000
00000000
,
00000000
00000000
00000000
00000000
,
20000000
30020000
00032000
00003002
,
00002003
00000000
00000000
00000000
,
00003000
00000000
00000010
00001000
00000100
00010000
00001000
01000000
,
00100000
00000000
10000000
01000000
00010000
00001000
00000010
00000000
,
00000001
00000000
00001000
00000100
00010000
00001000
01000000
00100000
,
00010000
00001000
00000100
00000010
00001000
00010000
01000000
00010000
,
00100000
01000000
00100000
00010000
01000000
00001000
00010000
00000100
,
00000010
00000000
00000001
00000100
00001000
00010000
00100000
00000000
,
10000000
00000000
00010000
01000000
00001000
00010000
00000100
00000010
,
00001000
00010000
01000000
00100000
00010000
00001000
00000200
00000000
,
00001300
00000000
00000000
00000000
00000001
00000000
00000100
00000000
00010000
00000000
00000100
00000000
00000001
00000000
00000100
00000010
,
00000100
00000010
00010000
00001000
00100000
00010000
01000000
00000000
,
01100000
00000000
10000000
01000000
00010000
00001000
00010000
01000000
,
00100000
00001000
00010000
00100000
01000000
00001000
00010000
00000010
,
00000100
00000000
00000100
00000000
00000001
00000000
00000100
00000000
00010000
00000000
00000100
00000000
00000001
00000000
00000100
00000010
,
00000100
00000010
00010000
00001000
00100000
00010000
01000000
00000000
,
01100000
00000000
10000000
01000000
00010000
00001000
00010000
01000000
,
00100000
00001000
00010000
00100000
01000000
00001000
00020000
00000000
,
00030000
00000000
00000000
00000000
00001000
00000000
01000000
00100000
01000000
00000000
00001000
00000000
00010000
00000000
00000010
00000100
,
00000010
00010000
00001000
01000000
00100000
10000000
01000000
00000000
,
00110000
00011000
00011000
00001100
,
00001100
00000101
00000101
00000011
,
00000110
00000000
00000000
00000000
00010000
00000000
00000100
00000010
00000100
00000000
00010000
00000000
00001000
00000000
00100000
01000000
,
00100000
00001000
00010000
00000100
00000010
00000001
00000100
00000000
,
00001010
00011000
00011000
01010000
,
01010000
11000000
11000000
10100000
,
01100000
00000000
10000000
01000000
00010000
01000000
00010000
00001000
,
00000100
00000000
00000001
00000100
00001000
00000100
00001000
00010000
,
01000000
00000000
10000000
00010000
01000000
00001000
00010000
00000100
,
00001000
00000010
00000100
00001000
00010000
00000100
00000010
00001000
,
00010000
00000010
00000100
00000001
00000100
00000001
00001000
00000100
,
00001000
00000100
00010000
00001000
01000000
00100000
01000000
00001000
,
00010000
00000000
01000000
10000000
00100000
00010000
00001000
00100000
,
00010000
00001000
00000100
00000010
00000001
00000100
00002000
00023000
,
00230000
10300000
20020000
00000000
00000000
00000000
00000000
00000000
,
00000000
00000000
00000000
00000000
,
00000000
00000000
00000000
00000000
,
00000000
00000000
00000000
00000000
30030000
00000000
00000000
00000000
00000000
00000000
00000000
00000000
10000000
01000000
00010000
01000000
,
10000000
00000000
01000000
00100000
00010000
01000000
00100000
10000000
01000000
00000000
00100000
00000000
00010000
00000000
01010000
00000000
,
11000000
00000000
10010000
00000000
01100000
00000000
00000000
00000000
00000000
01000000
00001000
00000100
00000001
00000100
00001000
00000100
,
00000001
00000000
00000010
00000100
00001000
00000010
00000100
00001000
00010000
00100000
01000000
00010000
00100000
01000000
10000000
01000000
,
00100000
01000000
10000000
01000000
00010000
00001000
00001000
00010000
00000000
00000100
00001000
00000010
00000200
00000000
00000000
00000000
,
00000300
00000002
00000000
00000003
,
00000101
00000100
00001000
00010000
01000000
00000000
00100000
00010000
,
11000000
01000000
00010000
00001000
00000100
00000000
00000010
00001000
,
00000101
00000100
00001000
00010000
01000000
00000000
00100000
00010000
,
11000000
00000000
00010000
00000000
01010000
00000000
10000000
00000000
10010000
00000000
00000000
00000000
00010000
01000000
00001000
00000000
,
00010000
00000000
01000000
00000000
00010000
00000000
00000100
00000000
00010000
00000000
01000000
00000000
00010000
00000100
00010000
00000000
,
00001000
00000000
00000010
00000000
00001000
00000000
00100000
00000000
00001000
00000000
00000010
00000000
00001000
00010000
00001000
00000000
,
00010000
00000000
01000000
00000000
10000000
01000000
10000000
00000000
00100000
00000000
00010000
00000000
00001000
00010000
00001000
00000000
,
00011000
00010000
00010100
00000100
00000110
00000000
00000000
00000000
,
00000000
00000000
00000000
00000000
,
00000000
00000000
00000000
00000000
01100000
01000000
10000000
00010000
,
01000000
00000000
00100000
01000000
00010000
00100000
00001000
00010000
,
00000100
00001000
00010100
00001000
,
01010000
00001000
00020200
00000000
,
00030300
00010000
00001000
01000000
00100000
10000000
00100000
00010000
,
00001000
00000000
00010000
00000100
00000010
00001000
00000010
00000001
,
00000010
00001000
00000010
00000100
00001000
00000010
00000100
00001000
,
00000100
00000010
00000100
00010000
01000000
00100000
00100000
10000000
,
00000000
00010000
01000000
00100000
10000000
01000000
00010000
00001000
,
00011000
00000000
00001000
00000010
00000001
00000100
00001000
00010000
,
00011000
10010000
00011000
00001001
,
00011000
01100000
00022000
00000000
,
00033000
00010000
01000000
10000000
00010000
00100000
00001000
00010000
,
00011000
00000000
00001000
00000100
00000001
00000010
00001000
00010000
,
00001000
00000010
00000001
00000100
00001000
01000000
00001000
00000100
,
00001000
00100000
00001000
00000010
00001000
00100000
00100000
00010000
,
00000000
00100000
01000000
10000000
22000000
00000000
00000000
00000000
,
33000000
00000000
00000022
00000000
,
00000033
00000011
00000011
00000000
00001000
00000100
00001000
01000000
,
00001000
00000100
00001000
00000010
00001000
00100000
00001000
00000010
,
00001000
00000100
00001000
01000000
00010000
00000010
00001000
00000100
,
00010000
00001000
01000000
00100000
00010000
00001000
00000100
00000010
,
00001000
00010000
00000100
00000010
00010000
00000100
00010000
01000000
,
00010000
00000100
00010000
00000010
00010000
00100000
00010000
00000010
,
00010000
00000100
00010000
01000000
00001000
00000010
00010000
00000100
,
00001000
00010000
00100000
01000000
00010000
00001000
00000010
00000100
,
00001000
00010000
00000010
00000100
00020000
00000000
00000000
00001000
,
00000000
00000000
00001000
00000000
00000000
00000000
00001000
00000000
00031000
00000000
01000000
00100000
01000000
00000000
00000000
00000000
,
00001000
00000000
00100000
01000000
00100000
00000000
00000000
00000000
00010000
00000000
00001000
00000000
00000100
00000000
00000010
00000000
,
00000011
00000000
00000000
00000000
00001100
00000000
00000000
00000000
00010000
00000000
00000100
00000010
00000100
00000000
00000000
00000000
,
00010000
00000000
00000010
00000100
00000010
00000000
00000000
00000000
00010000
00000000
00001000
00000000
01000000
00000000
00100000
00000000
,
10000000
00000000
01000000
00000000
00010000
00000000
00001000
00000000
01000000
00000000
00001000
00010000
00001000
00000000
00000000
00000000
,
00100000
00000000
00001000
00010000
00001000
00000000
00000000
00000000
00010000
00000000
00000100
00000000
00000010
00000000
00010000
00000000
,
00000010
00000001
00000100
00000000
00000010
00010000
00001000
01000000
,
00100000
00010000
00001000
00000100
00000010
00010000
00001000
01000000
,
00100000
10000000
10000000
10000000
11000000
00000000
01010000
00000000
,
00011000
00010100
00000000
00000000
00000101
00000000
00001100
00000000
,
00011000
00000000
01001000
00000000
00000000
00000000
00000000
00000000
01000000
00000000
00000000
00000000
00010000
01000000
00010000
01000000
,
00001000
00010000
00000100
00000010
00000001
00000100
00001000
00010000
,
00100000
10000000
00010000
00100000
00001000
01000000
00100000
00010000
,
00001000
00000000
00000100
00000010
00000100
00000000
00000010
00000000
00001000
00000000
00000100
00000000
00010000
00000000
00001000
00000000
,
01001000
00000000
00000000
00000000
00110000
00000000
00000000
00000000
00010000
00000000
00000000
00000000
01000000
00001000
01000000
00001000
,
01000000
00000000
00001000
00000000
00000100
00000000
00000001
00000000
00001000
00000001
00001000
00000001
00001000
00000001
00001000
00000001
,
00001000
00000001
00001000
00000001
00001000
00000001
00001000
00000001
00000000
00000000
00000000
00000000
00000000
00000000
00000000
00000000
,
00000000
00000000
20000000
30020000
,
00032000
00000000
00003002
00000000
00002003
00000000
00000000
00003000
;

//---------------dance-double - ----------------
#NOTES:
     dance-double:
     :
     Medium:
     10:
     0.471,0.493,0.053,0.113,0.000:
00000000
00000000
00000000
00000000
,
00000000
00000000
00000000
00000000
,
00000000
00000000
00000000
00000000
,
10000000
01000000
00100000
00010000
,
01000000
00000000
00000000
00000000
,
00000000
00000000
00010000
01000000
00001000
00000000
00001000
00100000
,
00010000
00001000
00000100
00000010
,
00000001
00000000
00000100
00000010
00010000
00000000
00010000
00000100
,
00000010
00000000
00000100
00000000
00010000
00000000
00001000
01000000
,
00100000
10000000
01000000
00000000
00010000
00000000
00001000
00000000
,
00000100
00000001
00000010
00001000
,
00010000
00000000
01000000
10000000
01000000
00100000
00010000
01000000
,
00100000
01000000
00001000
00100000
00001000
01000000
00100000
00000000
,
00000000
00000000
10000000
01000000
10000000
00000000
00010000
01000000
,
00010000
00000000
00100000
00001000
00010000
00000000
00000100
00000000
,
00001000
00000000
00000010
00000100
00000001
00000000
00000010
00000100
,
00001000
00000000
00000100
00000000
00010000
00000000
00001000
01000000
,
00100000
01000000
00001000
00000000
00010000
00000000
01000000
00000000
,
10000000
00000000
00100000
01000000
00010000
00000000
00100000
00000000
,
00001000
00000000
00010000
00000010
00001000
00000000
00001000
00000010
,
00010000
00001000
00000100
00000002
,
00000003
00001000
00001000
00000100
,
00000100
00000000
00010000
00001000
00010000
00000000
00001000
00000000
,
00001000
01000000
01000000
00100000
,
00100000
00000000
10000000
00010000
10000000
00000000
01000000
00000000
,
01000000
00010000
00010000
00001000
,
00001000
00000000
00000100
00000010
00000100
00000000
00000001
00000000
,
00000001
00000010
00000010
00001000
,
00001000
00000000
00010000
01000000
00010000
00000000
01000000
00000000
,
10000000
00000000
00010000
00000000
00000000
01000000
00000000
00010000
,
00000000
00100000
00001000
00000000
00000000
00010000
00000000
00000100
,
00001000
00000000
00000010
00000000
00000100
00000001
00000010
00000000
,
00000100
00001000
00000100
00010000
,
00001000
01000000
00010000
00100000
,
01000000
10000000
00010000
00000000
01000000
00000000
00100000
00000000
,
10000000
00000000
00010000
00000000
00100000
00000000
00001000
00010000
,
00000100
00000000
00001000
00000000
00000010
00000000
00000100
00000001
,
00000010
00000200
00000000
00000000
,
00000000
00000000
00000000
00000000
,
00000000
00000000
00000000
00000000
,
00000000
00000000
00000300
00000000
00000000
00000000
00001000
00000100
,
00010000
00000000
00001000
00000000
01000000
00000000
00010000
00100000
,
01000000
00000000
20000000
00000000
30000000
00000000
00010000
01000000
,
00001000
00000000
00010000
00000000
00000100
00000000
00001000
00000010
,
00000001
00000010
00001000
00000000
00000001
00000000
00000020
00000000
,
00000000
00000230
00000000
00000300
,
00001000
00000000
00000100
00010000
,
00011000
00000000
00001000
01000000
,
01010000
00000000
00010000
10000000
,
11000000
01000000
01000000
01000000
,
00100000
00010000
10000000
01000000
,
00010000
00001000
00000010
00000001
,
00000100
00001000
00010000
00100000
,
10000000
00010000
10000000
00010000
10000000
00000000
00000000
00000000
,
00000000
00000000
00000000
00000000
,
00000000
00000000
00000000
00000000
01000000
00100000
00010000
00000000
,
01000000
00000000
00001000
00000000
00010000
00000100
00000010
00000000
,
00000001
00000100
00000010
00002000
,
00003200
00020300
00032000
00000000
,
00003000
01000000
00010000
00000000
00100000
00000000
01000000
00000000
,
10000000
00000000
00010000
01000000
00001000
00000000
00010000
00000000
,
00000100
00000000
00001000
00000010
00000100
00000000
00000001
00000000
,
00000100
00000000
00001000
00000000
00000100
00000000
00000010
00000100
,
00000000
00000010
00001000
00000010
00000100
00000010
00001000
00000000
,
00000100
00000000
00010000
00000000
00001000
01000000
00100000
00000000
,
10000000
01000000
00100000
00020000
,
02030000
03002000
00023000
00000000
,
00030000
00000100
00001000
00000000
00000010
00000000
00000100
00000000
,
00000001
00000000
00001000
00000100
00010000
00000000
00001000
00000000
,
01000000
00000000
00010000
00100000
01000000
00000000
10000000
00000000
,
01000000
00000000
00010000
00000000
01000000
00000000
00100000
01000000
,
00000000
00100000
00010000
00100000
01000000
00000000
01000000
00000000
,
01000000
01000000
10010000
10010000
,
10010000
10010000
10000000
01000000
,
00010000
00001000
00000010
00001000
,
00010000
00000000
01000000
00000000
10000000
00000000
00010000
01000000
,
00010000
00000000
00100000
00001000
00100000
00000000
00001000
00000000
,
00010000
00000100
00001000
00000000
00000001
00000000
00000100
00000000
,
00001000
00010000
00100000
00010000
,
00001000
00000100
00000001
00001000
,
00000100
00010000
00002000
01000000
,
01000000
00000000
01003000
00000000
00100000
00000000
00000000
00100000
,
00000000
00100000
00000000
00100000
01000000
00000000
00100000
00000000
,
01000000
00000000
00100000
00000000
01000000
00010000
01000000
00000000
,
00010000
00100000
00001000
00010000
,
00001000
00000000
00010000
00000000
00001000
00010000
00001000
00000000
,
00010000
00000100
00000010
00000100
,
00000010
00000000
00000100
00000000
00000010
00000100
00000010
00000000
,
00000001
00000000
00001000
00000000
00000001
00001000
00000100
00000000
,
00001000
00000000
00000100
00000000
00010000
00001000
01000000
00000000
,
00010000
10000000
00010000
10000000
,
01000000
01000000
00000000
00000000
00100000
00000000
00010000
00000000
,
01000000
01000000
00000000
00000000
00001000
00000000
00010000
00000000
,
00000100
00000010
00000100
00000000
00001000
00000000
00000010
00000000
,
00000100
00001000
00010000
00100000
,
01000000
00010000
01000000
00000000
00100000
00000000
10000000
00000000
,
00010000
00000000
00100000
00000000
00001000
00010000
00001000
00000000
,
00010000
00000100
00010000
00000000
00000100
00000010
00000001
00000100
,
00001000
00010000
00001000
00000100
00000000
00000000
00000000
00000000
,
00000000
00000000
00001000
00010000
,
01000000
00000000
10000000
00000000
00020000
00000000
00000000
00030000
;

//---------------dance-double - ----------------
#NOTES:
     dance-double:
     :
     Easy:
     7:
     0.354,0.415,0.000,0.023,0.000:
00000000
00000000
00000000
00000000
,
00000000
00000000
00000000
00000000
,
00000000
00000000
00000000
00000000
,
10000000
00010000
01000000
00100000
,
10000000
00000000
00000000
00000000
,
00000000
01000000
00010000
00001000
,
00000000
00000100
00000001
00000010
,
00000000
00000001
00000100
00001000
,
00000000
00010000
01000000
10000000
,
01000000
00010000
00001000
00000100
,
00000000
00000001
00000010
00001000
,
00000000
00010000
00100000
10000000
,
00000000
10000000
01000000
00010000
,
00000000
01000000
10000000
01000000
,
00100000
00010000
01000000
00100000
,
10000000
01000000
00010000
00001000
,
00000100
00000001
00001000
00000010
,
00000100
00000001
00000010
00000100
,
00001000
00000001
00000100
00001000
,
00010000
01000000
10000000
00100000
,
00010000
00001000
00000100
00000001
,
00000000
00000010
00000001
00000010
,
00000001
00000100
00000010
00000100
,
00000010
00001000
00000100
00001000
,
00000100
00010000
00001000
00010000
,
00001000
00100000
00010000
00100000
,
00010000
01000000
00100000
01000000
,
00100000
10000000
01000000
10000000
,
01000000
00100000
00010000
01000000
,
00000000
00100000
10000000
00100000
,
10000000
00010000
01000000
00010000
,
01000000
00001000
00100000
00001000
,
00100000
00001000
00010000
00001000
,
00010000
00000100
00010000
00000100
,
00010000
00000010
00001000
00000010
,
00001000
00000001
00000100
00000001
,
00000100
00000010
00001000
00000100
,
00000000
00010000
00000000
00000000
,
00000000
00000000
00000000
00000000
,
00000000
00000000
00000000
00000000
,
00000000
00000000
00000000
00001000
,
01000000
00000000
00010000
00010000
00010000
00000000
10000000
00000000
,
01000000
00000000
00010000
00000000
00000000
00000000
00001000
00000100
,
00000001
00000000
00000001
00000010
00001000
00000000
00010000
01000000
,
10000000
00000000
10000000
00100000
00010000
00000000
00100000
00000000
,
00000000
01000000
00000000
00000000
,
00010000
00000000
10000000
00000000
,
00010000
00000000
01000000
00000000
,
00001000
00000000
00010000
00000000
,
00000100
00000100
00000100
00000000
,
00001000
00000010
00001000
00000001
,
00001000
00000100
00001000
00000010
,
00010000
00001000
00100000
00010000
,
01000000
00100000
10000000
00000000
,
00000000
00000000
00000000
00000000
,
00000000
00000000
01000000
01000000
,
01000000
00100000
00010000
00010000
,
00010000
01000000
00100000
10000000
,
01000000
00010000
00001000
00000000
,
00000000
00000100
00000001
00000010
,
00001000
00000010
00000001
00000100
,
00001000
00010000
01000000
10000000
,
01000000
00010000
00001000
00000000
,
00010000
00000000
00001000
00000100
,
00000001
00000000
00000001
00000010
,
00001000
00000000
00010000
01000000
,
10000000
00000000
00010000
00000000
,
10000000
01000000
00010000
00001000
,
00000100
00000001
00000010
00000001
,
00000010
00001000
00010000
01000000
,
10000000
01000000
00010000
00000000
,
00001000
00000000
02000000
00000000
,
03000000
00000000
00200000
00000000
,
00300000
00000000
10000000
00100000
,
10000000
00100000
01000000
00010000
,
01000000
00010000
00100000
00001000
,
00100000
00001000
00010000
00000100
,
00010000
00000100
00001000
00000010
,
00001000
00000010
00000100
00000001
,
00000100
00000001
00001000
00000010
,
00001000
00000010
00010000
00000100
,
00010000
00000100
00002000
00000000
,
00000000
00003000
00000001
00000100
,
00001000
00010000
01000000
00010000
,
00001000
00000100
00000001
00000010
,
00001000
00010000
01000000
00010000
,
00001000
00000010
00000001
00000100
,
00001000
00010000
01000000
10000000
,
00100000
10000000
01000000
10000000
,
00100000
00010000
00001000
00000100
,
00000001
00000000
00001000
00000100
,
00010000
00010000
00001000
01000000
,
00010000
00010000
00100000
01000000
,
10000000
01000000
00010000
00001000
,
00000010
00000001
00000100
00001000
,
00010000
00100000
10000000
01000000
,
00010000
00001000
00000010
00000001
,
00000100
00001000
00010000
00100000
,
10000000
00010000
00000000
00000000
,
00000000
00000000
10000000
00010000
,
00001000
00000001
00000100
00000000
;
