#TITLE:MINE TURTLE;
#SUBTITLE:;
#ARTIST:Lil Deuce Deuce;
#TITLETRANSLIT:;
#SUBTITLETRANSLIT:;
#ARTISTTRANSLIT:;
#GENRE:;
#CREDIT:;
#MENUCOLOR:;
#METERTYPE:DDR;
#BANNER:MINE TURTLE.png;
#BACKGROUND:MINE TURTLE-bg.png;
#LYRICSPATH:;
#CDTITLE:cdtitle.png;
#MUSIC:MINE TURTLE.mp3;
#OFFSET:-0.018;
#SAMPLESTART:2.507;
#SAMPLELENGTH:15.000;
#SELECTABLE:YES;
#LISTSORT:;
#BPMS:0.000=192.000;
#STOPS:;
#BGCHANGES:0.000=MINE TURTLE.avi=1.000=1=0=0,
99999=-nosongbg-=1.000=0=0=0 // don't automatically add -songbackground-
;
#ATTACKS:;

//---------------dance-single - ----------------
#NOTES:
     dance-single:
     :
     Hard:
     13:
     0.710,0.713,0.705,0.052,0.000:
0000
0000
0000
0000
,
0000
0000
0000
0000
,
1100
0000
0101
0000
1000
0100
0010
0100
,
0000
0010
0100
0010
0001
0000
1001
0000
,
0101
0000
1100
0000
0001
0100
0010
0100
,
0000
0010
0100
0010
1000
0000
1001
0000
,
1000
0001
0100
0000
0110
0000
0000
1001
,
0000
1000
0100
0010
0001
0000
1001
0000
,
0011
0000
1010
0000
1000
0100
0010
0001
,
0000
0001
0100
0010
1000
0000
1001
0000
,
1000
0100
1000
0100
0010
0100
0010
0100
,
0001
0100
0001
0100
1000
0000
1001
0000
,
0001
0100
0001
0100
0010
0100
0010
0100
,
0001
0100
1000
0100
0001
0000
1001
0000
,
1000
0100
0010
0001
0010
0100
1000
0001
,
0100
0010
1000
0100
0010
0000
0001
0100
,
0000
0000
0000
0010
0100
0000
0110
0000
,
0010
1000
0010
1000
0001
0010
0100
0000
,
1000
0100
0010
0000
0100
1000
0001
0100
,
0000
0010
0100
0001
1000
0000
1001
0000
,
0001
0010
0100
0000
0010
0001
0100
0010
,
0000
0100
0001
0100
1000
0000
0110
0000
,
0010
0010
0100
0000
1001
0000
0000
0110
,
0000
0010
1000
0010
0100
0000
0001
0000
,
1000
0100
0001
0000
0100
1000
0100
0010
,
0000
0001
0100
1000
0100
0000
1001
0000
,
0001
0100
0010
0100
0001
0100
0010
0100
,
0001
1000
0100
0010
0100
0000
0110
0000
,
0100
1000
0001
1000
0100
1000
0001
1000
,
0100
0010
0001
0100
0010
0000
0100
0010
,
0100
1000
0100
0010
0100
0000
0001
0010
,
0100
0000
1000
0010
0000
0100
0001
0000
,
0100
0010
1000
0001
0100
0010
1000
0100
,
0010
0001
0010
0100
1000
0000
1001
0000
,
0101
0000
0000
0000
,
1100
0000
0000
0101
0000
0000
0000
0000
,
0011
0000
0000
0000
,
1010
1010
0000
1100
0000
0000
0000
0000
,
0101
0000
0000
0000
,
0011
0000
0000
1010
0000
0000
0000
0000
,
1001
0000
0000
0000
,
0100
0010
0000
1001
0000
0000
0000
0000
,
0011
0000
1100
0000
0001
0010
0100
1000
,
0000
0100
0010
0001
0100
0000
0110
0000
,
1010
0000
0101
0000
1000
0100
0010
0001
,
0000
0100
1000
0100
0001
0000
1001
0000
,
0100
0100
0010
0000
0110
0000
0000
1001
,
0000
0001
0100
0010
0100
0000
1001
0000
,
1000
0100
0001
0000
0100
1000
0001
0100
,
0000
0010
0100
0010
1000
0001
1000
0001
,
0220
0000
0000
0330
,
0100
1000
0100
1000
0001
0010
0100
0000
,
1000
1000
0100
0000
0010
0100
1000
0001
,
0100
0100
0010
0100
0100
1000
0100
0100
,
0001
0000
1100
0000
0001
0010
0100
1000
,
0001
0000
0110
0000
0100
0100
0001
1000
,
0100
0010
0100
0010
0001
1000
0100
0000
,
0110
0000
1001
0000
0100
0100
0010
0000
,
1000
0001
1000
0001
0100
0010
1000
0000
,
0001
0100
0001
0100
0001
0100
0010
0000
,
1000
0100
1000
0100
0010
0100
1000
0001
,
0100
0010
0100
0000
0101
0000
1100
0000
,
0001
0010
0001
0010
0100
0010
0001
0010
,
0100
1000
0001
0100
0010
0000
0110
0000
,
0001
0100
1000
0100
0001
0100
0010
0001
,
0010
0100
1000
0100
0001
0000
1001
0000
,
1000
0100
1000
0100
0001
0100
0010
0001
,
0100
1000
0100
0001
0010
0000
0110
0000
,
1100
0000
0101
0000
1000
0001
0000
1000
,
0001
0010
0100
1000
0001
0000
0101
0000
,
1010
0000
0000
0000
,
0101
1100
0000
2002
0000
0000
3003
0000
,
0110
0000
0000
0000
,
1000
0100
0001
0000
0100
1000
0100
0010
,
0000
0001
0100
1000
0100
0000
0010
0000
,
1000
0001
0010
0000
0100
1000
0100
0001
,
0000
0100
1000
0010
0100
0000
0001
0000
,
0010
0001
0100
0000
0110
0000
0000
1001
,
0000
0100
1000
0010
0100
0000
0001
0000
,
0010
0100
1000
0000
0100
0010
0001
0100
,
0010
1000
0010
1000
0010
1000
0010
1000
,
1001
1001
1100
1100
,
1001
0001
0100
0000
0010
0100
0001
0010
,
0110
0110
1100
1100
,
0110
0010
0001
0000
0100
0001
1000
0001
,
0011
0000
0011
0000
1100
0000
0000
0001
,
0100
0010
0100
0000
0001
0010
0100
1000
,
1100
1100
0011
0011
,
1000
0100
0001
0100
1000
0010
0001
0010
,
2002
0000
0000
0000
,
0000
0000
0000
0000
,
3003
0000
0000
0000
;

//---------------dance-single - ----------------
#NOTES:
     dance-single:
     :
     Medium:
     10:
     0.507,0.634,0.183,0.061,0.000:
0000
0000
0000
0000
,
0000
0000
0000
0000
,
1000
0000
0001
0000
0100
0010
0100
0000
,
0002
0013
2000
3010
,
0001
0000
1000
0000
0100
0010
0100
0000
,
2000
3100
0002
0103
,
0010
0000
0010
0000
0100
0000
0000
1001
,
0000
0100
0010
1000
,
0100
0000
0100
0000
0010
0001
0010
0000
,
0100
1000
0001
0100
,
0010
1000
0010
1000
,
0001
0100
0001
0100
0010
0000
0100
0000
,
0001
0010
0001
0010
,
0100
1000
0100
1000
0001
0000
0100
0000
,
0010
1000
0010
1000
,
0100
0010
0100
0010
0001
0000
0100
0000
,
0001
0001
1000
1000
,
0001
1000
0001
0000
1001
0000
0000
0000
,
0010
0000
0100
0000
0001
1000
0001
0000
,
0010
0100
1000
0001
,
0100
0000
0010
0000
1000
0001
1000
0000
,
0100
0010
0001
0100
,
0010
0000
0010
0000
0100
0000
0000
1001
,
0000
0100
0010
0001
,
0100
0000
0001
0000
1000
0100
1000
0000
,
0010
0001
0010
1000
,
0001
0001
1000
1000
,
0100
0010
0100
0010
0001
0000
0001
0000
,
1000
1000
0010
0010
,
0100
0001
0100
0001
0010
0000
0100
0000
,
1000
1000
0001
0001
,
0100
0010
0100
0000
0001
0000
1000
0000
,
0100
0010
0100
0000
1000
0001
1000
0000
,
0001
0100
0020
0030
,
1001
0000
0000
0000
,
1100
0000
0000
0101
0000
0000
0000
0000
,
0110
0000
0000
0000
,
1000
0001
0000
1001
0000
0000
0000
0000
,
1010
0000
0000
0000
,
0101
0000
0000
0011
0000
0000
0000
0000
,
1000
0001
1000
0000
0001
0100
0000
0000
,
0000
0010
1000
0010
1000
0001
0100
0000
,
0001
0000
0010
0000
0100
1000
0010
0000
,
0100
0001
0010
0001
,
0100
0000
0010
0000
1000
0001
0010
0000
,
0100
1000
0010
0100
,
0001
0000
1000
0000
1001
0000
0000
0110
,
0000
0010
0100
0001
,
0010
0000
0100
0000
1000
0001
0100
0000
,
0010
0100
0010
0100
0001
1000
0001
0000
,
1000
0100
0100
0100
,
1000
0100
1000
0100
0010
0001
0100
0000
,
0010
0010
0100
0100
,
1001
0000
0000
0000
,
0010
0100
0001
0010
,
0100
1000
0100
0010
,
0001
0100
0001
0100
0010
1000
0100
0000
,
0010
0010
0010
0010
,
0100
1000
0100
1000
0010
0100
0001
0000
,
1000
0100
0010
0100
0010
0100
1001
0000
,
0001
0000
0001
0000
1000
0100
1000
0000
,
0010
0010
0100
0001
,
1000
0100
1000
0000
0001
0100
0001
0000
,
1000
0001
0110
0000
,
1000
0000
1000
0000
0100
0010
0100
1000
,
0001
0100
0010
0000
0100
0000
0001
0000
,
1000
1000
0001
0001
,
1000
0000
0100
0010
0100
0000
0000
0000
,
1000
0000
1000
0000
0001
0100
0000
0000
,
0010
0010
0100
0001
,
1001
0000
0000
0000
,
0010
0100
0000
0110
0000
0000
0000
0000
,
0000
0000
0000
0000
,
0001
0000
0100
0000
0010
0100
0001
0000
,
0010
0100
1000
0010
,
0100
0000
0010
0000
1000
0100
0010
0000
,
0001
0100
1000
0100
,
0010
0000
1000
0000
0001
0010
0100
0000
,
0001
0100
1000
0010
,
0100
0000
0001
0000
0010
0100
1000
0000
,
0100
0010
0001
0000
0010
0100
1000
0000
,
0001
0100
0001
0000
1000
0000
0100
0000
,
0010
0100
1000
0000
0100
0000
0010
0000
,
0001
0100
0010
0000
0100
0000
1000
0000
,
0100
0001
1000
0000
0100
0000
0001
0000
,
0100
0010
0001
0000
0100
0000
1000
0000
,
0100
0010
1000
0000
0100
0000
0001
0000
,
1000
0010
0001
0000
1000
0100
0001
0000
,
0100
1000
0001
0000
0110
0000
1001
0000
,
0220
0000
0000
0000
,
0000
0000
0000
0000
,
0330
0000
0000
0000
;

//---------------dance-single - ----------------
#NOTES:
     dance-single:
     :
     Easy:
     7:
     0.352,0.356,0.000,0.026,0.000:
0000
0000
0000
0000
,
0000
0000
0000
0000
,
1000
1000
1000
0100
,
0010
0010
0001
0000
,
0001
0001
0001
0100
,
0010
0010
1000
0000
,
1000
0100
0010
0000
,
0010
0100
1000
0000
,
0001
0100
0010
0010
,
0100
0001
1000
0000
,
0001
0001
0001
0001
,
0001
0001
0001
0000
,
1000
1000
1000
1000
,
1000
1000
1000
0000
,
0100
0010
0100
0010
,
0100
0010
0001
1000
,
0100
0000
0100
0000
,
0100
1000
0001
0000
,
0100
0010
1000
0100
,
0001
0100
1000
0000
,
0100
0010
0001
0100
,
1000
0100
0001
0000
,
0010
0100
1000
0010
,
0001
0010
1000
0000
,
0100
0010
0001
0100
,
1000
0100
0001
0000
,
1000
1000
0100
0100
,
1000
0100
1000
0000
,
0001
0001
0100
0100
,
0001
0100
0001
0000
,
1000
1000
0010
0010
,
1000
0010
1000
0000
,
0001
0010
0100
0000
,
1000
0100
0010
0000
,
0001
0000
0000
0000
,
0100
0000
0000
0100
0000
0000
0000
0000
,
0010
0000
0000
0000
,
0100
0100
0000
0100
0000
0000
0000
0000
,
0001
0000
0000
0000
,
1000
0000
0000
1000
0000
0000
0000
0000
,
0100
0000
0000
0000
,
0100
0100
0100
0100
,
1000
1000
0001
0100
,
1000
0100
0001
0000
,
1000
1000
0001
0010
,
1000
0010
0001
0000
,
0001
0001
0100
0000
,
0100
0100
0001
0000
,
1000
0100
0001
0100
,
1000
0010
0100
0000
,
0002
0000
0003
0000
,
1000
1000
1000
1000
,
0100
0000
0100
0000
,
0100
0010
0100
0010
,
0001
0001
0001
0100
,
0020
0000
0030
0000
,
1000
0001
1000
0001
,
0100
0000
0000
0100
0000
0000
0100
0000
,
0001
1000
0001
1000
,
0100
0100
0100
0100
,
1000
1000
0100
0010
,
0001
0001
0100
0010
,
0100
0001
1000
0100
,
0010
0010
0010
0000
,
0001
0001
0100
0000
,
0010
0010
1000
0000
,
0100
0001
0100
1000
,
0010
0100
0001
0000
,
1000
1000
1000
0000
,
0001
0001
0001
0000
,
1000
0000
0000
0000
,
0100
0100
0000
0100
0000
0000
0000
0000
,
0000
0000
0000
0000
,
0010
0001
0100
1000
,
0100
0001
0010
0000
,
0100
1000
0010
0001
,
0010
1000
0100
0000
,
0010
1000
0010
0000
,
0010
0001
0010
0000
,
0001
0100
1000
0100
,
0001
1000
0100
0000
,
0010
0100
0010
0100
,
1000
0001
1000
0001
,
0100
0010
0100
0010
,
1000
0100
1000
0100
,
0010
0001
0010
0001
,
1000
0010
1000
0010
,
0100
0001
0010
1000
,
0100
0001
0100
1000
,
0020
0000
0000
0000
,
0000
0000
0000
0000
,
0030
0000
0000
0000
;

//---------------dance-single - ----------------
#NOTES:
     dance-single:
     :
     Beginner:
     4:
     0.221,0.277,0.061,0.009,0.000:
0000
0000
0000
0000
,
0000
0000
0000
0000
,
1000
0000
1000
0000
,
0001
0001
0001
0000
,
0100
0000
0100
0000
,
0010
0010
0010
0000
,
0100
0000
0100
0000
,
0100
0000
0100
0000
,
0001
0000
0001
0000
,
1000
1000
1000
0000
,
0100
0100
0100
0000
,
0100
0000
0100
0000
,
0010
0000
0010
0000
,
0001
0000
0001
0000
,
1000
0000
1000
0000
,
0001
0001
0001
0000
,
0100
0000
0000
0000
,
0100
0000
0100
0000
,
0100
0000
0100
0000
,
0100
0000
0100
0000
,
0001
0000
0001
0000
,
1000
0000
1000
0000
,
0100
0000
0100
0000
,
0100
0000
0000
0000
,
0100
0000
0100
0000
,
0010
0010
0010
0000
,
0001
0000
0001
0000
,
1000
0000
1000
0000
,
0001
0000
0001
0000
,
1000
0000
1000
0000
,
0100
0000
0100
0000
,
1000
0000
1000
0000
,
0010
0010
0010
0000
,
0100
0000
0000
0000
,
1001
0000
0000
0000
,
0000
0000
0000
0000
,
0110
0000
0000
0000
,
0000
0000
0000
0000
,
1001
0000
0000
0000
,
0000
0000
0000
0000
,
0110
0000
0000
0000
,
0000
0000
0000
0000
,
1000
0000
1000
0000
,
0001
0000
0001
0000
,
0100
0100
0100
0000
,
0010
0000
0010
0000
,
0100
0000
0000
0000
,
0100
0000
0100
0000
,
0001
0000
0001
0000
,
1000
1000
1000
0000
,
0100
0000
0000
0000
,
0100
0100
0100
0000
,
0100
0000
0100
0000
,
0010
0000
0000
0000
,
0001
0000
0001
0000
,
1000
0000
0000
0000
,
1000
1000
1000
0000
,
0001
0000
0001
0000
,
0001
0001
0001
0000
,
0100
0100
0100
0000
,
0100
0000
0100
0000
,
0001
0001
0001
0000
,
1000
0000
1000
0000
,
0100
0100
0100
0000
,
0010
0000
0010
0000
,
0001
0000
0001
0000
,
1000
0000
1000
0000
,
0010
0010
0010
0000
,
0100
0000
0100
0000
,
0100
0000
0000
0000
,
1001
0000
0000
0000
,
0110
0000
0000
0000
,
1001
0000
0000
0000
,
1000
0000
1000
0000
,
0100
0000
0100
0000
,
0010
0000
0010
0000
,
0001
0001
0001
0000
,
0001
0000
0001
0000
,
0100
0000
0100
0000
,
0010
0000
0010
0000
,
1000
1000
1000
0000
,
0001
0000
0100
0000
,
1000
0000
0100
0000
,
0001
0000
0010
0000
,
1000
0000
0010
0000
,
0001
0000
0100
0000
,
1000
0000
0010
0000
,
0001
0000
0010
0000
,
1000
0000
0100
0000
,
0020
0000
0000
0000
,
0000
0000
0000
0000
,
0030
0000
0000
0000
;

//---------------dance-double - ----------------
#NOTES:
     dance-double:
     :
     Hard:
     13:
     0.675,0.673,0.374,0.096,0.000:
00000000
00000000
00000000
00000000
,
00000000
00000000
00000000
00000000
,
00011000
00000000
00001000
00000000
00010000
00001000
01000000
00100000
,
00000000
01000000
00001000
00010000
01000000
00000000
10000000
00000000
,
10010000
00000000
01000000
00000000
00010000
00100000
01000000
10000000
,
00000000
01000000
00010000
00001000
00000100
00000000
00000001
00000000
,
00000010
00000001
00000010
00000000
00001100
00000000
00000000
00001001
,
00000000
00000001
00000100
00000010
00010000
00000000
00001000
00000000
,
01000000
00010000
00100000
00000000
01000000
10000000
00010000
01000000
,
00000000
00001000
00010000
00001000
00100000
00000000
00010000
00000000
,
01000000
00000000
01100000
00000000
10100000
00000000
10000000
01000000
,
00100000
00010000
01000000
00001000
00010000
00000000
00000100
00000000
,
00001100
00000000
00001010
00000000
00000110
00000000
00000100
00000001
,
00000010
00000000
00000010
00000001
00000100
00000000
00000010
00001000
,
00000100
00000100
00010000
00001000
01000000
00000000
00010000
00100000
,
01000000
01000000
10000000
00100000
01000000
00000000
00010000
00100000
,
00000000
00000000
00000000
01000000
10000000
00000000
00010000
00000000
,
10000000
01000000
00010000
00001000
00000100
00000000
00000001
00000000
,
00000010
00000000
00000110
00000000
00000100
00001000
00000100
00010000
,
00000000
00001000
01000000
00001000
00010000
00000000
01000000
00000000
,
10000000
00100000
01000000
00000000
00010000
01000000
00001000
00010000
,
00000000
00000100
00001000
00000010
00000100
00000000
00000001
00000000
,
00000010
00000001
00000100
00000000
00000110
00000000
00000000
00001001
,
00000000
00000001
00001000
00000100
00010000
00000000
00001000
00000000
,
01000000
00010000
00100000
00000000
01000000
10000000
00100000
01000000
,
00000000
00010000
00100000
00000000
00010000
01000000
00100000
00000000
,
10000000
01000000
10000000
01000000
00100000
00000000
00100000
00000000
,
00001000
00010000
00001000
00010000
00000100
00000000
00000100
00000000
,
00000010
00000001
00000100
00000000
00000010
00001000
00000100
00010000
,
00001000
01000000
00001000
00100000
01000000
00000000
10000000
01000000
,
00010000
01000000
10000000
01000000
00100000
00000000
00010000
01000000
,
00001000
00000000
00010000
00000100
00000000
00000000
00001000
00000010
,
00000100
00000001
00000010
00000100
00001000
00000000
00000001
00000000
,
00000100
00000110
00000110
00000110
,
00001001
00000000
00000000
00000000
,
00001100
00000000
00000000
00011000
00000000
00000000
00000000
00000000
,
01010000
00000000
00000000
00000000
,
11000000
11000000
00000000
10100000
00000000
00000000
00000000
00000000
,
00110000
00000000
00000000
00000000
,
00101000
00000000
00000000
00011000
00000000
00000000
00000000
00000000
,
00001100
00000000
00000000
00000000
,
00000010
00000001
00001000
00000001
00001000
00000001
00000100
00000000
,
00001010
00000000
00001100
00000000
00000100
00010000
00001000
01000000
,
00000000
01000000
00001000
00010000
02000000
00000000
23000000
00000000
,
30010000
00000000
01010000
00000000
01000000
00100000
10000000
01000000
,
00000000
00010000
00001000
00000100
00000002
00000000
00000023
00000000
,
00000130
00010000
00000100
00000000
00001100
00000000
00000000
00011000
,
00000000
00001000
01000000
00010000
00100000
00000000
01000000
00000000
,
10000000
01000000
00010000
00001000
00000100
00000001
00000010
00001000
,
00010000
01000000
10000000
00000000
10010000
00000000
01100000
00000000
,
20010000
01000000
01000000
31000000
,
10000000
01000000
00010000
00001000
00000100
00000001
00001000
00000000
,
00000001
00000001
00000010
00000000
00000100
00000100
00010000
00001000
,
01000000
01000000
00010000
00100000
00100000
01000000
10000000
10000000
,
00010000
01000000
00100000
00000000
00100000
01000000
00010000
00100000
,
00001000
00010000
00010000
00000100
00001000
00001000
00000010
00000100
,
00000001
00000010
00000001
00000010
00000001
00000010
00000100
00000000
,
00001000
00000100
00010000
00000000
00001000
01000000
00010000
00000000
,
00100000
01000000
00100000
01000000
10000000
00010000
01000000
00000000
,
00100000
01000000
00100000
01000000
00100000
01000000
10010000
00000000
,
10000000
01000000
00100000
00010000
01000000
00010000
00100000
00001000
,
00010000
00000100
00001000
00000000
00000010
00000000
00000100
00000001
,
00000010
00000001
00000100
00000010
00001000
00000000
00000100
00010000
,
00001000
01000000
00010000
00000000
10000000
00000000
00000000
01000000
,
00100000
01000000
00100000
00000000
00100000
00001000
00010000
00001000
,
00000100
00000001
00000010
00000000
00000001
00000000
00000100
00000010
,
00001000
00000100
00010000
00000000
00001000
01000000
00010000
00000000
,
00100000
00000000
01000000
10000000
00010000
00000000
00000000
10000000
,
01000000
00000000
00010000
00000000
00001000
00010000
00000000
00001000
,
00000100
00000001
00000020
00000000
,
00000031
00000000
00000000
00000000
,
00001000
00000100
00000000
00010200
00000000
00010000
00010300
00000000
,
00011000
00000000
00000000
00000000
,
01001000
00000000
01010000
00000000
00010000
10000000
01000000
00010000
,
00000000
00001000
00000100
00000001
00000020
00000000
00000031
00000000
,
00000101
00000000
00001001
00000000
00001000
00000100
00010000
00001000
,
00000000
01000000
00010000
00100000
02000000
00000000
13000000
01000000
,
00100000
01000000
10000000
00000000
10010000
00000000
00000000
01100000
,
00000000
00100000
10000000
01000000
00010000
00000000
00001000
00000100
,
00000001
00000010
00000100
00000000
00001000
00000000
00000100
00010000
,
00001000
01000000
00100000
01000000
00100000
01000000
00100000
01000000
,
00010000
10000000
00010000
10000000
00010000
00100000
00010000
00100000
,
00001000
00010000
00001000
00010000
00000100
00001000
00000100
00001000
,
00000010
00000100
00000010
00000100
00000001
00000010
00000001
00000010
,
00000001
00000100
00000001
00000100
00000010
00001000
00000010
00001000
,
00000100
00010000
00000100
00010000
00002000
00000000
00000000
00013000
,
00001000
01000000
00010000
00100000
00010000
01000000
00100000
10000000
,
01000000
00100000
00010000
01000000
00100000
10000000
01000000
00010000
,
00001000
00000100
00000001
00000010
00000100
00001000
00000100
00010000
,
00002000
00000000
00000000
00000000
,
00000000
00000000
00000000
00000000
,
00003000
00000000
00000000
00000000
;

//---------------dance-double - ----------------
#NOTES:
     dance-double:
     :
     Medium:
     11:
     0.550,0.594,0.165,0.139,0.000:
00000000
00000000
00000000
00000000
,
00000000
00000000
00000000
00000000
,
00010000
00000000
00001000
00000000
01000000
00010000
01000000
00000000
,
00001000
00010000
01000000
10000000
,
00100000
00000000
01000000
00000000
00010000
00100000
00010000
00000000
,
10000000
01000000
00010000
00001000
,
00000100
00000000
00000010
00000000
00001000
00000000
00000000
00001001
,
00000000
00000001
00000010
00000000
00000001
00000000
00000100
00000000
,
00000010
00000000
00001000
00000000
00000100
00010000
00000100
00000000
,
00000010
00000001
00000100
00001000
,
00010000
00000000
01000000
00000000
10000000
00000000
00100000
10000000
,
00100000
01000000
00010000
00100000
,
00001000
00010000
00000100
00001000
,
00000010
00000000
00000100
00000001
00000100
00000000
00001000
00000000
,
00010000
00000000
01000000
00000000
10000000
00000000
00100000
01000000
,
00100000
00000000
10000000
01000000
10000000
00000000
00100000
01000000
,
00000000
00000000
00000000
00010000
01000000
00000000
00001000
00000000
,
00010000
00000100
00010000
00000100
00000010
00000000
00000001
00000000
,
00000100
00000010
00000100
00000000
00000010
00000000
00001000
00000100
,
00000000
00000100
00010000
00000000
00001000
00000000
01000000
00000000
,
00010000
00100000
00010000
00000000
01000000
00000000
00100000
10000000
,
00000000
10000000
01000000
00000000
00010000
00000000
00001000
00000000
,
00000100
00000010
00000100
00000000
00000001
00000000
00000000
00000011
,
00000000
00000010
00000100
00000000
00001000
00000000
00000100
00000000
,
00010000
00001000
00010000
00000000
00001000
00000000
01000000
00100000
,
00000000
00100000
10000000
00000000
01000000
00000000
00100000
00000000
,
00001000
01000000
00010000
01000000
00001000
00000000
00100000
00000000
,
00001000
00010000
00000100
00010000
00001000
00000000
00010000
00000100
,
00001000
00000100
00000010
00000001
,
00000100
00000010
00001000
00000000
00000100
00000000
00010000
00000000
,
00001000
01000000
00001000
01000000
00010000
00000000
10000000
01000000
,
00100000
00000000
01000000
10000000
00000000
00000000
00010000
01000000
,
00010000
00000000
00100000
00001000
00100000
00000000
00001000
00000000
,
00010000
00000100
00001000
00000000
00000010
00000000
00000100
00000000
,
00000101
00000000
00000000
00000000
,
00001100
00000000
00000000
00011000
00000000
00000000
00000000
00000000
,
01010000
00000000
00000000
00000000
,
00010000
01000000
00000000
11000000
00000000
00000000
00000000
00000000
,
10100000
00000000
00000000
00000000
,
00110000
00000000
00000000
00011000
00000000
00000000
00000000
00000000
,
00001010
00000000
00000000
00000000
,
00000010
00000100
00000001
00000100
00000001
00000100
00000001
00000000
,
00001000
00000000
00000100
00000000
00010000
00001000
00010000
00000000
,
00001000
01000000
00020000
00230000
,
01300000
00000000
10000000
00000000
01000000
00100000
01000000
00000000
,
00010000
00001000
00000200
00000302
,
00000013
00000100
00001000
00000000
00001100
00000000
00000000
00010100
,
00000000
00010000
00001000
00000000
02000000
00000000
03020000
00000000
,
10030000
01000000
00100000
00000000
01000000
00000000
10000000
01000000
,
00000000
00010000
00001000
00000000
00000200
00000000
00000302
00000000
,
00000013
00000000
00000000
00000000
,
00000100
00001000
00000100
00001000
00000100
00010000
00001000
00000000
,
00010000
00001000
01000000
00010000
,
00100000
00000000
01000000
00000000
10000000
01000000
01000000
00000000
,
00100000
00000000
00010000
00000000
01000000
00000000
00010000
00100000
,
00100000
01000000
10000000
00010000
,
01000000
00001000
01000000
00001000
00010000
00000100
00001000
00000000
,
00000010
00000100
00000001
00000010
,
00000100
00010000
00000100
00010000
00001000
01000000
00010000
00000000
,
01000000
00001000
01000000
00001000
00010000
00000100
00000010
00000000
,
00000001
00000100
00000001
00000000
00001000
00000000
00000100
00000000
,
00010000
00001000
00010000
00000000
00001000
00000000
01000000
00000000
,
00100000
10000000
01000000
00010000
,
01000000
00010000
00001000
00000000
00000100
00000000
00000001
00000000
,
00000001
00000100
00000001
00000000
00001000
00000100
00001000
00000000
,
00000100
00010000
00001000
00000000
00100000
00000000
00010000
00000000
,
01000000
00100000
10000000
01000000
,
00010000
00000000
00001000
00010000
00001000
00000000
00000100
00000000
,
00000010
00000000
00001000
00000000
00000100
00000010
00000000
00000010
,
00000001
00000100
00000010
00000100
,
00000001
00000000
00000000
00000000
,
00001000
00000100
00000000
00020000
00000000
00000000
00000000
00000000
,
00030000
00000000
00000000
00000000
,
01001000
00000000
01001000
00000000
01000000
00010000
01000000
00000000
,
00010000
00100000
01000000
00000000
20000000
00000000
32000000
00000000
,
03010000
00000000
00011000
00000000
00001000
00000100
00000010
00000000
,
00001000
00000100
00000010
00000000
00000002
00000000
00000203
00000000
,
00000310
00000000
00001010
00000000
00001100
00000000
00000000
00010100
,
00000000
00010000
00001000
00000000
02000000
00000000
03020000
00000000
,
00130000
01000000
10000000
00000000
01000000
00000000
00100000
00010000
,
01000000
00010000
01000000
00010000
01000000
00010000
01000000
00010000
,
01000000
00010000
00100000
00000000
00100000
00001000
00010000
00000000
,
00010000
00000100
00001000
00000000
00001000
00000010
00000100
00000000
,
00000100
00000001
00000010
00000000
00000010
00000100
00001000
00000000
,
00001000
00000100
00010000
00000000
00010000
00001000
01000000
00000000
,
01000000
00010000
00100000
00000000
01000000
00000000
10000000
00100000
,
01000000
00010000
00100000
00000000
00010000
01000000
00100000
00000000
,
00100000
10000000
01000000
00000000
01000000
00010000
00001000
00000000
,
00001000
00000100
00000010
00001000
00000100
00000010
00000001
00000100
,
00000020
00000000
00000000
00000000
,
00000000
00000000
00000000
00000000
,
00000030
00000000
00000000
00000000
;

//---------------dance-double - ----------------
#NOTES:
     dance-double:
     :
     Easy:
     7:
     0.352,0.356,0.000,0.026,0.000: // measure 1
00000000
00000000
00000000
00000000
,  // measure 2
00000000
00000000
00000000
00000000
,  // measure 3
00000001
00000010
00000100
00001000
,  // measure 4
00000010
00010000
00001000
00000000
,  // measure 5
00010000
00100000
10000000
00010000
,  // measure 6
00100000
01000000
00100000
00000000
,  // measure 7
00100000
01000000
10000000
00000000
,  // measure 8
00100000
00010000
00001000
00000000
,  // measure 9
00010000
00000100
00010000
00100000
,  // measure 10
01000000
00010000
00100000
00000000
,  // measure 11
01000000
10000000
00100000
01000000
,  // measure 12
00010000
00100000
00001000
00000000
,  // measure 13
00010000
00000100
00001000
00000100
,  // measure 14
00000010
00000001
00000010
00000000
,  // measure 15
00000001
00000010
00001000
00010000
,  // measure 16
00100000
10000000
01000000
00100000
,  // measure 17
00010000
00000000
10000000
00000000
,  // measure 18
00100000
01000000
00100000
00000000
,  // measure 19
01000000
00010000
00100000
00001000
,  // measure 20
00010000
00000100
00010000
00000000
,  // measure 21
00001000
00100000
01000000
10000000
,  // measure 22
00100000
00010000
00100000
00000000
,  // measure 23
01000000
00010000
00100000
00001000
,  // measure 24
00010000
00000100
00001000
00000000
,  // measure 25
00000010
00000001
00000010
00000100
,  // measure 26
00000001
00000010
00001000
00000000
,  // measure 27
00010000
00100000
10000000
01000000
,  // measure 28
00100000
00010000
00100000
00000000
,  // measure 29
01000000
10000000
00100000
00010000
,  // measure 30
00001000
00010000
00100000
00000000
,  // measure 31
01000000
00010000
00100000
00001000
,  // measure 32
00010000
00001000
00100000
00000000
,  // measure 33
00000010
00001000
00000100
00000000
,  // measure 34
00000100
00000010
00000001
00000000
,  // measure 35
00001000
00000000
00000000
00000000
,  // measure 36
00010000
00000000
00000000
00010000
00000000
00000000
00000000
00000000
,  // measure 37
10000000
00000000
00000000
00000000
,  // measure 38
00100000
01000000
00000000
00100000
00000000
00000000
00000000
00000000
,  // measure 39
10000000
00000000
00000000
00000000
,  // measure 40
00010000
00000000
00000000
00010000
00000000
00000000
00000000
00000000
,  // measure 41
00001000
00000000
00000000
00000000
,  // measure 42
00000001
00000010
00000100
00000010
,  // measure 43
00001000
00010000
00100000
10000000
,  // measure 44
01000000
00100000
00010000
00000000
,  // measure 45
00100000
00001000
00010000
00000010
,  // measure 46
00000100
00001000
00010000
00000000
,  // measure 47
00100000
10000000
01000000
00000000
,  // measure 48
00100000
00001000
00010000
00000000
,  // measure 49
00000010
00001000
00000100
00000010
,  // measure 50
00000001
00000010
00001000
00000000
,  // measure 51
00020000
00000000
00030000
00000000
,  // measure 52
00001000
00100000
01000000
00100000
,  // measure 53
00010000
00000000
10000000
00000000
,  // measure 54
00100000
01000000
00010000
00100000
,  // measure 55
00001000
00010000
00100000
10000000
,  // measure 56
02000000
00000000
03000000
00000000
,  // measure 57
00100000
00001000
00010000
00001000
,  // measure 58
00000100
00000000
00000000
00000001
00000000
00000000
00000010
00000000
,  // measure 59
00000100
00001000
00000010
00010000
,  // measure 60
00001000
00100000
01000000
10000000
,  // measure 61
00100000
01000000
00010000
00100000
,  // measure 62
00001000
00010000
00001000
00100000
,  // measure 63
01000000
10000000
00100000
00010000
,  // measure 64
00001000
00000010
00000001
00000000
,  // measure 65
00000010
00000100
00001000
00000000
,  // measure 66
00000010
00010000
00001000
00000000
,  // measure 67
00100000
01000000
10000000
00100000
,  // measure 68
00010000
00100000
01000000
00000000
,  // measure 69
00001000
00010000
00000010
00000000
,  // measure 70
00001000
00000100
00010000
00000000
,  // measure 71
00001000
00000000
00000000
00000000
,  // measure 72
00100000
01000000
00000000
10000000
00000000
00000000
00000000
00000000
,  // measure 73
00000000
00000000
00000000
00000000
,  // measure 74
00100000
01000000
00010000
00100000
,  // measure 75
00001000
00010000
00001000
00000000
,  // measure 76
01000000
00100000
00010000
00001000
,  // measure 77
00000010
00000001
00001000
00000000
,  // measure 78
00001000
00000100
00010000
00000000
,  // measure 79
00001000
00100000
00010000
00000000
,  // measure 80
01000000
00100000
10000000
01000000
,  // measure 81
00100000
00010000
00100000
00000000
,  // measure 82
01000000
10000000
00100000
00010000
,  // measure 83
00100000
10000000
01000000
10000000
,  // measure 84
00100000
00010000
00001000
00000010
,  // measure 85
00000001
00000100
00000001
00000010
,  // measure 86
00000100
00001000
00000010
00000100
,  // measure 87
00000001
00000010
00001000
00010000
,  // measure 88
00100000
10000000
01000000
10000000
,  // measure 89
00100000
01000000
00010000
00100000
,  // measure 90
00002000
00000000
00000000
00000000
,  // measure 91
00000000
00000000
00000000
00000000
,  // measure 92
00003000
00000000
00000000
00000000
;
