#TITLE:リトルバスターズ!;
#SUBTITLE:;
#ARTIST:理多;
#TITLETRANSLIT:Little Busters!;
#SUBTITLETRANSLIT:;
#ARTISTTRANSLIT:Rita;
#GENRE:;
#CREDIT:;
#MENUCOLOR:;
#METERTYPE:DDR;
#BANNER:Little Busters!.png;
#BACKGROUND:Little Busters!-bg.png;
#LYRICSPATH:;
#CDTITLE:cdtitle.png;
#MUSIC:Little Busters!.mp3;
#OFFSET:-0.025;
#SAMPLESTART:65.160;
#SAMPLELENGTH:15.000;
#SELECTABLE:YES;
#LISTSORT:;
#BPMS:0.000=151.000;
#STOPS:;
#BGCHANGES:0.000=Little Busters!.avi=1.000=1=0=0,
99999=-nosongbg-=1.000=0=0=0 // don't automatically add -songbackground-
;
#ATTACKS:;

//---------------dance-single - ----------------
#NOTES:
     dance-single:
     :
     Hard:
     10:
     0.495,0.513,0.193,0.092,0.063:
0000
0000
0000
0000
,
0000
0000
0000
0000
,
0000
0000
0000
0000
,
0000
0000
0000
0000
,
0000
0000
0000
0000
,
0000
0000
0000
0000
,
0000
0000
0000
0000
,
0000
0000
0000
0000
,
0000
0000
0000
0000
,
0100
0000
0100
0000
0001
0100
0001
0100
,
0001
0010
0100
0000
1000
0100
0010
0001
,
0100
0000
0100
0000
0010
1000
0010
1000
,
0100
1000
0100
0000
0010
0001
0100
0010
,
1000
0000
1000
0000
0001
0010
0100
1000
,
0100
0010
0001
0000
0100
0010
1000
0000
,
0010
0000
0010
0000
0100
0001
0010
0100
,
1000
0100
0010
0000
0001
0100
0010
0000
,
1000
0100
1000
0000
0001
0010
0100
1000
,
0100
0010
0001
0000
0100
0010
1000
0000
,
0001
0100
0001
0000
1000
0100
0010
0100
,
1000
0001
0100
0000
0010
0100
0001
0000
,
0010
0100
1000
0000
0010
0100
0001
0010
,
0100
1000
0100
0000
0001
0100
1000
0000
,
0100
0010
1000
0000
0100
0001
0100
0010
,
0100
1000
0100
0000
0010
0001
0100
0010
,
0010
1000
0001
0010
0000
0100
1000
0100
,
0010
0001
0000
0100
0010
1000
0100
0001
,
0100
0000
0100
1000
0100
0010
0000
0001
,
0100
0001
0000
1000
0100
1000
0001
0100
,
0010
0001
1000
0100
0000
0100
0001
0100
,
0010
1000
0000
0100
0010
0001
0100
1000
,
0100
0000
0100
0001
0100
0010
0000
1000
,
0100
1000
0000
0001
0100
0001
1000
0100
,
0110
0000
0110
0000
0110
0000
0000
1001
,
0000
0001
0100
1000
0100
0001
1000
0100
,
0110
0000
0110
0000
0110
0000
0000
1001
,
0000
0100
0001
0100
1000
0100
0010
1000
,
0001
0100
0100
0000
0010
1000
0100
0010
,
0001
0100
0100
0000
0001
0010
0100
1000
,
0001
0000
0000
1000
0000
0000
0100
0000
0010
0000
0000
0001
0000
0000
1000
0001
,
1000
0000
0000
0100
0000
0000
2000
0000
0000
0000
0000
0000
3000
0000
0000
0000
,
1000
0100
0000
0001
0100
0000
1000
0010
,
0000
0001
0010
0000
1000
0100
0000
0001
,
0100
0000
1000
0010
0000
0001
0010
0000
,
0110
2002
0000
0000
,
3003
0001
0100
1000
0010
0001
0000
0000
,
1001
0000
1000
0100
0010
0000
0001
0100
,
1000
0100
0001
0020
0000
0130
1000
0200
,
0000
1000
1300
0000
0001
0100
0000
1000
,
0100
0000
0001
0010
0000
1000
0010
0000
,
0001
0100
0000
1000
0100
0000
0001
0010
,
0000
1000
0010
0000
0110
0000
2002
0000
,
0000
0000
0000
0000
3003
1000
0100
0001
,
0010
1000
0000
0000
1001
0000
0001
0100
,
0010
0000
1000
0100
0001
0100
1000
0010
,
0200
0000
0301
0200
0000
0001
0301
0000
,
1000
0000
0000
0100
0000
0000
0001
0000
0100
0000
0000
1000
0000
0000
0010
0000
,
0100
0000
0000
0001
0000
0000
1000
0000
0100
0000
1000
0000
0100
0000
1000
0000
,
0001
0000
0000
0100
0000
0000
1000
0000
0100
0000
0000
0001
0000
0000
0010
0000
,
0100
0000
0000
1000
0000
0000
0001
0000
0100
0000
0001
0000
0100
0000
0001
0000
,
1000
0000
0000
0010
0000
0000
0001
0000
0010
0000
0000
1000
0000
0000
0100
0000
,
0010
0000
0000
0001
0000
0000
1000
0000
0010
0000
1000
0000
0010
0000
1000
0000
,
0001
0000
0000
0010
0000
0000
1000
0000
0010
0000
0000
0001
0000
0000
0100
0000
,
0020
0000
0200
0330
,
1001
0000
1001
0000
0010
1000
0100
0010
,
0001
0100
0010
0100
0001
0010
0100
0000
,
0110
0000
0110
0000
0100
1000
0100
0010
,
0001
0100
0010
1000
0001
0100
0010
0000
,
1001
0000
1001
0000
0010
1000
0100
0001
,
0100
1000
0010
0100
0001
0010
0100
0000
,
0110
0000
0110
0000
0100
0001
0100
0010
,
1000
0010
0001
0100
0010
1000
0100
0000
,
1001
0000
0000
0000
;

//---------------dance-single - ----------------
#NOTES:
     dance-single:
     :
     Medium:
     8:
     0.375,0.362,0.084,0.168,0.013:
0000
0000
0000
0000
,
0000
0000
0000
0000
,
0000
0000
0000
0000
,
0000
0000
0000
0000
,
0000
0000
0000
0000
,
0000
0000
0000
0000
,
0000
0000
0000
0000
,
0000
0000
0000
0000
,
0000
0000
0000
0000
,
1000
0000
0001
0000
1000
0100
0010
0000
,
0001
0010
0100
0000
1000
0000
0001
0000
,
0100
0000
0010
0000
1000
0010
0100
0000
,
0001
0100
0010
0000
1000
0000
0100
0000
,
0010
0000
0001
0000
1000
0100
0010
0000
,
0001
0100
0010
0000
1000
0000
0001
0000
,
1000
0000
0010
0000
0100
0001
0010
0000
,
0100
1000
0010
0000
0100
0000
0001
0000
,
2000
0010
0100
3010
,
0002
0010
0100
0013
,
2000
0100
0010
3100
,
0002
0010
0100
0013
,
0200
0010
1000
0301
,
0020
0100
1000
0031
,
2000
3100
0002
0013
,
2000
3010
0002
0103
,
1000
0100
0010
0100
,
1000
0001
0100
0010
,
0100
0000
0001
0100
0010
0100
0001
0000
,
1000
0100
0010
0000
0100
0000
1000
0000
,
0001
0010
0100
1000
,
0010
1000
0100
0010
,
0001
0000
0100
0010
1000
0010
0100
0000
,
0001
0010
0100
0000
1000
0000
0001
0000
,
1100
0110
0011
0000
,
1000
0000
0001
0000
0100
0010
0100
0000
,
0011
0110
1100
0000
,
0001
0000
0100
0000
0010
1000
0100
0000
,
0010
0000
0001
0000
0100
0001
0010
0000
,
0100
1000
0010
0000
0100
0000
0001
0000
,
1000
0000
0000
1000
0000
0000
1000
0000
0001
0000
0000
0001
0000
0000
0001
0000
,
1000
0000
0000
1000
0000
0000
2000
0000
0000
0000
0000
0000
3000
0000
0000
0000
,
0001
0100
0000
0001
0010
0000
0001
0100
,
0000
0001
0010
0000
0100
1000
0000
0100
,
0010
0000
0100
1000
0000
0100
0010
0000
,
0001
2002
0000
3003
,
0000
0001
0100
0000
0001
0020
0000
0000
,
0130
0000
0000
1000
0100
0000
0010
0000
,
0001
0100
0001
0000
1000
0000
0100
0000
,
0010
0000
1001
0000
1000
0100
0000
1000
,
0010
0000
1000
0100
0000
1000
0010
0000
,
1000
0100
0000
0010
0001
0000
0010
0100
,
0000
0010
0001
0000
1000
0000
2002
0000
,
0000
0000
3003
0000
0000
0001
0100
0000
,
0010
0200
0000
0000
0310
0000
0000
1000
,
0100
0000
0010
0000
0100
1000
0001
0000
,
0100
0000
0010
0200
0000
0000
0300
0000
,
0001
0001
1000
1000
,
0001
0000
0001
0000
1000
0001
1000
0001
,
1000
1000
0001
0001
,
1000
0000
1000
0000
0001
1000
0001
1000
,
0001
0001
1000
1000
,
0001
0000
0001
0000
1000
0001
1000
0001
,
1000
1000
0001
0001
,
2000
0000
3002
0000
,
1003
0000
0100
0000
0010
0100
1000
0000
,
0001
0100
0010
1000
,
0100
0000
0010
0000
0100
1000
0001
0000
,
0100
0010
0100
0001
,
0010
0000
0100
0000
1000
0100
0010
0000
,
0001
0100
0010
1000
,
0001
0000
0010
0000
0001
0100
0010
0000
,
0100
0001
1000
0100
,
1001
0000
0000
0000
;

//---------------dance-single - ----------------
#NOTES:
     dance-single:
     :
     Easy:
     6:
     0.308,0.332,0.042,0.050,0.000:
0000
0000
0000
0000
,
0000
0000
0000
0000
,
0000
0000
0000
0000
,
0000
0000
0000
0000
,
0000
0000
0000
0000
,
0000
0000
0000
0000
,
0000
0000
0000
0000
,
0000
0000
0000
0000
,
0000
0000
0000
0000
,
1000
1000
1000
1000
,
0100
0010
0001
0100
,
0001
0001
0001
0001
,
0010
0100
1000
0001
,
1000
1000
1000
1000
,
0010
0100
0001
1000
,
0001
0001
0001
0001
,
0100
0010
1000
0001
,
0010
0100
1000
0001
,
0100
0000
0010
0000
0100
0010
0000
0000
,
0100
0001
1000
0100
,
0010
0000
0001
0000
1000
0100
0000
0000
,
0010
0100
1000
0001
,
0100
0000
0010
0000
1000
0001
0000
0000
,
0100
1000
0100
0010
,
1000
0100
0001
0100
,
0010
0001
0100
0100
,
0010
0000
1000
0000
0100
0010
0100
0000
,
1000
0010
0100
0001
,
1000
0100
1000
0001
,
0010
0100
1000
1000
,
0010
0000
0100
0000
0001
0100
0001
0000
,
1000
0100
1000
0010
,
0100
0100
0001
0010
,
0100
0100
0110
0000
,
1000
0100
0010
0001
,
0100
0100
0110
0000
,
1000
0100
0010
0010
,
0100
1000
0001
1000
,
0001
0100
0010
0000
,
0100
0001
0100
0001
,
1000
0100
1000
0000
0001
0000
0000
0000
,
1000
0000
0000
1000
0100
0000
0100
0000
,
0000
0100
0010
0000
0010
0000
0000
0010
,
0001
0000
0001
0000
0000
0001
0100
0000
,
0010
2002
0000
3003
,
0000
1000
0100
0001
,
0100
1000
0010
0100
,
0001
1000
0001
0000
0010
0000
0100
0000
,
1000
0000
1000
0000
0001
0000
0000
0001
,
0100
0000
0100
0000
0000
0100
0010
0000
,
0010
0000
0000
0010
1000
0000
1000
0000
,
0000
1000
0100
0000
0010
0000
2002
0000
,
0000
3003
0000
0001
,
0100
1000
0100
0010
,
1000
0000
0001
0000
0010
0100
0010
0000
,
0001
0100
0010
0000
,
1000
0001
1000
0001
,
0010
0100
0010
0000
,
1000
0001
1000
0001
,
0100
0010
0100
0000
,
0001
1000
0001
1000
,
0001
0010
0100
0000
,
1000
0100
0010
0001
,
0020
0030
0200
0300
,
1000
1000
0010
0010
,
0100
0000
0001
0000
0010
0100
0010
0000
,
0001
0001
0100
0100
,
0010
0000
1000
0000
0001
0010
0001
0000
,
1000
1000
0100
0100
,
0010
0000
0001
0000
0100
0010
0100
0000
,
0001
0001
0010
0010
,
0100
0000
1000
0000
0010
0100
0010
0000
,
1001
0000
0000
0000
;

//---------------dance-single - ----------------
#NOTES:
     dance-single:
     :
     Beginner:
     4:
     0.186,0.211,0.017,0.000,0.000:
0000
0000
0000
0000
,
0000
0000
0000
0000
,
0000
0000
0000
0000
,
0000
0000
0000
0000
,
0000
0000
0000
0000
,
0000
0000
0000
0000
,
0000
0000
0000
0000
,
0000
0000
0000
0000
,
0000
0000
0000
0000
,
1000
1000
1000
0000
,
0001
0000
0001
0000
,
0100
0100
0100
0000
,
0010
0000
0010
0000
,
1000
1000
1000
0000
,
0100
0000
0100
0000
,
0010
0010
0010
0000
,
0001
0000
0001
0000
,
0100
0100
0010
0000
,
0100
0000
0010
0000
,
0100
0100
0001
0000
,
0100
0000
0001
0000
,
0100
0100
1000
0000
,
0100
0000
1000
0000
,
0010
0010
1000
0000
,
0010
0000
0100
0000
,
0001
0000
0001
0000
,
1000
0000
1000
0000
,
0100
0100
0100
0000
,
0100
0000
0000
0000
,
0010
0000
0010
0000
,
0100
0000
0100
0000
,
1000
1000
1000
0000
,
1000
0000
0000
0000
,
0001
0001
0001
0000
,
0100
0000
0100
0000
,
0010
0010
0010
0000
,
1000
0000
1000
0000
,
0001
0000
1000
0000
,
0001
0000
1000
0000
,
0010
0010
0010
0000
,
0100
0100
0100
0000
,
1000
0000
0000
1000
0000
0000
0100
0000
,
0000
0100
0000
0000
0010
0000
0000
0010
,
0000
0000
0001
0000
0000
0001
0000
0000
,
1000
1000
0000
0000
,
0000
0001
0001
0000
,
0001
0000
0100
0000
,
0100
0000
0010
0010
,
0010
0000
0000
0000
1000
0000
0000
1000
,
0000
0000
0001
0000
0000
0001
0000
0000
,
0100
0000
0000
0100
0000
0000
0010
0000
,
0000
0010
0000
0000
1000
0000
1000
0000
,
0000
0000
0000
0001
,
0001
0000
0100
0000
,
0010
0010
0010
0000
,
0100
0100
0100
0000
,
0001
0000
1000
0000
,
0001
0001
0001
0000
,
1000
0000
0001
0000
,
1000
1000
1000
0000
,
0010
0000
0100
0000
,
0010
0010
0010
0000
,
0100
0000
0010
0000
,
0100
0000
0110
0000
,
1000
0000
1000
0000
,
1000
1000
1000
0000
,
0100
0000
0100
0000
,
0100
0100
0100
0000
,
0010
0000
0010
0000
,
0010
0010
0010
0000
,
0001
0000
0001
0000
,
0001
0001
0001
0000
,
1001
0000
0000
0000
;

//---------------dance-double - ----------------
#NOTES:
     dance-double:
     :
     Hard:
     13:
     0.555,0.664,0.235,0.084,0.134:
00000000
00000000
00000000
00000000
,
00000000
00000000
00000000
00000000
,
00000000
00000000
00000000
00000000
,
00000000
00000000
00000000
00000000
,
00000000
00000000
00000000
00000000
,
00000000
00000000
00000000
00000000
,
00000000
00000000
00000000
00000000
,
00000000
00000000
00000000
00000000
,
00000000
00000000
00000000
00000000
00000000
00000000
00000000
00000001
,
00000101
00000000
00000101
00000000
00000100
00000010
00001000
00000100
,
00010000
00001000
00100000
00010000
01000000
10000000
01000000
00000000
,
01010000
00000000
01010000
00000000
10000000
01000000
00010000
00001000
,
00000010
00000100
00010000
00001000
00000100
00000001
00000010
00000000
,
00001001
00000000
00001001
00000000
00000001
00000100
00000010
00001000
,
00010000
01000000
00100000
10000000
01000000
00100000
00010000
00000000
,
11000000
00000000
11000000
00000000
01000000
00100000
00001000
00010000
,
00000100
00000010
00001000
00000010
00000001
00000100
00000010
00000000
,
00000100
00000001
00000100
00000000
00000010
00001000
00000100
00010000
,
00001000
00010000
00001000
01000000
00100000
10000000
01000000
00000000
,
00100000
01000000
10000000
00000000
01000000
00010000
00001000
00000100
,
00000010
00001000
00010000
01000000
00100000
10000000
01000000
00000000
,
00010000
00001000
00000100
00000000
00000001
00000010
00000001
00000100
,
00001000
00010000
00100000
00010000
00001000
00010000
01000000
00000000
,
10000000
00100000
01000000
00000000
00010000
00100000
00001000
00000000
,
00010000
00000100
00001000
00000010
00000100
00000001
00000010
00001000
,
00010000
01000000
10000000
00100000
00000000
10000000
01000000
00010000
,
00001000
00000100
00000000
00000001
00001000
00000001
00000000
00000010
,
00001000
00000000
00010000
01000000
10000000
01000000
00000000
00100000
,
00000000
00010000
01000000
00000000
10000000
01000000
00001000
00010000
,
00000100
00000010
00000001
00000100
00000000
00010000
00000100
00000010
,
00010000
00001000
00000000
01000000
00010000
00100000
00000000
10000000
,
00100000
00000000
00001000
00010000
00000100
00001000
00000000
01000000
,
00000000
20000000
00000000
00000000
00000000
00000000
30100000
00000000
,
01010000
00000000
00011000
00000000
00001100
00000000
00000000
00000100
,
00000010
00000001
00000000
00000100
00000010
00001000
00000000
00000010
,
00001010
00011000
00110000
00000000
,
00100000
01000000
10000000
01000000
00010000
00002000
00000000
00000000
,
00003100
00000000
00000010
00000000
00001000
00000100
00010000
00001000
,
00100000
00010000
01000000
00000000
00100000
10000000
01000000
00010000
,
00001000
00000000
00000000
00010000
00000000
00000000
01000000
00000000
10000000
00000000
00000000
00100000
00000000
00000000
00010000
00001000
,
00010000
00000000
00000000
00001000
00000000
00000000
00000100
00000000
00000000
00000000
00000000
00000000
00000000
00000000
00000000
00000000
,
00000001
00000010
00000001
00000000
00001000
00000000
00000010
00000100
00000010
00000000
00001000
00000000
00000100
00010000
00000100
00000000
,
00001000
00000000
01000000
00010000
01000000
00000000
10000000
00000000
00100000
01000000
00100000
00000000
10000000
00000000
00010000
00100000
,
00010000
00000000
01000000
00000000
00001000
00010000
00001000
00000000
00000100
00000000
00000010
00001000
00000010
00000000
00000100
00000000
,
00000001
00002002
00000000
00003003
,
00000000
00000100
00001000
01000000
00001000
00000200
00000000
00000300
,
00001001
00000000
00000000
00000001
00000010
00000100
00001000
00010000
,
00100000
01000000
10000000
01000000
00100000
00010000
00001000
00010000
,
00100000
00000000
00000000
00000000
01100000
00000000
00000000
00000000
10000000
01000000
10000000
00000000
00010000
00000000
01000000
00100000
,
01000000
00000000
00010000
00000000
00100000
00001000
00100000
00000000
00010000
00000000
00000010
00001000
00000010
00000000
00000001
00000000
,
00000100
00000010
00000100
00000000
00000001
00000000
00001000
00000100
00001000
00000000
00000010
00000000
00010000
00001000
00010000
00000000
,
00100000
00000000
01000000
00010000
01000000
00000000
00100000
00000000
10000000
00000000
00000000
00000000
20020000
00000000
00000000
00000000
,
00000000
00000000
30030000
00000000
00000000
00100000
00010000
00000010
,
00010000
00200000
00000000
00300000
10010000
00000000
00000000
10000000
,
01000000
00100000
00010000
00001000
00000100
00000010
00000001
00000010
,
00000100
00001000
00010000
00001000
00000100
00000000
00000110
00000000
,
00000001
00000000
00000000
00000001
00000100
00000000
00000010
00000000
00001000
00000000
00000000
00000100
00010000
00000000
00001000
00000000
,
00001000
00000000
00000000
00010000
01000000
00000000
10000000
00000000
00100000
00000000
00010000
00000000
00000010
00000000
00001000
00000000
,
00100000
00000000
00000000
00100000
10000000
00000000
00010000
00000000
00100000
00000000
00000000
00001000
00010000
00000000
00000100
00000000
,
00000100
00000000
00000000
00000010
00000001
00000000
00000100
00000000
00000010
00000000
00001000
00000000
00100000
00000000
00010000
00000000
,
00000010
00000000
00000000
00000010
00001000
00000000
00000100
00000000
00010000
00000000
00000000
00001000
01000000
00000000
00010000
00000000
,
00010000
00000000
00000000
10000000
01000000
00000000
00100000
00000000
01000000
00000000
00001000
00000000
00000100
00000000
00010000
00000000
,
01000000
00000000
00000000
01000000
00100000
00000000
00010000
00000000
00001000
00000000
00000000
00000100
00000010
00000000
00000001
00000100
,
00002000
01003000
00020000
00030100
,
00011000
00000000
00011000
00000000
00001000
01000000
10000000
01000000
,
00010000
00000100
00000001
00000100
00010000
00001000
00100000
01000000
,
01100000
00000000
01100000
00000000
00100000
10000000
01000000
00001000
,
00010000
00000010
00000001
00000100
00010000
00000100
00000010
00001000
,
00001100
00000000
00001100
00000000
00000100
00010000
01000000
00001000
,
00000100
00010000
00000010
00001000
00100000
00010000
00001000
01000000
,
01100000
00000000
01100000
00000000
00100000
10000000
01000000
00001000
,
00000100
00000010
00001000
00100000
10000000
00100000
00001000
00000010
,
00000001
00000000
00000000
00000000
;

//---------------dance-couple - ----------------
#NOTES:
     dance-couple:
     :
     Edit:
     1:
     0.000,0.000,0.000,0.000,0.000: // measure 1
00000000
00000000
00000000
00000000
,  // measure 2
00000000
00000000
00000000
00000000
,  // measure 3
00000000
00000000
00000000
00000000
,  // measure 4
00000000
00000000
00000000
00000000
,  // measure 5
00000000
00000000
00000000
00000000
,  // measure 6
00000000
00000000
00000000
00000000
,  // measure 7
00000000
00000000
00000000
00000000
,  // measure 8
00000000
00000000
00000000
00000000
,  // measure 9
00000000
00000000
00000000
00000000
,  // measure 10
00000000
00000000
00000000
00000000
,  // measure 11
00000000
00000000
00000000
00000000
,  // measure 12
00000000
00000000
00000000
00000000
,  // measure 13
00000000
00000000
00000000
00000000
,  // measure 14
00000000
00000000
00000000
00000000
,  // measure 15
00000000
00000000
00000000
00000000
,  // measure 16
00000000
00000000
00000000
00000000
,  // measure 17
00000000
00000000
00000000
00000000
,  // measure 18
00000000
00000000
00000000
00000000
,  // measure 19
00000000
00000000
00000000
00000000
,  // measure 20
00000000
00000000
00000000
00000000
,  // measure 21
00000000
00000000
00000000
00000000
,  // measure 22
00000000
00000000
00000000
00000000
,  // measure 23
00000000
00000000
00000000
00000000
,  // measure 24
00000000
00000000
00000000
00000000
,  // measure 25
00000000
00000000
00000000
00000000
,  // measure 26
00000000
00000000
00000000
00000000
,  // measure 27
00000000
00000000
00000000
00000000
,  // measure 28
00000000
00000000
00000000
00000000
,  // measure 29
00000000
00000000
00000000
00000000
,  // measure 30
00000000
00000000
00000000
00000000
,  // measure 31
00000000
00000000
00000000
00000000
,  // measure 32
00000000
00000000
00000000
00000000
,  // measure 33
00000000
00000000
00000000
00000000
,  // measure 34
00000000
00000000
00000000
00000000
,  // measure 35
00000000
00000000
00000000
00000000
,  // measure 36
00000000
00000000
00000000
00000000
,  // measure 37
00000000
00000000
00000000
00000000
,  // measure 38
00000000
00000000
00000000
00000000
,  // measure 39
00000000
00000000
00000000
00000000
,  // measure 40
00000000
00000000
00000000
00000000
,  // measure 41
00000000
00000000
00000000
00000000
,  // measure 42
00000000
00000000
00000000
00000000
,  // measure 43
00000000
00000000
00000000
00000000
,  // measure 44
00000000
00000000
00000000
00000000
,  // measure 45
00000000
00000000
00000000
00000000
,  // measure 46
00000000
00000000
00000000
00000000
,  // measure 47
00000000
00000000
00000000
00000000
,  // measure 48
00000000
00000000
00000000
00000000
,  // measure 49
00000000
00000000
00000000
00000000
,  // measure 50
00000000
00000000
00000000
00000000
,  // measure 51
00000000
00000000
00000000
00000000
,  // measure 52
00000000
00000000
00000000
00000000
,  // measure 53
00000000
00000000
00000000
00000000
,  // measure 54
00000000
00000000
00000000
00000000
,  // measure 55
00000000
00000000
00000000
00000000
,  // measure 56
00000000
00000000
00000000
00000000
,  // measure 57
00000000
00000000
00000000
00000000
,  // measure 58
00000000
00000000
00000000
00000000
,  // measure 59
00000000
00000000
00000000
00000000
,  // measure 60
00000000
00000000
00000000
00000000
,  // measure 61
00000000
00000000
00000000
00000000
,  // measure 62
00000000
00000000
00000000
00000000
,  // measure 63
00000000
00000000
00000000
00000000
,  // measure 64
00000000
00000000
00000000
00000000
,  // measure 65
00000000
00000000
00000000
00000000
,  // measure 66
00000000
00000000
00000000
00000000
,  // measure 67
00000000
00000000
00000000
00000000
,  // measure 68
00000000
00000000
00000000
00000000
,  // measure 69
00000000
00000000
00000000
00000000
,  // measure 70
00000000
00000000
00000000
00000000
,  // measure 71
00000000
00000000
00000000
00000000
,  // measure 72
00000000
00000000
00000000
00000000
,  // measure 73
00000000
00000000
00000000
00000000
,  // measure 74
MMMM0000
00000000
00000000
00000000
;

//---------------dance-double - ----------------
#NOTES:
     dance-double:
     :
     Medium:
     10:
     0.435,0.453,0.101,0.092,0.059:
00000000
00000000
00000000
00000000
,
00000000
00000000
00000000
00000000
,
00000000
00000000
00000000
00000000
,
00000000
00000000
00000000
00000000
,
00000000
00000000
00000000
00000000
,
00000000
00000000
00000000
00000000
,
00000000
00000000
00000000
00000000
,
00000000
00000000
00000000
00000000
,
00000000
00000000
00000000
00000000
,
00010000
00000000
00001000
00000000
01000000
00001000
01000000
00000000
,
00010000
01000000
00010000
00000000
10000000
01000000
10000000
00000000
,
01000000
00000000
00100000
00000000
00001000
00100000
00001000
00000000
,
00010000
00000100
00010000
00000000
00001000
00000010
00001000
00000000
,
00000001
00000000
00000100
00000000
00000010
00010000
00000010
00000000
,
00001000
00000100
00001000
00000000
00000010
00010000
00001000
00000000
,
01000000
00000000
00010000
00000000
00100000
00010000
00100000
00000000
,
01000000
10000000
00010000
01000000
00100000
00010000
00001000
00000000
,
00010000
00000000
00010100
00000000
00000100
00000010
00000001
00000000
,
00000100
00000010
00001000
00000000
00000100
00010000
00001000
01000000
,
01010000
00000000
00010000
00000000
00100000
01000000
10000000
00000000
,
01000000
00010000
00001000
00000100
00000010
00001000
00000001
00000000
,
00000011
00000000
00000010
00000000
00000100
00010000
00001000
00000000
,
01000000
00010000
00100000
00001000
00010000
00000010
00001000
00000000
,
00001010
00000000
00000010
00000000
00000100
00001000
00010000
01000000
,
10000000
00100000
10000000
00010000
00100000
01000000
10000000
00000000
,
01000000
00010000
00001000
00000100
00000000
00000010
00001000
00000000
,
00000100
00000010
00000001
00000000
00000100
00001000
00010000
00000000
,
01000000
00000000
10000000
00100000
10000000
01000000
00000000
00010000
,
00000000
00001000
00000000
00000100
00000010
00000000
00000100
00000000
,
00000001
00000010
00000100
00001000
00000000
00000100
00010000
00001000
,
01000000
00010000
00000000
00100000
01000000
10000000
00000000
01000000
,
00100000
00000000
00001000
00000000
00010000
00000100
00000000
00001000
,
00000000
00000020
00000000
00000000
00000000
00000000
00000130
00000000
,
00000101
00000000
00001100
00000000
00011000
00000000
00000000
00001000
,
01000000
00001000
00000000
00100000
00010000
01000000
00000000
00100000
,
10100000
00110000
00011000
00000000
,
00001000
00010000
00001000
00000100
00000010
00001000
00000000
00000000
,
00000001
00000000
00000010
00000000
00000100
00010000
00001000
00000000
,
01000000
00000000
00010000
00000000
00100000
01000000
10000000
00000000
,
01000000
00000000
00000000
01000000
00000000
00000000
01000000
00000000
00010000
00000000
00000000
00010000
00000000
00000000
00010000
00000000
,
00001000
00000000
00000000
00001000
00000000
00000000
00002000
00000000
00000000
00000000
00000000
00000000
00003000
00000000
00000000
00000000
,
00000100
00000001
00000000
00000010
00001000
00000000
00010000
01000000
,
00000000
10000000
00100000
00000000
00010000
00001000
00000000
00000100
,
00000001
00000000
00000010
00001000
00000000
00010000
01000000
00000000
,
10000000
20020000
00000000
30030000
,
00000000
10000000
00010000
00001000
00000001
00002000
00000000
00000000
,
00003001
00000000
00000100
00000010
00001000
00000000
00000100
00000000
,
00010000
00001000
00100000
00010000
00000000
01000000
00100000
02000000
,
00000000
00000000
03010000
00000000
10000000
01000000
00000000
00010000
,
00001000
00000000
00000100
00000001
00000000
00000010
00001000
00000000
,
00010000
01000000
00000000
10000000
00100000
00000000
00010000
00001000
,
00000000
00000010
00000001
00000000
00000100
00000000
00000220
00000000
,
00000000
00000000
00000330
00000000
00000000
00000001
00001000
00010000
,
10000000
00020000
00000000
00000000
10030000
00000000
01000000
00100000
,
00010000
00000000
01000000
00001000
00010000
00001000
00000100
00000001
,
00000010
00000000
00000100
00001000
00000000
00000010
00000100
00000000
,
00000001
00000000
00000000
00000100
00000000
00000000
00001000
00000000
00010000
00000000
00000000
01000000
00000000
00000000
10000000
00000000
,
00100000
00000000
00000000
00010000
00000000
00000000
00001000
00000000
00000100
00000000
00000001
00000000
00000100
00000000
00000001
00000000
,
00000010
00000000
00000000
00001000
00000000
00000000
00010000
00000000
01000000
00000000
00000000
10000000
00000000
00000000
00100000
00000000
,
00010000
00000000
00000000
00001000
00000000
00000000
00000100
00000000
00000001
00000000
00000010
00000000
00000001
00000000
00000010
00000000
,
00001000
00000000
00000000
00010000
00000000
00000000
00100000
00000000
10000000
00000000
00000000
01000000
00000000
00000000
00010000
00000000
,
00001000
00000000
00000000
00000100
00000000
00000000
00000001
00000000
00000010
00000000
00000100
00000000
00000010
00000000
00000100
00000000
,
00000010
00000000
00000000
00000001
00000000
00000000
00000100
00000000
00001000
00000000
00000000
00010000
00000000
00000000
01000000
00000000
,
20000000
00000000
30020000
00000000
,
01030000
00000000
00100000
00000000
10000000
01000000
00100000
01000000
,
10000000
00000000
00010000
01000000
00000000
00001000
00010000
00000000
,
00000100
00000000
00001000
00000000
00000010
00000100
00000001
00000100
,
00000010
00000000
00001000
00000100
00000000
00010000
00001000
00000000
,
00100000
00000000
00010000
00000000
01000000
00100000
10000000
00100000
,
01000000
00000000
00010000
00100000
00000000
00001000
00010000
00000000
,
00000100
00000000
00000010
00000000
00000001
00000100
00001000
00000100
,
00000001
00000000
00000010
00001000
00000000
00010000
01000000
00000000
,
10000000
00000000
00000000
00000000
;

//---------------dance-double - ----------------
#NOTES:
     dance-double:
     :
     Easy:
     7:
     0.349,0.362,0.008,0.034,0.000:
00000000
00000000
00000000
00000000
,
00000000
00000000
00000000
00000000
,
00000000
00000000
00000000
00000000
,
00000000
00000000
00000000
00000000
,
00000000
00000000
00000000
00000000
,
00000000
00000000
00000000
00000000
,
00000000
00000000
00000000
00000000
,
00000000
00000000
00000000
00000000
,
00000000
00000000
00000000
00000000
,
10000000
01000000
00100000
00010000
,
00100000
01000000
10000000
01000000
,
00010000
00001000
00000100
00000001
,
00000010
00000000
00000001
00000000
00000100
00000010
00000100
00000000
,
00000001
00000010
00001000
00010000
,
01000000
10000000
00100000
01000000
,
00010000
00100000
01000000
00010000
,
00001000
00000000
00000100
00000000
00000010
00001000
00000010
00000000
,
00000100
00000000
00000001
00000000
00000010
00000100
00000010
00000000
,
00000001
00000100
00001000
00010000
,
01000000
00000000
10000000
00000000
00100000
01000000
00100000
00000000
,
10000000
01000000
00010000
00001000
,
00000100
00000000
00000001
00000000
00000010
00000100
00000010
00000000
,
00000001
00000100
00001000
00010000
,
00100000
00000000
10000000
00000000
01000000
00100000
01000000
00000000
,
10000000
00100000
00010000
00001000
,
00000010
00000001
00000010
00000000
00000100
00000000
00010000
00000000
,
00001000
01000000
00010000
00100000
,
01000000
10000000
01000000
00000000
00100000
00000000
00001000
00000000
,
00010000
00000000
00000100
00000000
00001000
00000010
00001000
00000000
,
00000001
00000010
00000001
00000000
00000100
00000000
00000010
00000000
,
00001000
00000100
00010000
00001000
,
01000000
00010000
01000000
00000000
00100000
10000000
01000000
00000000
,
00100000
00010000
01000000
00001000
,
00010000
00000000
00010000
00000000
00010000
00000000
00010000
00000100
,
00000000
00000100
00001000
00000000
00001000
00000010
00000000
00000010
,
00000100
00000000
00000100
00000000
00000100
00000000
00000100
00000001
,
00001000
00000000
00000100
00010000
00000000
00001000
01000000
00000000
,
00010000
10000000
01000000
00010000
,
00001000
00000000
00000100
00000000
00000001
00000000
00000010
00000100
,
00001000
00000000
00000100
00000000
00010000
00000000
00001000
01000000
,
00010000
00000000
00100000
00000000
01000000
10000000
01000000
10000000
,
00100000
01000000
00000000
01000000
00010000
00000000
00010000
10000000
,
00000000
10000000
01000000
00000000
01000000
00010000
00000000
00010000
,
00001000
00000000
00001000
00000100
00000000
00000100
00000001
00000000
,
00001000
00000002
00000000
00000000
,
00000003
00000100
00000001
00000010
00000001
00000100
00000000
00000000
,
00000010
00001000
00000100
00010000
,
00001000
01000000
00001000
00000000
00010000
00000000
01000000
00000000
,
10000000
00000000
00100000
00000000
10000000
01000000
00000000
01000000
,
00010000
00000000
00010000
00001000
00000000
00001000
00000100
00000000
,
00000100
00000001
00000000
00000001
00000100
00000000
00000100
00001000
,
00000000
00001000
00010000
00000000
01000000
00000000
20000000
00000000
,
00000000
00000000
00000000
00000000
30000000
01000000
10000000
00100000
,
10000000
01000000
00000000
00000000
00100000
00000000
00010000
01000000
,
00001000
00000000
00010000
00000000
00000100
00001000
00000100
00000000
,
00001000
00000000
00000010
00000000
00000100
00000001
00000100
00000000
,
00000001
00000010
00000100
00001000
,
00000001
00000100
00001000
00010000
,
01000000
10000000
00010000
00100000
,
01000000
10000000
00100000
01000000
,
00100000
10000000
01000000
00010000
,
00001000
00000100
00000001
00000010
,
00000100
00000000
00001000
00000000
00000001
00000000
00000100
00000010
,
00000200
00000000
00000302
00000000
,
00001003
00000000
00000100
00000000
00010000
00001000
00010000
00000000
,
00001000
01000000
00010000
00100000
,
01000000
00000000
10000000
00000000
00010000
01000000
00010000
00000000
,
00100000
00001000
00010000
00000100
,
00001000
00000000
00000010
00000000
00000100
00000001
00000100
00000000
,
00000010
00010000
00001000
00100000
,
00010000
00000000
01000000
00000000
00100000
10000000
01000000
00000000
,
00010000
00001000
00000100
00000001
,
00001001
00000000
00000000
00000000
;
