#TITLE:L'erisia (Primal Logic);
#SUBTITLE:;
#ARTIST:Zektbach;
#TITLETRANSLIT:;
#SUBTITLETRANSLIT:;
#ARTISTTRANSLIT:;
#GENRE:;
#CREDIT:;
#MENUCOLOR:;
#METERTYPE:DDR;
#BANNER:L'erisia (Primal Logic).png;
#BACKGROUND:L'erisia (Primal Logic)-bg.png;
#LYRICSPATH:;
#CDTITLE:cdtitle.png;
#MUSIC:L'erisia (Primal Logic).mp3;
#OFFSET:-0.366;
#SAMPLESTART:8.561;
#SAMPLELENGTH:15.000;
#SELECTABLE:YES;
#LISTSORT:;
#BPMS:0.000=234.000,128.000=117.000,176.000=234.000,332.000=117.000;
#STOPS:;
#BGCHANGES:0.000=L'erisia (Primal Logic).avi=1.000=1=0=0,
99999=-nosongbg-=1.000=0=0=0 // don't automatically add -songbackground-
;
#ATTACKS:;

//---------------dance-single - ----------------
#NOTES:
     dance-single:
     :
     Hard:
     14:
     0.690,0.681,0.114,0.180,0.028:
0000
0000
0000
0000
,
0000
0000
0000
0000
,
0000
0000
0000
0000
,
0000
0000
0000
0000
,
0000
0000
0000
0000
,
0000
0000
0000
0000
,
0000
0000
0000
0000
,
0000
0000
0000
0000
,
1000
0000
0001
0010
0100
0010
0001
0000
,
1000
0010
0100
0001
1000
0100
0010
0000
,
0100
0000
1000
0001
0100
0010
0100
0000
,
0001
0010
0100
1000
0001
0100
0010
0000
,
0100
0001
0100
0001
0010
0000
0100
1000
,
0010
0100
0010
0100
0001
0000
1000
0100
,
0010
0001
0010
0001
0100
0000
0001
0100
,
0010
1000
0010
1000
0100
0000
1000
0100
,
0001
0100
1000
0100
0010
0000
0001
0100
,
0010
0100
1000
0100
0001
0000
1000
0100
,
0010
0100
0001
0100
1000
0000
0010
0100
,
1000
0100
0001
0010
0100
0000
1000
0100
,
0001
0000
0001
0100
1000
0000
1000
0010
,
0001
0000
0001
0010
1000
0000
0001
0100
,
1000
0000
1000
0100
0001
0000
0001
0010
,
1000
0000
1000
0010
0001
0000
1000
0001
,
0100
0000
0100
0000
0000
0001
1000
0000
,
0100
0000
0100
0000
0000
0010
0100
0000
,
1000
0000
1000
0000
0000
0001
0100
0000
,
0010
0000
0010
0000
0000
0100
0001
0000
,
1000
0000
0001
0010
0100
0000
1000
0000
,
0100
0000
0010
0001
1000
0000
0010
0000
,
0100
0000
0001
0100
1000
0000
0100
0000
,
0001
0010
1000
0000
0010
0000
0001
0000
,
2000
3100
0002
0103
,
2000
3010
0002
0013
,
2000
0100
0010
3100
,
0002
0100
0010
0103
,
0200
0001
1000
0301
,
0020
1000
0001
2030
,
0100
0001
0010
3100
,
0020
0031
2000
3100
,
0002
0000
0010
0000
0100
0100
0103
0000
,
2000
0000
0010
0000
0100
0100
3100
0000
,
0020
0000
0001
0000
0100
0100
0130
0000
,
0200
0000
0010
0000
1000
1000
1300
0000
,
0001
0000
0000
0101
0000
1100
0000
1001
,
0000
0010
0100
0001
0000
0010
0100
1000
,
0000
0001
0100
0010
0100
0001
1000
0100
,
0010
0100
1000
0001
0100
1000
0200
0000
,
0300
0000
0001
0000
0000
1100
0000
0000
,
0101
0000
0000
1010
0000
0001
0100
1000
,
0100
0001
0010
0100
0001
0100
1000
0010
,
0100
0001
0010
1000
0001
0100
2000
0000
,
3000
0001
0100
0000
1001
0000
0000
0110
,
0000
0010
1000
0010
0100
0010
0001
1000
,
0100
0001
0000
0100
1000
0010
0000
0100
,
0001
0010
0100
1000
0100
0001
0200
0000
,
0300
0000
1000
0100
0010
0001
0010
0100
,
1000
0001
0100
0010
1000
0010
0100
0001
,
1000
0100
0010
0001
0100
0010
1000
0001
,
1000
0100
0010
0001
1000
0010
0100
0001
,
0100
1000
0100
0001
0100
1000
0100
0001
,
0010
0000
0001
0100
1000
0000
0100
0000
,
0001
0010
1000
0010
0100
1000
0001
0100
,
1000
0000
0100
0001
0010
0000
0100
0000
,
1000
0100
0001
0100
1000
0010
0100
0001
,
0010
0000
0100
0001
0100
0000
1000
0000
,
0010
0001
0010
0100
1000
0100
0001
0010
,
0100
0000
1000
0100
0010
0000
0001
0000
,
1000
0010
0010
0100
0100
0001
0001
1000
,
0100
0010
0001
0100
0010
1000
0001
1000
,
0100
0010
0001
0100
1000
0100
0001
0010
,
0100
1000
0100
0001
1000
0010
0001
0100
,
1000
0100
0010
0001
1000
0100
0001
0100
,
1000
0100
0010
0001
0010
1000
0001
0010
,
0100
1000
0001
0100
0001
0010
1000
0001
,
0100
1000
0010
0100
0001
0010
0100
1000
,
0001
0100
0010
0100
0001
0100
0010
0100
,
0001
1000
0100
1000
0001
1000
0100
1000
,
0001
0010
0100
1000
0001
0010
0100
1000
,
0001
0100
0010
1000
0001
0100
0010
1000
,
0001
0010
0100
1000
1100
0000
0011
0000
,
1000
0010
0100
0001
0101
0000
1010
0000
,
0001
0100
1000
0100
0001
0010
1000
0010
,
0002
0000
1003
0100
0010
0000
1000
0100
0010
0000
0010
0000
0000
0000
0000
0000
,
0000
0000
0001
0100
0010
0000
0001
0100
0010
0100
0001
1000
0000
0000
0000
0000
;

//---------------dance-single - ----------------
#NOTES:
     dance-single:
     :
     Medium:
     10:
     0.416,0.517,0.009,0.208,0.000:
0000
0000
0000
0000
,
0000
0000
0000
0000
,
0000
0000
0000
0000
,
0000
0000
0000
0000
,
0000
0000
0000
0000
,
0000
0000
0000
0000
,
0000
0000
0000
0000
,
0000
0000
0000
0000
,
1000
0001
0100
0100
,
0001
1000
0100
0100
,
1000
0010
0100
0001
,
0010
0100
1000
0001
,
0100
0010
0100
0010
,
1000
0001
1000
0001
,
0100
0010
1000
0100
,
0010
0001
0010
0000
,
0100
1000
0001
0001
,
1000
0100
0010
0010
,
0100
1000
0001
0100
,
0010
1000
0100
0010
,
0001
0100
0001
0100
,
0010
1000
0010
1000
,
0100
1000
0100
1000
,
0001
0000
0010
0000
0100
1000
0100
0000
,
0100
0000
1000
0000
0000
0100
0000
0000
,
0010
0000
0001
0000
0000
0100
0000
0000
,
0010
0000
1000
0000
0000
0001
0000
0000
,
1000
0000
0100
0000
0000
1000
0000
0000
,
0010
0000
0100
0000
0000
0001
0000
0000
,
1000
0000
0100
0000
0000
0010
0000
0000
,
0100
0000
1000
0000
0000
0001
0000
0000
,
0100
0000
0001
0000
0000
0010
0000
0000
,
0100
0000
0100
0000
,
0100
0000
0100
0000
,
0200
0000
2300
0000
,
3002
0000
0203
0000
,
0320
0000
2030
0000
,
3002
0000
0023
0000
,
0230
0000
2300
0000
,
3200
0000
0320
0000
,
0031
0000
0000
0001
1000
0000
0000
1000
,
0010
0000
0000
0010
0100
0000
0000
0100
,
0001
0000
0000
0001
0100
0000
0000
0100
,
1000
0000
0000
1000
0100
0000
0000
0100
,
0001
0000
0000
1000
0000
0001
0000
1000
,
0000
0000
0000
0010
0000
0000
0000
0010
,
0000
0100
0000
0001
1000
0000
0100
0000
,
0010
0001
0100
0001
,
0000
0000
1000
0000
0000
0100
0000
0000
,
1000
0000
0000
0001
0000
0001
0100
0000
,
0001
1000
0100
1000
,
0100
0001
0100
1000
,
0000
0010
0000
0000
1000
0000
0000
0001
,
0000
1000
0001
1000
0000
1000
0001
0000
,
0100
0001
1000
0100
,
0001
0100
1000
0010
,
0000
0100
0001
1000
,
0010
0100
0001
1000
,
0010
0010
1000
0001
,
0100
0100
0001
0010
,
0100
1000
0100
1000
,
0001
0100
0001
0100
,
0010
1000
0001
0100
,
0010
0000
1000
0000
0100
1000
0100
0000
,
0010
0001
0100
0001
,
1000
0010
1000
0100
,
0010
0001
0100
0010
,
1000
0000
0001
0000
0100
0010
0100
0000
,
0001
0001
0100
0100
,
1000
1000
0100
0001
,
0010
0100
1000
0001
,
0100
0000
0001
0000
1000
0010
1000
0001
,
0100
0001
0100
0001
,
1000
0010
1000
0010
,
0001
1000
0001
1000
,
0100
0000
0001
1000
0010
0100
0010
0100
,
0001
2000
3100
0002
,
0103
2000
3010
0002
,
0013
2000
3100
0002
,
0103
2000
3010
0002
,
0013
1000
0010
0000
1000
0100
1000
0000
,
0100
0001
0100
0000
0001
0010
0001
0000
,
0010
1000
0010
0000
1000
0001
1000
0000
,
2002
0000
0000
0000
,
3003
0000
0000
0000
;

//---------------dance-single - ----------------
#NOTES:
     dance-single:
     :
     Easy:
     6:
     0.257,0.358,0.047,0.142,0.000:
0000
0000
0000
0000
,
0000
0000
0000
0000
,
0000
0000
0000
0000
,
0000
0000
0000
0000
,
0000
0000
0000
0000
,
0000
0000
0000
0000
,
0000
0000
0000
0000
,
0000
0000
0000
0000
,
1000
0000
0001
0000
,
0100
0100
0100
0000
,
0010
0000
1000
0000
,
0001
0001
0001
0000
,
0010
0000
0100
0000
,
1000
0000
0010
0000
,
0100
0000
1000
0000
,
0010
0000
0100
0000
,
1000
0000
0001
0000
,
0100
0100
0100
0000
,
0010
0000
1000
0000
,
0001
0001
0001
0000
,
1000
0000
0001
0000
,
0100
0000
1000
0000
,
0001
0000
0100
0000
,
1000
0000
0001
0000
,
0100
0001
0100
0000
,
0010
1000
0010
0000
,
1000
0100
1000
0000
,
0001
0100
0001
0000
,
1000
0010
0100
0000
,
0001
0100
0010
0000
,
1000
0100
0010
0000
,
0001
0010
0100
0000
,
1001
0000
0000
0000
,
0110
0000
0000
0000
,
2002
0000
0000
0000
,
3003
0000
0000
0000
,
0220
0000
0000
0000
,
0330
0000
0000
0000
,
2000
0000
0000
0000
,
3000
0000
0102
0000
,
2000
0000
0000
0000
,
3003
0000
0000
0000
,
0010
0000
0100
0000
,
0010
0000
0100
0000
,
0010
0000
1000
0000
,
0001
0000
1000
0000
,
0010
0000
0100
0000
,
0001
0100
0001
1000
,
0000
1000
0000
0100
,
0000
0010
0000
0001
,
0100
0000
0001
0000
,
0100
0010
0100
0010
,
0000
1000
0000
0100
,
0000
1000
0000
0001
,
0000
0100
0001
0100
,
0001
0000
1000
0100
,
0000
0010
0001
0000
,
0000
0010
0000
0100
0000
0000
0000
0000
,
1000
0100
0000
0000
,
1000
0000
0001
0000
,
0200
0000
0010
0000
,
0310
0000
1000
0000
,
0001
0000
0100
0000
,
0010
0100
0010
0000
,
1000
0000
0001
0000
,
0100
0000
0010
0000
,
1000
0000
0100
0000
,
0010
0100
0010
0000
,
1000
0100
0010
0001
,
1000
0100
0010
0001
,
1000
0000
0001
0000
,
1000
0000
0001
0000
,
1000
0010
0100
0001
,
1000
0010
0100
0001
,
1000
0000
0001
0000
,
0100
0100
0100
0000
,
0010
1000
0010
0000
,
0100
0001
0100
0000
,
0001
0000
1000
0000
,
0100
0010
0100
0000
,
2000
0000
3200
0000
,
0320
0000
0032
0000
,
2003
0000
3020
0000
,
0230
0000
0000
0000
,
0300
0000
0000
0000
;

//---------------dance-single - ----------------
#NOTES:
     dance-single:
     :
     Beginner:
     3:
     0.116,0.196,0.000,0.000,0.000:
0000
0000
0000
0000
,
0000
0000
0000
0000
,
0000
0000
0000
0000
,
0000
0000
0000
0000
,
0000
0000
0000
0000
,
0000
0000
0000
0000
,
0000
0000
0000
0000
,
0000
0000
0000
0000
,
1000
0000
0000
0000
,
0001
0000
0000
0000
,
0100
0000
0000
0000
,
0010
0000
0000
0000
,
0100
0000
0000
0000
,
0001
0000
0000
0000
,
1000
0000
0000
0000
,
0100
0000
0000
0000
,
0010
0000
0000
0000
,
0001
0000
0000
0000
,
1000
0000
0000
0000
,
0010
0000
0000
0000
,
0100
0000
0000
0000
,
0001
0000
0000
0000
,
1000
0000
0000
0000
,
0100
0000
0000
0000
,
0010
0000
0000
0000
,
0010
0000
0000
0000
,
0010
0000
0000
0000
,
0010
0000
0000
0000
,
0100
0000
0000
0000
,
0100
0000
0000
0000
,
0100
0000
0000
0000
,
0100
0000
0000
0000
,
1000
0000
0000
0000
,
0001
0000
0000
0000
,
1000
0000
0000
0000
,
0100
0000
0000
0000
,
1000
0000
0000
0000
,
0001
0000
0000
0000
,
0100
0000
0000
0000
,
0001
0000
0000
0000
,
1000
0000
0000
0000
,
0100
0000
0000
0000
,
0010
0000
0000
0000
,
0001
0000
0000
0000
,
1000
0000
0000
0000
,
1000
0000
0000
0000
,
0001
0000
0001
0000
,
0001
0000
0000
0000
,
0100
0000
0000
0000
,
0100
0000
0000
0000
,
0010
0000
0010
0000
,
0010
0000
0000
0000
,
1000
0000
0000
0000
,
1000
0000
0000
0000
,
0100
0000
0100
0000
,
0100
0000
0000
0000
,
0010
0000
0000
0000
,
0010
0000
0000
0000
,
0001
0000
0000
0000
,
1000
0000
0000
0000
,
0010
0000
0000
0000
,
0100
0000
0000
0000
,
0010
0000
0000
0000
,
0100
0000
0000
0000
,
0001
0000
0000
0000
,
1000
0000
0000
0000
,
0001
0000
0000
0000
,
1000
0000
1000
0000
,
1000
0000
0000
0000
,
0100
0000
0000
0000
,
0001
0000
0000
0000
,
0100
0000
0000
0000
,
1000
0000
1000
0000
,
1000
0000
0000
0000
,
0001
0000
0001
0000
,
0001
0000
0000
0000
,
0100
0000
0000
0000
,
0010
0000
0000
0000
,
1000
0000
1000
0000
,
1000
0000
0000
0000
,
0001
0000
0001
0000
,
0001
0000
0001
0000
,
1000
0000
1000
0000
,
1000
0000
0000
0000
;

//---------------dance-double - ----------------
#NOTES:
     dance-double:
     :
     Hard:
     16:
     0.667,0.721,0.322,0.180,0.066:
00000000
00000000
00000000
00000000
,
00000000
00000000
00000000
00000000
,
00000000
00000000
00000000
00000000
,
00000000
00000000
00000000
00000000
,
00000000
00000000
00000000
00000000
,
00000000
00000000
00000000
00000000
,
00000000
00000000
00000000
00000000
,
00000000
00000000
00000000
00000000
,
10000000
01000000
00100000
00000000
00010000
00000000
01000000
00001000
,
00010000
00001000
00000100
00000000
00000001
00000000
00000010
00000000
,
00000100
00010000
00001000
00000000
01000000
00000000
00010000
00100000
,
00001000
00010000
01000000
00000000
10000000
00000000
00100000
00000000
,
00010000
00000000
00000010
00000001
00000010
00000000
00001000
00000100
,
00010000
00001000
00100000
10000000
00100000
00000000
00010000
00000000
,
01000000
00000000
00001000
00010000
00000100
00000000
00010000
01000000
,
00010000
00001000
00000100
00000001
00001000
00000000
00001001
00000000
,
00000001
00000100
00000010
00000000
00001000
00000000
00000100
00010000
,
00001000
00010000
01000000
00000000
10000000
00000000
00100000
00000000
,
01000000
00001000
00010000
00000000
00000100
00000000
00001000
00000010
,
00010000
00001000
00000100
00000000
00000001
00000000
00000010
00000000
,
00001000
00000000
00100000
10000000
00100000
00000000
00010000
01000000
,
00001000
00010000
00000010
00000001
00000010
00000000
00001000
00000000
,
00000100
00000000
00010000
00001000
01000000
00000000
00001000
00000100
,
00001000
00010000
01000000
10000000
00010000
00000000
10010000
00000000
,
11000000
00000000
01010000
00000000
00000000
00011000
00000000
00000000
,
00001100
00000000
00000110
00000000
00000000
00000101
00000000
00000000
,
00001100
00000000
00110000
00000000
00000000
10100000
00000000
00000000
,
11000000
00000000
01010000
00000000
00000000
00011000
00000000
00000000
,
00001010
00000000
00000011
00000000
00000000
00001001
00000000
00000000
,
00011000
00000000
11000000
00000000
00000000
10100000
00000000
00000000
,
01100000
00000000
01010000
00000000
00000000
00011000
00000000
00000000
,
00001100
00000000
00000011
00000000
00000000
00011000
00000000
00000000
,
20010000
00000000
31000000
00100000
00020000
00000000
00031000
00000100
,
00000020
00000000
00000031
00000100
00000020
00000000
00001030
00010000
,
02000000
00000000
03100000
10000000
00020000
00000000
00130000
00001000
,
00020000
00000000
00030100
00001000
00000020
00000000
00000130
00000001
,
00002000
00000000
00003100
00010000
02000000
00000000
13000000
00100000
,
00020000
00000000
00030010
00001000
00000002
00000000
00000013
00000100
,
00002000
00000000
00003010
00010000
02000000
00000000
03100000
00001000
,
00000200
00000000
00000310
00001000
02000000
00000000
03100000
00010000
,
00000100
00000000
00000001
00000000
00000000
00001000
00000000
00000000
00000100
00000000
00000000
00000000
00000000
00010000
00000000
00000000
,
00001000
00000000
01000000
00000000
00000000
00100000
00000000
00000000
10000000
00000000
00000000
00000000
00000000
01000000
00000000
00000000
,
00100000
00000000
00010000
00000000
00000000
00001000
00000000
00000000
01000000
00000000
00000000
00000000
00000000
10000000
00000000
00000000
,
00010000
00000000
00001000
00000000
00000000
00000010
00000000
00000000
00000001
00000000
00000000
00000000
00000000
00001000
00000000
00000000
,
00010000
00000000
00000000
01010000
00000000
11000000
00000000
10010000
,
00000000
00010000
01000000
00001000
00000000
00010000
00000100
00000010
,
00000000
00000100
00000000
00001000
00000100
00010000
01000000
00010000
,
00001000
00000010
00000001
00000100
00001000
00010000
00200000
00000000
,
00300000
00000000
10000000
00000000
00000000
00010000
00000000
00000000
,
01010000
00000000
00000000
00001100
00000000
00000100
00000010
00000000
,
00000001
00000100
00001000
00000000
00010000
00100000
10000000
00000000
,
10000000
01000000
00001000
01000000
00000000
00100000
00002000
00000000
,
00003000
00010000
00000000
00000000
00000100
00000000
00000000
00000010
,
00000000
00000001
00000100
00001000
01000000
10000000
01000000
00010000
,
10000000
01000000
00000000
00100000
01000000
10000000
00000000
01000000
,
00100000
00010000
00001000
00000100
00000010
00000001
00000200
00000000
,
00000300
00000000
00000001
00000100
00001000
00010000
01000000
10000000
,
00000000
10000000
01000000
00010000
00001000
00000100
00000001
00000000
,
00000001
00000010
00001000
00010000
00100000
10000000
00100000
00010000
,
00100000
10000000
00010000
00100000
01000000
10000000
00010000
00000000
,
10000000
00000000
01000000
01000000
00100000
00000000
00001000
00001000
,
00010000
00000000
00000100
00001000
00000010
00000000
00000100
00000000
,
00000001
00000010
00001000
00010000
00100000
00000000
10000000
10000000
,
00010000
00000000
01000000
00001000
00000010
00000001
00000100
00000000
,
00000001
00000000
00000100
00000100
00000010
00000000
00010000
00010000
,
00001000
00000000
01000000
00010000
00100000
00000000
01000000
00000000
,
10000000
00100000
00010000
00001000
00000010
00000000
00000001
00000001
,
00001000
00000000
00000100
00010000
00100000
10000000
01000000
00000000
,
10000000
01000000
00100000
01000000
00010000
01000000
00001000
00000100
,
00000010
00000100
00000001
00000100
00001000
00000100
00000010
00000000
,
00000001
00000100
00000010
00000100
00001000
00000100
00010000
01000000
,
00100000
01000000
10000000
01000000
00010000
10000000
01000000
00000000
,
10000000
01000000
00100000
00010000
00001000
00000100
00000010
00000000
,
00000001
00000100
00000010
00001000
00010000
01000000
00100000
00000000
,
10000000
00100000
01000000
00010000
00001000
00000010
00000100
00000000
,
00000001
00000010
00000100
00001000
00010000
01000000
00100000
00000000
,
10000000
01000000
00010000
00000000
00000100
00000000
00000010
00000001
,
00000100
00001000
00010000
00000000
00100000
00000000
10010000
00000000
,
10000000
00100000
00010000
00000000
00000010
00000000
00010000
00000100
,
00000010
00000001
00000100
00000000
00001000
00000000
00011000
00000000
,
00000100
00010000
00100000
00000000
01000000
00010000
00000010
00000000
,
00000100
00001000
00100000
00000000
01000000
00001000
00000010
00000000
,
00000001
00000010
00000100
00001000
00010000
00100000
01000000
10000000
,
00010000
00000000
10000000
01000000
00010000
00000000
00001000
00000010
00000001
00000000
00001000
00000000
00000000
00000000
00000000
00000000
,
00000000
00000000
00000001
00000100
00001000
00000000
00010000
00100000
10000000
00100000
00010000
00001000
00000000
00000000
00000000
00000000
;

//---------------dance-double - ----------------
#NOTES:
     dance-double:
     :
     Medium:
     12:
     0.468,0.561,0.009,0.066,0.028: // measure 1
00000000
00000000
00000000
00000000
,  // measure 2
00000000
00000000
00000000
00000000
,  // measure 3
00000000
00000000
00000000
00000000
,  // measure 4
00000000
00000000
00000000
00000000
,  // measure 5
00000000
00000000
00000000
00000000
,  // measure 6
00000000
00000000
00000000
00000000
,  // measure 7
00000000
00000000
00000000
00000000
,  // measure 8
00000000
00000000
00000000
00000000
,  // measure 9
00010000
00000000
01000000
00000000
10000000
00010000
10000000
00000000
,  // measure 10
00100000
01000000
00010000
00100000
,  // measure 11
00001000
00000000
00010000
00000000
00000100
00000010
00000100
00000000
,  // measure 12
00001000
00000000
00000010
00000000
00000100
00000001
00000100
00000000
,  // measure 13
00000010
00000000
00001000
00000000
00000100
00010000
00000100
00000000
,  // measure 14
00010000
00000000
00001000
00000000
01000000
00010000
01000000
00000000
,  // measure 15
00100000
00000000
10000000
00000000
01000000
00100000
00001000
00000000
,  // measure 16
00100000
00000000
00010000
00000000
01000000
00001000
00010000
00000000
,  // measure 17
00001000
00000000
00000100
00000000
00000001
00001000
00000001
00000000
,  // measure 18
00000010
00000100
00001000
00000010
,  // measure 19
00010000
00000000
00001000
00000000
01000000
00100000
01000000
00000000
,  // measure 20
00010000
00000000
00100000
00000000
01000000
10000000
01000000
00000000
,  // measure 21
00100000
00000000
00010000
00000000
01000000
00001000
01000000
00000000
,  // measure 22
00001000
00000000
00010000
00000000
00000100
00001000
00000100
00000000
,  // measure 23
00000010
00000000
00000001
00000000
00000100
00000010
00010000
00000000
,  // measure 24
00000010
00000000
00001000
00000000
00000100
00010000
00001000
00000000
,  // measure 25
00010000
01000000
10000000
01000000
,  // measure 26
00010000
01000000
10000000
01000000
,  // measure 27
00010000
00001000
00000010
00000001
,  // measure 28
00000010
00001000
00000010
00000001
,  // measure 29
00000100
00001000
00010000
00001000
,  // measure 30
00000100
00001000
00010000
00001000
,  // measure 31
00000010
00001000
00010000
01000000
,  // measure 32
10000000
00100000
01000000
00010000
,  // measure 33
00120000
00000000
01000000
00000000
,  // measure 34
10000000
00000000
00100000
00000000
,  // measure 35
00032000
00000000
00000100
00000000
,  // measure 36
00000001
00000000
00000010
00000000
,  // measure 37
00023000
00000000
01000000
00000000
,  // measure 38
10000000
00000000
00100000
00000000
,  // measure 39
00032000
00000000
00000100
00000000
,  // measure 40
00000001
00000000
00000010
00000000
,  // measure 41
00013000
00000000
01000000
00000000
10000000
01000000
00010000
00000000
,  // measure 42
00100000
00000000
00001000
00000000
00010000
00000100
00001000
00000000
,  // measure 43
00000010
00000000
00001000
00000000
00000001
00001000
00000100
00000000
,  // measure 44
00010000
00000000
00001000
00000000
01000000
00100000
10000000
00000000
,  // measure 45
10000000
01000000
00100000
00010000
,  // measure 46
01000000
00001000
00100000
00001000
,  // measure 47
00010000
00000100
00000010
00000001
,  // measure 48
00000100
00000010
00001000
00000000
00000100
00000000
00010000
00000000
,  // measure 49
00001000
01000000
00010000
01000000
,  // measure 50
00100000
10000000
01000000
00100000
,  // measure 51
00010000
01000000
00010000
00000000
00100000
00000000
00001000
00000000
,  // measure 52
00010000
00000100
00010000
00000000
00000100
00000000
00000010
00000000
,  // measure 53
00000001
00000100
00001000
00000100
,  // measure 54
00000010
00010000
00001000
01000000
,  // measure 55
00010000
10000000
00010000
00000000
10000000
01000000
10000000
00000000
,  // measure 56
01000000
00100000
00010000
10000000
,  // measure 57
10000000
01000000
00010000
00001000
,  // measure 58
00000010
00000001
00000100
00001000
,  // measure 59
00010000
00100000
10000000
01000000
,  // measure 60
00100000
00010000
01000000
00001000
,  // measure 61
00010000
00010000
00001000
00001000
,  // measure 62
00000010
00000010
00000001
00000001
,  // measure 63
00000100
00000010
00001000
00000100
,  // measure 64
00010000
00000000
00001000
00000000
01000000
00010000
00100000
00000000
,  // measure 65
01000000
01000000
10000000
10000000
,  // measure 66
00010000
00010000
01000000
01000000
,  // measure 67
00001000
00010000
00000100
00001000
,  // measure 68
00000010
00000000
00000100
00000000
00000001
00000100
00000010
00000000
,  // measure 69
00001000
00000100
00010000
00000000
00001000
00000000
01000000
00000000
,  // measure 70
00010000
10000000
01000000
00010000
,  // measure 71
00001000
00000010
00000100
00001000
,  // measure 72
00000010
00000100
00001000
00000000
00000100
00000000
00000001
00000000
,  // measure 73
00001000
00000100
00010000
00000000
00001000
00000000
01000000
00000000
,  // measure 74
00010000
10000000
01000000
00000000
00010000
00000000
00001000
00000000
,  // measure 75
00000010
00000001
00000100
00000000
00000010
00000000
00010000
00000000
,  // measure 76
00001000
01000000
00010000
00000000
10000000
01000000
10000000
00000000
,  // measure 77
00010000
00000000
01000000
00100000
01000000
00000000
00010000
00000000
,  // measure 78
00100000
00001000
00010000
00000100
,  // measure 79
00001000
00000000
00000010
00000100
00000010
00000000
00001000
00000000
,  // measure 80
00000100
00010000
00001000
01000000
,  // measure 81
00100000
10000000
01000000
00000000
00020000
00000000
00031000
00000000
,  // measure 82
00000010
00000001
00000100
00000000
00002000
00000000
00013000
00000000
,  // measure 83
00100000
10000000
01000000
00000000
00020000
00000000
00031000
00000000
,  // measure 84
00000010
00000000
00000001
00001000
00000100
00000000
00001000
00000100
00010000
00000000
00001000
00000000
00000000
00000000
00000000
00000000
,  // measure 85
00000000
00000000
01000000
00010000
10000000
00000000
00100000
01000000
00010000
00100000
00001000
00010000
00000000
00000000
00000000
00000000
;

//---------------dance-double - ----------------
#NOTES:
     dance-double:
     :
     Easy:
     9:
     0.334,0.353,0.000,0.142,0.000:
00000000
00000000
00000000
00000000
,
00000000
00000000
00000000
00000000
,
00000000
00000000
00000000
00000000
,
00000000
00000000
00000000
00000000
,
00000000
00000000
00000000
00000000
,
00000000
00000000
00000000
00000000
,
00000000
00000000
00000000
00000000
,
00000000
00000000
00000000
00000000
,
10000000
01000000
00010000
01000000
,
00100000
00001000
00010000
00000010
,
00001000
00000100
00000010
00000001
,
00000100
00000010
00001000
00000000
,
00000001
00000100
00001000
00000100
,
00000010
00010000
00001000
00100000
,
00010000
01000000
00100000
10000000
,
01000000
00100000
00010000
00000000
,
10000000
01000000
00100000
00100000
,
00010000
01000000
00001000
00010000
,
00000100
00000010
00000001
00000001
,
00000100
00000010
00001000
00000000
,
00000001
00000100
00000010
00000010
,
00001000
00000100
00010000
00001000
,
01000000
00100000
10000000
10000000
,
01000000
00100000
00010000
00000000
,
10000000
00000000
01000000
00000000
00000000
00100000
00000000
00000000
,
00010000
00000000
01000000
00000000
00000000
00001000
00000000
00000000
,
00010000
00000000
00000010
00000000
00000000
00001000
00000000
00000000
,
00000100
00000000
00000010
00000000
00000000
00000001
00000000
00000000
,
00000100
00000000
00000010
00000000
00000000
00001000
00000000
00000000
,
00000100
00000000
00010000
00000000
00000000
00001000
00000000
00000000
,
01000000
00000000
00100000
00000000
00000000
10000000
00000000
00000000
,
00010000
00000000
00100000
00000000
00000000
01000000
00000000
00000000
,
10000000
00000000
00000000
00000000
,
01000000
00000000
00000000
00000000
,
00020000
00000000
00030000
00000000
,
00002000
00000000
00003000
00000000
,
00000020
00000000
00000030
00000000
,
00000002
00000000
00000003
00000000
,
00000200
00000000
00000300
00000000
,
00002000
00000000
00003000
00000000
,
00020000
00000000
00030000
00000000
,
00200000
00000000
00300000
00000000
,
20000000
00000000
30000000
00000000
,
01000000
00000000
01000000
00000000
,
01000000
00100000
00010000
01000000
,
00010000
00000000
00100000
00000000
00000000
01000000
10000000
00000000
,
00010000
01000000
00001000
00010000
,
00000100
00000010
00000001
00000100
,
00000001
00000001
00001000
00001000
,
00000100
00000000
00010000
00000000
00000000
00001000
00010000
00000000
,
00001000
01000000
00010000
10000000
,
00100000
01000000
00010000
00100000
,
01000000
01000000
10000000
10000000
,
01000000
00010000
00001000
00000010
,
00000001
00000001
00000100
00000100
,
00001000
00000100
00000001
00000100
,
00000010
00000010
00001000
00001000
,
00000100
00000100
00010000
00010000
,
00001000
00001000
01000000
01000000
,
00020000
00000000
20000000
30030000
,
10000000
01000000
00010000
00000000
,
00001000
00000000
00000010
00000000
,
00000001
00000100
00001000
00000000
,
00010000
00000000
00100000
00000000
,
10000000
01000000
00010000
00000000
,
00001000
00000000
00000100
00000000
,
00000001
00000010
00001000
00000000
,
00010000
00000000
00100000
00000000
,
10000000
00100000
10000000
00100000
,
01000000
00010000
01000000
00010000
,
00100000
00001000
00100000
00001000
,
00010000
00000100
00010000
00000100
,
00001000
00000010
00000100
00000001
,
00001000
00000010
00000100
00000001
,
00001000
00000100
00000010
00000001
,
00001000
00000100
00000010
00000100
,
00010000
00010000
00001000
00000000
,
01000000
01000000
00010000
00000000
,
00100000
00100000
01000000
00000000
,
10000000
01000000
00010000
00000000
,
00002000
00000000
00003020
00000000
,
00000032
00000000
00000203
00000000
,
00001300
00010000
00100000
10000000
,
00010000
00000000
00000000
00000000
;
