#TITLE:L'avide ~ル・アビデ~;
#SUBTITLE:;
#ARTIST:Zektbach;
#TITLETRANSLIT:L'avide;
#SUBTITLETRANSLIT:;
#ARTISTTRANSLIT:;
#GENRE:;
#CREDIT:;
#MENUCOLOR:;
#METERTYPE:DDR;
#BANNER:L'avide.png;
#BACKGROUND:L'avide-bg.png;
#LYRICSPATH:;
#CDTITLE:cdtitle.png;
#MUSIC:L'avide.mp3;
#OFFSET:-0.025;
#SAMPLESTART:29.654;
#SAMPLELENGTH:15.000;
#SELECTABLE:YES;
#LISTSORT:;
#BPMS:0.000=170.000;
#STOPS:;
#BGCHANGES:;
#ATTACKS:;

//---------------dance-single - ----------------
#NOTES:
     dance-single:
     :
     Hard:
     11:
     0.586,0.558,0.140,0.091,0.008:
0000
0000
0000
0000
,
0000
0000
0000
0000
,
0000
0000
0000
0000
,
0000
0000
0000
0000
,
0000
0000
0000
0000
,
0001
0100
1000
0010
,
0001
0010
1000
0100
,
0001
0010
0100
1000
,
0001
0100
0010
0110
,
1000
0010
0100
0010
1000
0001
0100
0010
,
0000
1000
0100
0001
0100
1000
0010
0100
,
0000
0001
0100
0010
0000
0010
0100
0001
,
0000
1000
0100
0010
1000
0010
0001
0100
,
0001
0010
0100
0010
0001
1000
0100
0010
,
0000
0001
0100
1000
0100
0001
0010
0100
,
0000
1000
0100
0010
0000
0010
0100
1000
,
0000
0001
0100
0010
0001
0010
1000
0100
,
1000
0000
0100
0000
0100
0000
0010
0100
,
0010
0001
0100
0010
2000
0000
3000
0000
,
0001
0000
0100
0000
0100
0000
0010
0100
,
0010
1000
0100
0010
0002
0000
0003
0000
,
1000
0000
0001
0100
0010
0100
0001
1000
,
0000
0100
0010
0000
0100
0000
1000
0001
,
0100
0010
1000
0000
0100
0000
0100
0000
,
0010
0100
1000
0002
0000
0100
0103
0000
,
0001
0000
1000
0100
0010
0100
1000
0001
,
0000
0100
0010
0000
0100
0000
0001
0000
,
1000
0100
0010
0001
0100
0000
0100
0000
,
0010
0100
0001
2000
0000
0100
3100
0000
,
1100
0000
0100
0010
0100
0001
0100
1000
,
0000
0001
0100
0000
1000
0100
0010
0000
,
1000
0100
0010
0100
1000
0001
0100
0000
,
0010
0100
0000
0110
0000
0010
1000
0000
,
0101
0000
0100
0010
0100
1000
0100
0001
,
0000
1000
0100
0000
0001
0100
0010
0000
,
0001
0100
0010
0100
0001
1000
0100
0000
,
0010
0100
0000
0110
0000
0010
0001
0000
,
0010
0000
0100
1000
0001
0000
0100
0010
,
0000
0010
0100
0000
0001
1000
0100
0000
,
0010
0000
0100
1000
0001
0100
0010
0000
,
0100
0001
1100
0101
,
0010
0000
0100
0001
1000
0000
0100
0010
,
0000
0010
0100
0000
1000
0001
0100
0000
,
0010
0000
0100
0001
1000
0100
0010
0000
,
0100
1000
0101
1100
,
0010
0000
0100
0000
0001
0100
1000
0000
,
0100
0001
1000
0100
0010
0001
0100
0000
,
1000
0100
0001
0000
0100
0001
0010
0000
,
0100
1000
0010
0100
0000
0100
0001
0000
,
0010
0000
0100
0000
1000
0100
0001
0000
,
0100
1000
0001
0100
0010
1000
0100
0000
,
1000
0010
0100
0001
0100
0010
1000
0100
,
0000
0010
0100
1000
0001
0100
0010
0100
,
0000
0001
0100
1000
0000
1000
0100
0001
,
0000
1000
0100
0010
0100
1000
0001
0100
,
0001
0010
0100
1000
0100
0010
0001
0100
,
0000
0010
0100
0001
1000
0100
0010
0100
,
0000
1000
0100
0001
0000
0001
0100
1000
,
0000
0001
0100
0010
0100
0001
1000
0100
,
1000
0001
0100
0000
0010
0000
0100
0000
,
0101
1100
0202
0303
,
1000
0100
0010
0000
0010
0100
1000
0000
,
0002
0000
0003
0000
,
1000
0010
0100
0000
0001
0100
0010
0000
,
1010
0000
0011
0000
1010
0000
1000
0100
,
0001
0100
1000
0000
0010
0100
0001
0000
,
2002
0000
3003
0000
,
1000
0100
0010
0001
0000
0010
0100
1000
,
0001
0100
0010
1000
0000
0010
0100
0001
,
0010
0100
1000
0100
0010
0001
0100
1000
,
0100
0010
0001
0010
1000
0001
0010
0000
,
0001
0100
0010
1000
0000
0010
0100
0001
,
1000
0100
0010
0001
0000
0010
0100
1000
,
0010
0100
0001
0100
0010
1000
0100
0001
,
0100
0010
1000
0010
0001
1000
0010
0000
,
0100
0001
1000
0100
0010
0100
1000
0001
,
0000
0100
1000
0100
0001
0010
0100
1000
,
0000
0100
0001
0100
0000
0100
1000
0100
,
0000
0000
0010
0000
0001
0000
0100
0000
0010
0100
0010
0000
1000
0000
0001
0000
,
0010
0001
1000
0010
0100
0010
1000
0001
,
0000
0010
1000
0010
0001
0100
0010
1000
,
0000
0010
0001
0010
0000
0010
1000
0010
,
0000
0000
0100
0000
0001
0000
0010
0000
0100
0010
0100
0000
1000
0000
0001
0000
,
2002
0000
0000
0000
,
0000
0000
0000
3003
;

//---------------dance-single - ----------------
#NOTES:
     dance-single:
     :
     Medium:
     9:
     0.479,0.488,0.074,0.263,0.000:
0000
0000
0000
0000
,
0000
0000
0000
0000
,
0000
0000
0000
0000
,
0000
0000
0000
0000
,
0000
0000
0000
0000
,
0001
0100
0010
0010
,
1000
0100
0010
0010
,
0001
0100
1000
0100
,
0010
1000
0100
0001
,
0100
0000
0100
0000
1000
0100
0010
0000
,
0001
0000
0001
0000
0100
0010
1000
0000
,
0001
1000
0001
0000
1000
0001
1000
0000
,
0100
0000
0010
0000
0001
0010
0100
1000
,
0001
0000
0001
0000
1000
0010
0100
0000
,
0010
0000
0010
0000
1000
0100
0010
0000
,
0001
0100
0001
0000
1000
0100
1000
0000
,
0001
0000
1000
0000
0010
0100
0001
1000
,
0200
0000
0010
0000
,
1300
0001
0200
0300
,
0002
0000
0010
0000
,
0103
0010
2000
3000
,
0001
0000
1000
0000
0001
0100
0000
0010
,
0000
0100
0001
1000
,
0100
0000
0001
0000
0100
1000
0010
0000
,
0001
0000
0010
1000
0000
0001
0100
0000
,
0010
0000
1000
0000
0100
0010
0001
0000
,
0100
0001
1000
0100
,
0010
0100
0000
1000
0000
0100
0000
0000
,
0010
0000
0010
0000
0001
0100
0010
0000
,
1000
0000
0010
0000
1000
0100
0010
0000
,
0001
0100
1000
0010
,
0001
0100
0001
0010
,
0100
1000
0000
0001
0000
0100
0010
0000
,
0100
0000
0001
0000
1000
0100
0010
0000
,
0100
1000
0010
0001
,
0100
1000
0001
0100
,
0010
0100
0001
1000
0000
0100
0010
0000
,
0100
0000
0100
0000
1000
0001
0100
0000
,
0020
2030
3002
0023
,
0130
0000
1000
0000
0001
0100
0001
0000
,
1000
0000
0100
0010
0000
0010
0100
0000
,
1000
0000
0001
0000
0100
0010
1000
0000
,
0002
0023
0230
2300
,
3001
0000
0100
0010
0000
0010
0100
0000
,
0001
0000
1000
0100
0001
0100
1000
0000
,
0010
0000
0010
0000
1000
0001
0010
0000
,
0200
2300
3002
0203
,
0310
0000
1000
0000
0001
0010
0001
0000
,
1000
0000
0010
0100
0000
0100
0010
0000
,
1000
0000
0001
0000
0010
0100
1000
0000
,
0002
0203
0320
2030
,
3001
0000
1000
0000
0001
0100
1000
0000
,
0100
0000
0001
0000
1000
0100
0001
0000
,
0100
1000
0100
0000
0010
0001
0010
0000
,
0100
1000
0001
0000
0100
0000
0110
0000
,
0010
0000
1000
0000
0001
0010
1000
0000
,
0010
0000
0001
0000
1000
0010
0001
0000
,
0010
1000
0010
0000
0100
0001
0100
0000
,
0010
1000
0100
0000
0010
0000
0110
0000
,
0200
1000
0010
1000
,
0310
0001
2002
3003
,
0001
0100
0010
0000
1000
0000
0001
0000
,
2002
0000
3003
0000
,
2100
3001
0102
1003
,
0010
0000
0100
0000
0001
0000
1000
0100
,
0020
0031
0200
1300
,
0020
0000
0030
0000
,
0001
0000
1000
0000
0001
0100
0010
0000
,
0100
0000
0001
1000
0100
0010
0001
0000
,
0010
0000
0100
0000
1000
0001
0100
0000
,
0010
0000
0100
0001
0000
0001
0100
0000
,
0010
0000
1000
0000
0100
0010
0100
0000
,
1000
0000
0001
0100
0010
1000
0100
0000
,
0010
0000
0100
0000
1000
0001
1000
0000
,
0010
0000
0100
0001
0000
0001
0100
0000
,
0010
0000
1000
0000
0001
0010
0100
1000
,
0000
0001
1000
0000
0010
0100
1000
0100
,
0000
0001
0010
0001
0000
1000
0100
1000
,
0000
0010
0100
0000
0001
0000
1001
0000
,
0010
0000
0001
0000
1000
0010
0100
0001
,
0000
1000
0001
0000
0010
0100
0001
0100
,
0000
1000
0010
1000
0000
0001
0100
0001
,
0000
0010
0100
0000
1000
0000
1001
0000
,
0220
0000
0000
0000
,
0000
0000
0000
0330
;

//---------------dance-double - ----------------
#NOTES:
     dance-double:
     :
     Hard:
     11:
     0.523,0.558,0.123,0.115,0.000:
00000000
00000000
00000000
00000000
,
00000000
00000000
00000000
00000000
,
00000000
00000000
00000000
00000000
,
00000000
00000000
00000000
00000000
,
00000000
00000000
00000000
00000000
,
00010000
01000000
00010000
01000000
,
00001000
00000100
00001000
00000100
,
00010000
00100000
00010000
00100000
,
00001000
00000010
00001000
00000010
,
00010000
00001000
01000000
00000000
00100000
01000000
00010000
00100000
,
00000000
01000000
10000000
00000000
01000000
00100000
00010000
01000000
,
00000000
00001000
00100000
00001000
00000000
00010000
00000100
00010000
,
00000000
00001000
01000000
00000000
01001000
00000000
00101000
00000000
,
00001000
00010000
00000100
00000000
00000010
00000100
00001000
00000010
,
00000000
00000100
00000001
00000000
00000100
00000010
00001000
00000100
,
00000000
00010000
00000010
00010000
00000000
00001000
01000000
00001000
,
00000000
00010000
00000100
00000000
00010100
00000000
00010010
00000000
,
00000010
00000000
00001000
00000000
00010000
00000000
01000000
00010000
,
10000000
10010000
00220000
00330000
,
00100000
00000000
00010000
00000000
00001000
00000000
00000100
00001000
,
00000001
00001001
00002020
00003030
,
00000001
00000000
00001000
00000000
00000100
00010000
00001000
00000000
,
01000000
00000000
00100000
10000000
01000000
00000000
00100000
00000000
,
01000000
10000000
00100000
00000000
01000000
00000000
00010000
00000000
,
00100000
00001000
00000000
00010000
00000000
01000000
10000000
00000000
,
00010000
00000000
01000000
00000000
00001000
00010000
00000010
00000000
,
00001000
00000100
00010000
00000000
01000000
00000000
00100000
00000000
,
00001000
00010000
00000000
00000100
00000000
00010000
00001000
00000000
,
00010000
01000000
10000000
00010000
00000000
01000000
00100000
00000000
,
10000000
00000000
00010000
00000000
01000000
00001000
00010000
00000000
,
00000100
00000000
00000010
00000001
00000100
00000000
00000010
00000000
,
00000100
00000001
00000010
00000000
00000100
00000000
00001000
00000000
,
00000010
00010000
00000000
00001000
00000000
00000100
00000001
00000000
,
00001000
00000000
00000100
00000000
00010000
00001000
00100000
00000000
,
00010000
01000000
00001000
00000000
00000100
00000000
00000010
00000000
,
00010000
00001000
00000000
01000000
00000000
00001000
00010000
00000000
,
00001000
00000100
00000001
00001000
00000000
00000100
00000010
00000000
,
00000001
00000000
00000101
00000000
00001000
00000100
00001000
00000000
,
00000100
00010000
00001000
00000000
01000000
00000000
00100000
00000000
,
10000000
00000000
11000000
00000000
00010000
01000000
00010000
00000000
,
01000000
00001000
00010000
00000100
00010000
00001000
00100000
00001000
,
00010000
00000000
00000010
00000000
00001000
00000100
00000010
00000000
,
00000100
00010000
00001000
00000000
00010000
00000000
01000000
00000000
,
00100000
00001000
00010000
00000000
01000000
00100000
00010000
00000000
,
00001000
00000100
00001000
00010000
00100000
00010000
01000000
00100000
,
10000000
00000000
11000000
00000000
00010000
01000000
00010000
00000000
,
01000000
00001000
00010000
00000000
00000100
00000000
00000010
00000000
,
00000001
00000000
00000101
00000000
00001000
00000100
00001000
00000000
,
00000100
00010000
00001000
01000000
00001000
00010000
00000010
00010000
,
00001000
00000000
00100000
00000000
00010000
01000000
00100000
00000000
,
01000000
00001000
00010000
00000000
00001000
00000000
00000100
00000000
,
00000010
00010000
00001000
00000000
00010000
00001000
01000000
00100000
,
00000000
10000000
01000000
00000000
00100000
00010000
01000000
00001000
,
00000000
00010000
00000100
00010000
00000000
00010000
00000010
00010000
,
00000000
00001000
01000000
00100000
10000000
00010000
00100000
00000000
,
00100000
00001000
00010000
00000000
00001000
00010000
00000100
00000010
,
00000000
00000001
00000100
00000000
00000010
00001000
00000100
00010000
,
00000000
00001000
01000000
00001000
00000000
00001000
00100000
00001000
,
00000000
00010000
00000100
00000010
00000001
00001000
00000010
00000000
,
00000100
00000001
00001000
00000000
00000100
00000000
00010000
00000000
,
00002000
00203000
00320000
00030000
,
10000000
01000000
00100000
00000000
01000000
00010000
00001000
00000000
,
00000200
00000000
00000300
00000000
,
00000010
00010000
00001000
00000000
00100000
00001000
00010000
00000000
,
00200000
00000000
20300000
00000000
30020000
00000000
00130000
01000000
,
10000000
01000000
00100000
00000000
00010000
00100000
00001000
00000000
,
00022000
00000000
00033000
00000000
,
00001000
00000000
00000100
00000000
00000001
00000010
00000100
00000000
,
00001000
00000000
00000100
00010000
00001000
01000000
00010000
00000000
,
10000000
01000000
00100000
00000000
00010000
01000000
00100000
00000000
,
01000000
00010000
00100000
01000000
00100000
00001000
00010000
00000000
,
00010000
00000000
01000000
00000000
10000000
00100000
01000000
00000000
,
00010000
00000000
01000000
00001000
00010000
00000100
00001000
00000000
,
00000001
00000100
00000010
00000000
00001000
00000100
00000010
00000000
,
00000100
00001000
00000010
00000100
00000010
00010000
00001000
00000000
,
00010000
00000000
00001000
00000000
01000000
00010000
10000000
01000000
,
00000000
00100000
00010000
00000000
00100000
00001000
00010000
00000100
,
00000000
00000010
00001000
00000010
00000000
00000010
00000001
00000010
,
00000000
00000100
00010000
00000000
00001000
00000000
00011000
00000000
,
00001000
00000000
00010000
00000000
00000100
00001000
00000001
00000100
,
00000000
00000010
00001000
00000000
00000010
00010000
00001000
01000000
,
00000000
00100000
00010000
00100000
00000000
00100000
10000000
00100000
,
00000000
01000000
00001000
00000000
00010000
00000000
00011000
00000000
,
02000000
00000000
00000000
00000000
,
00000000
00000000
00000000
03000000
;

//---------------dance-single - ----------------
#NOTES:
     dance-single:
     :
     Easy:
     5:
     0.231,0.279,0.000,0.025,0.000:
0000
0000
0000
0000
,
0000
0000
0000
0000
,
0000
0000
0000
0000
,
0000
0000
0000
0000
,
0000
0000
0000
0000
,
1000
0000
0100
0000
,
0001
0000
0010
0000
,
1000
0000
0010
0000
,
0001
0000
0100
0000
,
1000
0010
0100
0000
,
0001
0010
0100
0000
,
1000
0000
0001
0000
,
1000
0100
0010
0010
,
0001
0100
0010
0000
,
1000
0010
0100
0000
,
0001
0000
1000
0000
,
0100
0010
0001
0001
,
0100
0000
0010
0000
,
1000
0001
1000
0000
,
0100
0000
0010
0000
,
0001
1000
0001
0000
,
0000
1000
0000
1000
,
0000
0001
0000
0001
,
0000
0100
0000
0100
,
0000
0010
0000
0010
,
1000
0100
0000
0100
,
0000
0010
0000
0010
,
0000
0001
0000
0001
,
0000
0100
0000
0100
,
0010
1000
0000
1000
,
0000
0001
0000
0001
,
0000
0010
0000
0010
,
0000
0100
0000
0100
,
1000
0001
0000
0001
,
0000
0100
0000
0100
,
0000
0001
0000
0001
,
0000
0010
0000
0010
,
0100
1000
0100
0000
,
1000
0000
0001
0000
,
0100
0001
0100
0000
,
0010
0000
1000
0000
,
0001
0010
0001
0000
,
1000
0000
0100
0000
,
0010
0100
1000
0000
,
0001
0000
0100
0000
,
0010
0100
0001
0000
,
1000
0000
0001
0000
,
0100
0010
1000
0000
,
0001
0000
0100
0000
,
0010
0001
1000
0000
,
0100
0000
0010
0000
,
0100
1000
0100
0000
,
0010
0001
0010
0000
,
0100
0000
1000
0000
,
0010
0100
0001
0000
,
1000
0100
0001
0000
,
0010
0100
1000
0000
,
0001
0000
0100
0000
,
0001
0100
1000
0000
,
0100
0000
0001
0000
,
0010
0010
0010
0000
,
1000
0000
0001
0000
,
0200
0000
0300
0000
,
0001
0000
1000
0000
,
0010
0010
0010
0000
,
0001
0000
0100
0000
,
0020
0000
0030
0000
,
1000
0000
0100
0000
,
1000
0000
0001
0000
,
0100
0010
1000
0100
,
0010
0000
0001
0000
,
0100
0000
0001
0000
,
0010
0000
0100
0000
,
1000
0100
0010
0001
,
0100
1000
0001
0000
,
0010
0000
0100
0000
,
1000
0100
0010
0000
,
0001
0000
0100
0000
,
0001
0010
1000
0000
,
0001
0000
0100
0000
,
0010
1000
0001
0000
,
0100
0000
0010
0000
,
0100
1000
0001
0100
,
0020
0000
0000
0000
,
0000
0000
0000
0030
;

//---------------dance-single - ----------------
#NOTES:
     dance-single:
     :
     Beginner:
     2:
     0.112,0.174,0.000,0.025,0.000:
0000
0000
0000
0000
,
0000
0000
0000
0000
,
0000
0000
0000
0000
,
0000
0000
0000
0000
,
0000
0000
0000
0000
,
1000
0000
0000
0000
,
0001
0000
0000
0000
,
1000
0000
0000
0000
,
0001
0000
0000
0000
,
0100
0000
0000
0000
,
0100
0000
0000
0000
,
0010
0000
0010
0000
,
0010
0000
0000
0000
,
1000
0000
0000
0000
,
0001
0000
0000
0000
,
0010
0000
0010
0000
,
0010
0000
0000
0000
,
0100
0000
0000
0000
,
0000
0000
0000
0000
,
1000
0000
0000
0000
,
0000
0000
0000
0000
,
0001
0000
0000
0000
,
0100
0000
0000
0000
,
0001
0000
0001
0000
,
0001
0000
0000
0000
,
1000
0000
0000
0000
,
0100
0000
0000
0000
,
1000
0000
1000
0000
,
1000
0000
0000
0000
,
0010
0000
0000
0000
,
0100
0000
0000
0000
,
0001
0000
0001
0000
,
0001
0000
0000
0000
,
0010
0000
0000
0000
,
0100
0000
0000
0000
,
1000
0000
1000
0000
,
1000
0000
0000
0000
,
0001
0000
0000
0000
,
0010
0000
0000
0000
,
1000
0000
0000
0000
,
0100
0000
0000
0000
,
0001
0000
0000
0000
,
0100
0000
0000
0000
,
1000
0000
0000
0000
,
0010
0000
0000
0000
,
0001
0000
0000
0000
,
1000
0000
0000
0000
,
0100
0000
0100
0000
,
0100
0000
0000
0000
,
0010
0000
0000
0000
,
0001
0000
0000
0000
,
0100
0000
0100
0000
,
0100
0000
0000
0000
,
0001
0000
0001
0000
,
0001
0000
0000
0000
,
1000
0000
1000
0000
,
1000
0000
0000
0000
,
0100
0000
0100
0000
,
0100
0000
0000
0000
,
0010
0000
0000
0000
,
0010
0000
0000
0000
,
0020
0000
0000
0000
,
0030
0000
0000
0000
,
0100
0000
0000
0000
,
0100
0000
0000
0000
,
0200
0000
0000
0000
,
0300
0000
0000
0000
,
1000
0000
0000
0000
,
0100
0000
0000
0000
,
0001
0000
0000
0000
,
0010
0000
0000
0000
,
1000
0000
0000
0000
,
0010
0000
0000
0000
,
0001
0000
0000
0000
,
0100
0000
0000
0000
,
1000
0000
1000
0000
,
0100
0000
0000
0000
,
0001
0000
0001
0000
,
0100
0000
0100
0000
,
0010
0000
0010
0000
,
1000
0000
0000
0000
,
0010
0000
0010
0000
,
0001
0000
0001
0000
,
0200
0000
0000
0000
,
0000
0000
0000
0300
;

//---------------dance-double - ----------------
#NOTES:
     dance-double:
     :
     Medium:
     9:
     0.452,0.488,0.115,0.181,0.000: // measure 1
00000000
00000000
00000000
00000000
,  // measure 2
00000000
00000000
00000000
00000000
,  // measure 3
00000000
00000000
00000000
00000000
,  // measure 4
00000000
00000000
00000000
00000000
,  // measure 5
00000000
00000000
00000000
00000000
,  // measure 6
10000000
01000000
00100000
00010000
,  // measure 7
01000000
00001000
00010000
00000100
,  // measure 8
00001000
00000010
00000100
00000001
,  // measure 9
00001000
00000100
00010000
00001000
,  // measure 10
01000000
00000000
00010000
00000000
00100000
01000000
10000000
00000000
,  // measure 11
01000000
00000000
00010000
00000000
00001000
00000010
00000001
00000000
,  // measure 12
00000100
00000010
00000100
00001000
,  // measure 13
00010000
00000000
00001000
00000000
00000010
00000001
00001000
00000000
,  // measure 14
00000100
00000000
00001000
00000000
00000010
00000100
00000001
00000000
,  // measure 15
00000100
00000000
00001000
00000000
00010000
00100000
10000000
00000000
,  // measure 16
01000000
00100000
01000000
00010000
,  // measure 17
00001000
00000000
00010000
00000000
00100000
10000000
00010000
00000000
,  // measure 18
10000000
10000000
00010000
00010000
,  // measure 19
00001000
00000001
00001000
00000000
,  // measure 20
00000001
00000001
00001000
00001000
,  // measure 21
00010000
10000000
00010000
00000000
,  // measure 22
11000000
10000000
00010000
01000000
,  // measure 23
00001000
00010000
00000100
00000010
,  // measure 24
00000001
00000100
00000010
00000000
00000100
00000000
00001000
00000000
,  // measure 25
00010000
00001000
00000100
00000001
,  // measure 26
00000101
00000100
00000010
00001000
,  // measure 27
00000100
00010000
00001000
01000000
,  // measure 28
00010000
00100000
00001000
00000000
00010000
00000000
00000100
00000000
,  // measure 29
00000010
00000001
00000100
00000001
,  // measure 30
00000101
00000001
00001000
00000100
,  // measure 31
00010000
00001000
01000000
00100000
,  // measure 32
10000000
01000000
00100000
00000000
01000000
00000000
00010000
00000000
,  // measure 33
00001000
00010000
01000000
10000000
,  // measure 34
11000000
01000000
00100000
00010000
,  // measure 35
01000000
00001000
00010000
00000100
,  // measure 36
00001000
00000010
00010000
00000000
00001000
00000000
01000000
00000000
,  // measure 37
00100000
10000000
01000000
10000000
,  // measure 38
10200000
01000000
10000000
01300000
,  // measure 39
00010000
00100000
00001000
00000100
,  // measure 40
00000102
00000010
00000100
00000013
,  // measure 41
00000001
00000100
00001000
00010000
00001000
00000100
00000001
00000000
,  // measure 42
00000021
00000100
00000001
00000130
,  // measure 43
00001000
00000010
00010000
01000000
,  // measure 44
21000000
00100000
01000000
30100000
,  // measure 45
10000000
01000000
00010000
00001000
00010000
01000000
10000000
00000000
,  // measure 46
12000000
00100000
10000000
03100000
,  // measure 47
00010000
01000000
00001000
00000010
,  // measure 48
00000012
00000100
00000010
00000103
,  // measure 49
00000001
00000010
00001000
00010000
00001000
00000010
00000001
00000000
,  // measure 50
00000021
00000100
00000001
00000130
,  // measure 51
00001000
00000010
00010000
00000000
01000000
00000000
10000000
00000000
,  // measure 52
10010000
00000000
00010000
00000000
00100000
01000000
10000000
00000000
,  // measure 53
01000000
00000000
00010000
00000000
00001000
00000010
00000001
00000000
,  // measure 54
00000100
00000010
00000100
00001000
,  // measure 55
00010000
00000000
00001000
00000000
00000010
00000001
00001000
00000000
,  // measure 56
00000100
00000000
00001000
00000000
00000010
00000100
00000001
00000000
,  // measure 57
00000100
00000000
00001000
00000000
00010000
00100000
10000000
00000000
,  // measure 58
01000000
00100000
01000000
00010000
,  // measure 59
00001000
00000000
00010000
00000000
00100000
10000000
00010000
00000000
,  // measure 60
20000000
00000000
30020000
00000000
,  // measure 61
02030000
03002000
00023000
00030000
,  // measure 62
00000100
00000100
00000010
00000010
,  // measure 63
00002002
00000000
00003003
00000000
,  // measure 64
00000002
00000100
00002003
00000100
,  // measure 65
00003020
00020030
00032000
01003000
,  // measure 66
00100000
10000000
01000000
00000000
01000000
10000000
00100000
00000000
,  // measure 67
02000000
00000000
03000000
00000000
,  // measure 68
00100000
00000000
10000000
00000000
00010000
01000000
00001000
00000000
,  // measure 69
00010000
00000000
00000100
00000000
00000010
00000001
00000100
00000000
,  // measure 70
00001000
00010000
00001000
00000100
,  // measure 71
00000001
00000000
00000010
00000000
00001000
00010000
01000000
00000000
,  // measure 72
10000000
00000000
00010000
00000000
01000000
00100000
10000000
00000000
,  // measure 73
00100000
00000000
10000000
00000000
01000000
00010000
00001000
00000000
,  // measure 74
00000010
00000001
00000100
00000010
,  // measure 75
00001000
00000100
00010000
00001000
00100000
00010000
01000000
00000000
,  // measure 76
01000000
00000000
00010000
00000000
00100000
01000000
10000000
00000000
,  // measure 77
01000000
00000000
00010000
00000000
00001000
00000010
00000001
00000000
,  // measure 78
00000100
00000010
00000100
00001000
,  // measure 79
00010000
00001000
00010000
00000100
00000010
00000001
00001000
00000000
,  // measure 80
00000100
00000000
00001000
00000000
00000010
00000100
00000001
00000000
,  // measure 81
00000100
00000000
00001000
00000000
00010000
00100000
10000000
00000000
,  // measure 82
01000000
00100000
01000000
00010000
,  // measure 83
00001000
01000000
00010000
01000000
00100000
10000000
00010000
00000000
,  // measure 84
20020000
00000000
00000000
00000000
,  // measure 85
00000000
00000000
00000000
30030000
;

//---------------dance-double - ----------------
#NOTES:
     dance-double:
     :
     Easy:
     5:
     0.225,0.244,0.000,0.008,0.000: // measure 1
00000000
00000000
00000000
00000000
,  // measure 2
00000000
00000000
00000000
00000000
,  // measure 3
00000000
00000000
00000000
00000000
,  // measure 4
00000000
00000000
00000000
00000000
,  // measure 5
00000000
00000000
00000000
00000000
,  // measure 6
00010000
00000000
01000000
00000000
,  // measure 7
10000000
00000000
01000000
00000000
,  // measure 8
00010000
00000000
00001000
00000000
,  // measure 9
00000010
00000000
00001000
00000000
,  // measure 10
00010000
00010000
00001000
00000000
,  // measure 11
00001000
00001000
00000100
00000000
,  // measure 12
00000001
00000000
00000100
00000000
,  // measure 13
00001000
00001000
00010000
00000000
,  // measure 14
00010000
00000000
01000000
00000000
,  // measure 15
10000000
00000000
01000000
00000000
,  // measure 16
00010000
00000000
00001000
00000000
,  // measure 17
00000100
00000100
00000001
00001000
,  // measure 18
00000100
00000000
00000010
00000000
,  // measure 19
00000001
00000001
00000100
00000000
,  // measure 20
00001000
00000000
00010000
00000000
,  // measure 21
00100000
00100000
10000000
00000000
,  // measure 22
00010000
00000000
00100000
00000000
,  // measure 23
01000000
10000000
00010000
00000000
,  // measure 24
01000000
00000000
00010000
00000000
,  // measure 25
00100000
00000000
00001000
00000000
,  // measure 26
00010000
00000000
00000010
00000000
,  // measure 27
00001000
00001000
00000100
00000000
,  // measure 28
00000010
00000000
00000001
00000000
,  // measure 29
00000100
00000000
00001000
00000000
,  // measure 30
00010000
00000000
01000000
00000000
,  // measure 31
10000000
10000000
00010000
00000000
,  // measure 32
00100000
00000000
00001000
00000000
,  // measure 33
00010000
00000000
00000010
00000000
,  // measure 34
00001000
00000000
00000100
00000000
,  // measure 35
00010000
00010000
00001000
00000000
,  // measure 36
01000000
00000000
00010000
00000000
,  // measure 37
10000000
00000000
01000000
00000000
,  // measure 38
00010000
00000000
00001000
00000000
,  // measure 39
00000010
00000001
00000100
00000001
,  // measure 40
00000010
00000000
00001000
00000000
,  // measure 41
00010000
00000000
01000000
00000000
,  // measure 42
10000000
00000000
00100000
00000000
,  // measure 43
00010000
00000000
00001000
00000000
,  // measure 44
00000100
00000001
00000010
00000001
,  // measure 45
00000100
00000000
00001000
00000000
,  // measure 46
00010000
00000000
00100000
00000000
,  // measure 47
10000000
00000000
00010000
00000000
,  // measure 48
00001000
00000000
00010000
00000000
,  // measure 49
01000000
00100000
10000000
00010000
,  // measure 50
00100000
00000000
00001000
00000000
,  // measure 51
00010000
00000000
00000100
00000000
,  // measure 52
00001000
00001000
00000001
00000000
,  // measure 53
00000001
00000001
00000100
00000000
,  // measure 54
00000100
00000100
00001000
00000000
,  // measure 55
00001000
00001000
00010000
00000000
,  // measure 56
00010000
00010000
00100000
00000000
,  // measure 57
00100000
00100000
10000000
00000000
,  // measure 58
10000000
10000000
01000000
00000000
,  // measure 59
01000000
01000000
00010000
00000000
,  // measure 60
00001000
00000000
00000010
00000000
,  // measure 61
00000001
00000100
00001000
00000000
,  // measure 62
00010000
00000000
00100000
00000000
,  // measure 63
10000000
00000000
00000000
00000000
,  // measure 64
01000000
00000000
00010000
00000000
,  // measure 65
00001000
00000010
00000001
00000000
,  // measure 66
00000100
00000000
00001000
00000000
,  // measure 67
00010000
00000000
00000000
00000000
,  // measure 68
00001000
00000000
00000100
00000000
,  // measure 69
00000001
00000000
00000100
00000000
,  // measure 70
00001000
00000000
00010000
00000000
,  // measure 71
01000000
10000000
01000000
00010000
,  // measure 72
00001000
00000000
00010000
00000000
,  // measure 73
00100000
00000000
10000000
00000000
,  // measure 74
00100000
00000000
00010000
00000000
,  // measure 75
00001000
00000010
00000001
00000010
,  // measure 76
00001000
00000000
00010000
00000000
,  // measure 77
00001000
01000000
00010000
00000000
,  // measure 78
10000000
00000000
01000000
00000000
,  // measure 79
00010000
00000000
00001000
00000000
,  // measure 80
00000010
00000000
00000001
00000000
,  // measure 81
00000100
00000010
00001000
00000000
,  // measure 82
00000100
00000000
00010000
00000000
,  // measure 83
00001000
01000000
00010000
10000000
,  // measure 84
02000000
00000000
00000000
00000000
,  // measure 85
00000000
00000000
00000000
03000000
;
