#TITLE:JOURNEY TO "FANTASICA" (IIDX LIMITED);
#SUBTITLE:;
#ARTIST:S.S.D.FANTASICA feat. EMI with ARATA;
#TITLETRANSLIT:;
#SUBTITLETRANSLIT:;
#ARTISTTRANSLIT:;
#GENRE:;
#CREDIT:;
#MENUCOLOR:;
#METERTYPE:DDR;
#BANNER:JOURNEY TO FANTASICA (IIDX LIMITED).png;
#BACKGROUND:JOURNEY TO FANTASICA (IIDX LIMITED)-bg.png;
#LYRICSPATH:;
#CDTITLE:cdtitle.png;
#MUSIC:JOURNEY TO FANTASICA (IIDX LIMITED).mp3;
#OFFSET:-0.025;
#SAMPLESTART:20.777;
#SAMPLELENGTH:15.000;
#SELECTABLE:YES;
#LISTSORT:;
#BPMS:0.000=260.000;
#STOPS:;
#BGCHANGES:;
#ATTACKS:;

//---------------dance-single - ----------------
#NOTES:
     dance-single:
     :
     Hard:
     12:
     0.640,0.641,0.132,0.414,0.000:
0000
0000
0000
0000
,
0000
0000
0000
0000
,
0000
0000
0000
0000
,
0000
0000
0000
0000
,
0000
0000
0000
0000
,
0000
0000
0000
0000
,
0000
0000
0000
0000
,
0000
0000
0000
0000
,
0000
0000
0000
0000
,
0101
0000
0000
0100
0000
0001
0100
0000
,
0010
0000
1000
0000
1100
0000
0000
0100
,
0000
1000
0100
0000
0020
0000
0030
0000
,
0011
0000
0000
0001
0000
1000
0010
0000
,
0100
0000
0001
0000
1000
0000
0001
0100
,
0000
1000
0100
0000
0020
0000
1030
0000
,
1100
0000
0000
0100
0000
1000
0100
0000
,
0010
0000
0001
0000
0101
0000
0000
0100
,
0000
0001
0100
0000
0020
0000
0030
0000
,
1010
0000
0000
1000
0000
0001
0010
0000
,
0100
0000
1000
0000
0001
0000
1000
0100
,
0000
0001
0100
0000
0020
0000
0031
0000
,
0000
2002
0000
0000
,
0000
0000
3003
0000
0110
0000
0100
1000
,
0100
0010
0001
0100
,
0010
1000
0100
0020
,
0001
0000
0130
0000
2000
0000
0000
0001
,
3000
0010
0100
0010
,
0002
0000
0000
1000
0003
0000
0010
0000
,
0100
0000
0010
0000
0110
0000
0100
0001
,
0100
0010
1000
0100
,
0010
0001
1000
0020
,
0000
0130
2002
0000
,
0000
0000
3003
0000
0000
0000
1000
0001
,
0200
0000
0310
0100
,
0010
0000
1000
0000
0001
0000
0010
0100
,
0000
0010
0100
0000
1000
0000
0001
0000
,
0100
0000
0010
0100
0000
0010
0100
0000
,
0002
0000
0000
0000
1003
0000
0100
0010
,
0000
0100
0010
0000
0001
0000
1000
0000
,
0010
0000
0100
0001
0000
1000
0010
0000
,
2000
0000
0000
0000
3001
0000
0010
0100
,
0000
0010
0100
0000
1000
0000
0010
0000
,
0100
0000
0001
1000
0000
0001
1000
0000
,
0020
0000
0000
0000
1030
0000
0100
0010
,
0000
0100
0010
0000
0001
0000
0100
0000
,
0010
0000
1000
0001
0000
0100
0010
0000
,
0200
0000
0000
0000
0310
0000
0000
1000
,
0100
0010
0100
1000
,
0001
0000
0000
0100
0010
0000
1000
0000
,
0001
0000
0010
0000
0100
0010
0000
0010
,
0000
0010
0001
0000
1000
0000
0010
0000
,
0100
0010
0000
0010
0000
0010
1000
0000
,
0002
0000
0000
0000
1003
0000
0000
0100
,
0010
0001
0100
0010
,
1000
0000
0000
0001
0100
0000
0010
0000
,
1000
0000
0100
0000
0010
0100
0000
0100
,
0000
0100
1000
0000
0001
0000
0100
0000
,
0010
0100
0000
0100
0000
0100
0001
0000
,
2000
0000
0010
0000
3001
0000
0000
0001
,
0100
0020
0000
1030
,
0100
0010
0100
1000
,
0001
0000
0100
0000
0010
0000
0000
0010
,
1000
0000
0001
0000
0000
0001
0010
0000
,
0200
0000
1300
0010
,
0100
0001
0020
0000
,
0031
0001
1000
0010
,
0100
0001
0100
1000
,
0100
0000
0010
0000
1000
0000
0000
1000
,
0100
0000
0010
0000
0000
0010
0001
0000
,
0200
0000
0310
0001
,
0010
1000
0001
0010
,
0001
0000
0010
0000
0100
0000
1000
0001
,
1000
2002
0000
0000
,
3003
0000
1000
0100
0020
0000
0100
0000
,
0130
0020
0001
0031
,
1000
0100
0001
0100
,
0010
0010
0200
1000
,
1300
0200
0001
0301
,
0100
1000
0001
0100
,
0010
0000
0010
1000
0002
0000
0010
0000
,
0013
0001
0200
0000
,
0310
1000
0100
0001
,
0100
0000
1000
0000
0001
0000
0000
0001
,
1000
0000
0100
0000
0000
0100
0010
0000
,
0001
0000
1000
0100
0000
1000
0100
0000
,
0010
0000
0010
0001
2000
0000
0100
0000
,
3100
2000
0010
3010
,
0100
0001
0100
1000
,
0100
0100
0002
0010
,
0013
0002
0100
0103
,
0001
0010
1000
0010
,
0001
0000
1000
0000
0100
0000
0000
1000
,
0001
0000
0100
0000
0000
0001
1000
0000
,
0010
0000
0000
0100
0001
0000
0010
0000
,
0000
0100
1000
0000
0020
0000
0000
0000
,
0100
0000
0130
0000
0010
0000
1000
0001
,
2000
0000
3100
0001
,
0100
0000
1000
0000
1100
0000
0100
0010
,
0001
0100
0010
1000
,
0001
0010
0100
2000
,
0010
0000
3001
0000
0200
0000
0000
0001
,
0300
0010
0100
1000
,
0020
0000
0000
0100
0030
0000
0001
0000
,
1000
0000
0001
0000
0101
0000
0100
0010
,
1000
0100
0010
0001
,
1000
0010
0100
0002
,
0000
0000
0013
0000
1001
0000
0000
0100
,
0000
0000
0100
0000
1000
0000
0100
0010
,
0002
0000
1003
0010
,
0001
0000
0010
0000
1000
0000
0100
0010
,
0000
0010
0001
0000
0010
0000
0100
0000
,
1000
0000
0001
0100
0000
0100
0010
0000
,
2000
0000
0001
0000
3100
0000
1000
0001
,
0000
0001
0100
0000
0010
0000
1000
0000
,
0100
0000
0010
0100
0000
0100
1000
0000
,
0002
0000
0000
0000
1003
0000
0010
0100
,
0000
0100
0001
0000
0100
0000
0010
0000
,
1000
0000
0001
0010
0000
0010
0100
0000
,
2000
0000
0001
0000
3010
0000
1000
0001
,
0000
0001
0010
0000
0100
0000
1000
0000
,
0010
0000
0100
0010
0000
0010
1000
0000
,
2002
0000
0000
3003
0000
0000
0000
0000
;

//---------------dance-single - ----------------
#NOTES:
     dance-single:
     :
     Medium:
     10:
     0.506,0.534,0.053,0.176,0.000:
0000
0000
0000
0000
,
0000
0000
0000
0000
,
0000
0000
0000
0000
,
0000
0000
0000
0000
,
0000
0000
0000
0000
,
0000
0000
0000
0000
,
0000
0000
0000
0000
,
0000
0000
0000
0000
,
0000
0000
0000
0000
,
1000
0000
0000
0100
0000
0000
0010
0000
,
0001
0000
0010
0000
0100
0000
0000
1000
,
0000
0010
0110
0000
,
0001
0000
0000
0100
0000
0000
0010
0000
,
1000
0000
0001
0000
0010
0000
0000
0100
,
0000
1000
1001
0000
,
0010
0000
0000
0100
0000
0000
0001
0000
,
1000
0000
0100
0000
0010
0000
0000
0001
,
0000
1000
1001
0000
,
0100
0000
0000
0010
0000
0000
1000
0000
,
0001
0000
0100
0000
0010
0000
0000
1000
,
0000
0100
0010
0001
,
0000
2002
0000
0000
,
3003
0010
0100
0001
,
0001
1000
0100
0010
,
0100
1000
0001
0100
,
0001
0000
1000
0000
0100
0000
0000
0100
,
0000
0100
0010
0001
,
0100
0000
0000
0100
0000
0000
0100
0000
,
0020
0000
1030
0100
,
0100
0010
0001
0100
,
0010
1000
0010
0200
,
0000
0301
2000
0000
,
0000
0000
3001
0100
,
0200
0000
0310
1000
,
0100
0000
0001
0000
0100
0000
0000
0100
,
0000
0100
0010
0001
,
0100
0000
0000
0100
0000
0000
0100
0000
,
0020
0000
0000
0000
0130
0000
0000
0100
,
0000
0100
0001
0010
,
0100
0000
0000
1000
0000
0000
0001
0000
,
1001
0000
0000
0000
0010
0000
0000
0010
,
0000
0010
0100
1000
,
0010
0000
0000
0010
0000
0000
0010
0000
,
0200
0000
0000
0000
0310
0000
0000
0010
,
0000
0010
1000
0100
,
0010
0000
0000
0001
0000
0000
1000
0000
,
1001
0000
0000
0000
0010
0000
0000
1000
,
0010
0100
0000
0001
,
1000
0000
0000
0001
1000
0000
0100
0000
,
0000
0000
0010
0000
0001
0000
0000
0001
,
0000
0001
1000
0100
,
0010
0000
0000
0010
0000
0000
0010
0000
,
0200
0000
0000
0000
0310
0000
0000
0001
,
0010
0100
0000
1000
,
0001
0000
0000
1000
0001
0000
0100
0000
,
0000
0000
0010
0000
1000
0000
0000
1000
,
0000
1000
0001
0100
,
0010
0000
0000
0010
0000
0000
0010
0000
,
0200
0010
0310
1000
,
0100
0100
0010
0001
,
0001
1000
0010
0100
,
0002
0010
0013
0100
,
1000
1000
0001
0100
,
0100
0000
0010
0100
,
0001
0010
0100
1000
,
0010
0100
0010
1000
,
0100
0010
0001
0100
,
0001
1000
0100
0010
,
0010
0001
0100
0100
,
0020
0000
1030
0001
,
1000
0100
0020
0000
,
0031
0100
0001
1000
,
0100
0000
0010
0000
0001
0000
0000
1000
,
0001
1000
0000
0000
0100
0000
0010
0000
,
0001
0100
0000
0001
,
0100
0010
1000
0100
,
0000
0001
0100
0010
,
0001
0100
0000
1000
,
0100
0000
0010
1000
,
0100
0010
0001
0000
,
0100
1000
0100
0000
,
0001
0010
0100
1000
,
0100
0001
0100
0000
,
0100
1000
0000
1000
,
0010
0000
0100
0001
,
1000
0100
0010
0000
,
0001
0100
0000
1000
,
0100
0000
0001
0010
,
0000
1000
0010
0000
,
0001
0100
1000
0100
,
0001
0000
0010
0100
,
1000
0100
0001
0000
,
0100
1000
0000
0010
,
0100
0000
0001
0010
,
0000
0100
1000
0100
,
0010
0000
0001
0000
0100
0000
0010
0100
,
0020
0000
0130
0001
,
1000
0100
0100
0010
,
0010
0001
0100
0010
,
1000
0100
0010
0001
,
0100
0000
1000
0000
0100
0000
0000
0100
,
0000
0100
0010
1000
,
0001
0000
0000
0001
0000
0000
0001
0000
,
2000
0000
3001
0010
,
0010
0100
1000
0001
,
0100
0010
0100
0001
,
0000
0010
0200
0000
,
0000
0000
1300
0100
,
0010
0000
0001
0100
,
1000
0100
0001
1000
,
0010
1000
0100
0100
,
0001
0010
0001
0100
,
0020
0000
1030
0001
,
1000
0010
0100
0100
,
1000
0010
0100
0001
,
0020
0000
0000
0000
0130
0000
1000
0010
,
0000
1000
0010
0000
0100
0000
0100
0000
,
1000
0000
0001
0010
0000
0001
0010
0000
,
0002
0000
0000
0000
1003
0000
0001
0010
,
0000
0001
0010
0000
0100
0000
0100
0000
,
0001
0000
1000
0100
0000
1000
0100
0000
,
0020
0000
0000
0030
0000
0000
0000
0000
;

//---------------dance-single - ----------------
#NOTES:
     dance-single:
     :
     Easy:
     6:
     0.374,0.374,0.026,0.035,0.000:
0000
0000
0000
0000
,
0000
0000
0000
0000
,
0000
0000
0000
0000
,
0000
0000
0000
0000
,
0000
0000
0000
0000
,
0000
0000
0000
0000
,
0000
0000
0000
0000
,
0000
0000
0000
0000
,
0000
0000
0000
0000
,
1000
0000
0000
1000
,
0100
0010
0001
0000
,
0000
0001
0100
0010
,
1000
0000
0000
1000
,
0010
0100
0001
0010
,
0100
1000
1001
0000
,
0010
0000
0000
0100
,
0001
0010
0100
0000
,
0000
0100
1000
0010
,
0100
0000
0000
0100
,
0001
0010
0100
1000
,
0001
0100
0110
0000
,
1001
0000
0000
0000
,
0000
0000
0010
0000
,
0100
0001
0000
0001
,
0100
0000
0010
1000
,
0000
1000
0010
0000
,
0000
0100
0001
1000
,
0100
0000
0000
0100
,
1000
0001
0100
0000
,
0010
1000
0000
1000
,
0010
0000
0100
0001
,
0000
0001
0200
0000
,
0300
0000
0000
0010
,
1000
0000
1000
0010
,
0000
0100
0001
0000
,
0000
1000
0100
0010
,
0001
0000
0000
0001
,
0010
0000
0100
0000
,
0000
1000
0010
0100
,
0001
0000
0000
0001
,
0100
0000
0010
0000
,
0000
0010
1000
0001
,
0010
0000
0000
0010
,
0100
0000
1000
0000
,
0000
0100
0010
0001
,
0100
0000
0000
0010
,
1000
0000
0001
0000
,
1000
0001
0000
1000
,
0100
0000
1000
0010
,
0000
1000
0100
0000
,
0000
0100
0010
0001
,
0100
0000
0000
0010
,
1000
0000
0001
0000
,
0010
0001
0000
0100
,
0001
0000
1000
0001
,
0000
0010
0001
0000
,
0000
0010
0100
1000
,
0010
0000
0000
0100
,
0001
0000
1000
0000
,
0100
1000
0000
0001
,
1000
0000
0100
1000
,
0000
0010
0100
0000
,
0001
0010
0000
0001
,
0100
0000
0010
0010
,
0000
0100
0001
0000
,
1000
0100
0000
0010
,
0001
0000
0100
0010
,
0000
1000
0100
0000
,
1000
0010
0000
1000
,
0100
0000
0010
0001
,
0000
0100
0010
0000
,
0100
0001
1000
0100
,
0020
0000
0000
0030
,
0000
0001
0100
0000
,
1000
0100
0000
0001
,
0010
0000
1000
0010
,
0000
0001
0100
0000
,
1000
0010
0000
0001
,
0100
0000
0001
0010
,
0100
1000
0001
0000
,
1000
0100
1000
0000
,
0001
0100
0001
0000
,
1000
0000
0100
0000
,
0010
0001
0000
0001
,
0200
0000
0300
0000
,
0000
0010
1000
0000
,
0001
0100
0000
0010
,
1000
0000
0100
0001
,
0000
0010
1000
0000
,
0001
0100
0000
0010
,
1000
0000
0100
0001
,
1000
0100
1000
0000
,
0001
0100
0000
1000
,
0100
0000
0010
0100
,
0000
0001
0100
0000
,
0010
0100
0001
0010
,
0100
0000
1000
0100
,
0010
0001
1000
0000
,
0010
0100
0001
0100
,
0010
0000
1000
0100
,
0000
0100
1000
0000
,
0001
0100
0000
0100
,
0001
0000
1000
0100
,
0000
0100
1000
0000
,
0001
0100
0010
0100
,
0001
0000
1000
0010
,
0000
0010
1000
0000
,
0001
0010
0000
0010
,
0001
0000
1000
0100
,
0000
0010
0001
0000
,
0000
0100
0001
1000
,
0100
0000
0000
0100
,
1000
0000
0001
0000
,
0000
0100
0010
1000
,
0100
0000
0000
0010
,
0001
0000
1000
0000
,
0000
0010
1000
0001
,
0010
0000
0000
0100
,
1000
0000
0001
0000
,
0000
0100
1000
0001
,
0010
0000
0000
0010
,
0002
0000
0000
0003
0000
0000
0000
0000
;

//---------------dance-single - ----------------
#NOTES:
     dance-single:
     :
     Beginner:
     3:
     0.196,0.267,0.018,0.158,0.000:
0000
0000
0000
0000
,
0000
0000
0000
0000
,
0000
0000
0000
0000
,
0000
0000
0000
0000
,
0000
0000
0000
0000
,
0000
0000
0000
0000
,
0000
0000
0000
0000
,
0000
0000
0000
0000
,
0000
0000
0000
0000
,
1000
0000
0000
0001
,
0000
0000
0100
0000
,
0000
0010
0000
0000
,
0100
0000
0000
0001
,
0000
0000
1000
0000
,
0000
0100
0000
0000
,
0010
0000
0000
0001
,
0000
0000
0100
0000
,
0000
0010
0000
0000
,
0100
0000
0000
0001
,
0000
0000
1000
0000
,
0000
0100
0000
0000
,
0020
0000
0030
0000
,
0000
0000
0001
0000
,
0000
0100
0000
0000
,
0010
0000
0000
1000
,
0000
0000
0200
0000
,
0000
0300
0000
0000
,
0020
0000
0000
0030
,
0000
0000
0001
0000
,
0000
1000
0000
0000
,
0100
0000
0000
0010
,
0000
0000
0002
0000
,
0000
0003
0000
0000
,
2000
0000
0000
3000
,
0000
0000
0010
0000
,
0000
0000
0100
0000
,
0001
0000
0000
0000
,
1000
0000
0001
0000
,
0000
0000
0010
0000
,
0100
0000
0000
0000
,
1000
0000
0100
0000
,
0000
0000
1000
0000
,
0001
0000
0000
0000
,
0100
0000
0010
0000
,
0000
0000
0100
0000
,
0001
0000
0000
0000
,
1000
0000
0100
0000
,
0000
1000
0000
0000
,
0001
0000
0000
0100
,
0000
0000
0020
0000
,
0000
0000
0030
0000
,
0200
0000
0000
0000
,
0300
0000
0001
0000
,
0000
1000
0000
0000
,
0100
0000
0000
0010
,
0000
0000
0200
0000
,
0000
0000
0300
0000
,
0020
0000
0000
0000
,
0030
0000
0001
0000
,
0000
0100
0000
0000
,
0010
0000
0000
1000
,
0000
0000
0100
0000
,
0000
0010
0000
0000
,
0002
0000
0000
0003
,
0000
0000
1000
0000
,
0000
0100
0000
0000
,
0010
0000
0000
0100
,
0000
0000
1000
0000
,
0000
0010
0000
0000
,
0100
0000
0000
0001
,
0000
0000
1000
0000
,
0000
0001
0010
0100
,
2000
0000
0000
3000
,
0000
0000
0001
0000
,
0000
0100
0000
0000
,
1000
0000
0000
0100
,
0000
0000
0001
0000
,
0000
0010
0000
0000
,
2000
0000
0000
3000
,
0000
0000
0001
0000
,
0000
0100
0000
0000
,
1000
0000
0000
0010
,
0000
0000
0001
0000
,
0000
0010
0000
0000
,
2000
0000
0000
3000
,
0000
0000
0001
0000
,
0000
0100
0000
0000
,
1000
0000
0000
0010
,
0000
0000
0001
0000
,
0000
0100
0000
0000
,
2000
0000
0000
3000
,
0000
0000
0001
0000
,
0000
0010
0000
0000
,
1000
0000
0000
0100
,
0000
0000
0020
0000
,
0000
0030
0000
0000
,
2002
0000
0000
3003
,
0000
0000
0010
0000
,
0000
0000
1000
0000
,
0100
0000
0000
0000
,
0010
0000
0001
0000
,
0000
0000
0001
0000
,
0100
0000
0000
0000
,
0100
0000
0010
0000
,
0000
0000
0010
0000
,
1000
0000
0000
0000
,
1000
0000
0001
0000
,
0000
0000
1000
0000
,
1001
0000
0000
0100
,
0000
0000
0010
0000
,
0000
0000
0010
0000
,
1000
0000
0000
0000
,
1000
0000
0001
0000
,
0000
0000
0001
0000
,
0010
0000
0000
0000
,
0010
0000
0100
0000
,
0000
0000
0100
0000
,
1000
0000
0000
0000
,
1000
0000
0001
0000
,
0000
0000
0001
0000
,
0010
0000
0000
0000
,
0020
0000
0000
0030
0000
0000
0000
0000
;

//---------------dance-double - ----------------
#NOTES:
     dance-double:
     :
     Hard:
     12:
     0.633,0.641,0.026,0.264,0.000:
00000000
00000000
00000000
00000000
,
00000000
00000000
00000000
00000000
,
00000000
00000000
00000000
00000000
,
00000000
00000000
00000000
00000000
,
00000000
00000000
00000000
00000000
,
00000000
00000000
00000000
00000000
,
00000000
00000000
00000000
00000000
,
00000000
00000000
00000000
00000000
,
00000000
00000000
10000000
10000000
,
10000000
01000000
00000000
00010000
00000000
00001000
00000100
00000000
,
00000001
00000000
00000010
00000000
00000001
00000100
00000000
00001000
,
00000000
00010000
01000000
00000000
20000000
00000000
30100000
00000000
,
10000000
01000000
00000000
00010000
00000000
00001000
00000010
00000000
,
00000001
00000000
00000100
00000000
00000001
00000000
00000010
00001000
,
00000000
00010000
01000000
00000000
10000000
00000000
00100000
00000000
,
10000000
01000000
00000000
00010000
00000000
00001000
00000100
00000000
,
00000001
00000000
00000010
00000000
00000001
00000100
00000000
00001000
,
00000000
00010000
00100000
00000000
10000000
00000000
00010000
00000000
,
10000000
01000000
00000000
00010000
00000000
00001000
00000010
00000000
,
00000001
00000000
00000100
00000000
00000001
00000000
00000010
00001000
,
00000000
00010000
01000000
00000000
10000000
00000000
00100000
00000000
,
10000000
00000000
01000000
00000000
01000000
00000000
00000000
00100000
,
00010000
00100000
00000000
00000000
01000000
00000000
10000000
00010000
,
10000000
01000000
00010000
00001000
,
00000100
00000010
00001000
00000100
,
00000010
00000000
00000001
00000000
00000200
00000000
00000310
00001000
,
00000000
00000100
00010000
00000000
00001000
00000000
00000100
00000000
,
00000010
00000000
00001000
00000100
00000000
00010000
00001000
00000000
,
00000100
00000000
00000001
00000000
00000010
00000000
00000001
00001000
,
00000001
00000100
00001000
00010000
,
00100000
01000000
00010000
00200000
,
00000000
01300000
20020000
00000000
,
00000000
00000000
00000000
00000000
30030000
00000000
10000000
01000000
,
00020000
00000000
00031000
00010000
,
00001000
00000000
00000100
00000000
00000001
00000000
00000100
00001000
,
00000000
00010000
01000000
00000000
10000000
00000000
00100000
00000000
,
10000000
00000000
01000000
00010000
00000000
00001000
00000100
00000000
,
00000002
00000000
00000003
00000000
00000001
00000000
00000010
00001000
,
00000000
00010000
00100000
00000000
10000000
00000000
00010000
00000000
,
10000000
00000000
01000000
00010000
00000000
00001000
00000100
00000000
,
00000001
00000000
00001000
00000000
00000001
00000000
00000010
00001000
,
00000000
00010000
01000000
00000000
10000000
00000000
00010000
00000000
,
10000000
00000000
00100000
00010000
00000000
00001000
00000100
00000000
,
00000002
00000000
00000003
00000000
00000001
00000000
00000010
00001000
,
00000000
00010000
01000000
00000000
10000000
00000000
00010000
00000000
,
10000000
00000000
00100000
00010000
00000000
00001000
00000100
00000000
,
00000001
00000000
00000010
00000000
00000001
00000000
00000000
00000001
,
00000100
00000010
00001000
00000100
,
00010000
00000000
00000000
00010000
00001000
00000000
01000000
00000000
,
00010000
00000000
00100000
00000000
01000000
10000000
00000000
00010000
,
00000000
10000000
01000000
00000000
00100000
00000000
00010000
00000000
,
00000010
00000001
00000000
00001000
00000000
00000001
00000010
00000000
,
00000200
00000000
00001000
00000000
00000310
00000000
00000000
00000001
,
00000100
00001000
00010000
01000000
,
10000000
00000000
00000000
00100000
10000000
00000000
01000000
00000000
,
00010000
00000000
00001000
00000000
00000010
00000001
00000000
00000100
,
00000000
00000001
00000010
00000000
00001000
00000000
00100000
00000000
,
01000000
10000000
00000000
00100000
00000000
10000000
01000000
00000000
,
00200000
00000000
00001000
00000000
00310000
00000000
00000000
00100000
,
01000000
10000000
00000000
01000000
,
00010000
00000100
00010000
01000000
,
00100000
00000000
00001000
00000000
00000010
00000000
00000000
00000001
,
00000100
00000000
00001000
00000000
00000000
01000000
00010000
00000000
,
00100000
00000000
01000000
01000000
,
10000000
01000000
00010000
00000000
,
00001000
00001000
00000100
00000010
,
00010000
01000000
10000000
00100000
,
00010000
00000000
00000100
00000000
00001000
00000000
00000000
00000001
,
00000100
00000000
00001000
00000000
00000000
00010000
01000000
00000000
,
20000000
30000000
10000000
00100000
,
00010000
00001000
00000200
00000000
,
00000301
00001000
00000100
00010100
,
00011000
00000000
00001000
00000000
01000000
00000000
00000000
00010000
,
00100000
00010000
00000000
00000000
20000000
00000000
01000000
00000000
,
30010000
00200000
00010000
00301000
,
00010000
00000100
00000001
00000100
,
00001000
00001000
00000002
00000100
,
00001003
00000020
00001000
00010030
,
00001000
01000000
10000000
01000000
,
00010000
00000000
10000000
00010000
10000000
00000000
01000000
00000000
,
00010000
00001000
00200000
00000000
,
00301000
00000100
00000001
00000010
,
00001000
00000000
00010000
00000000
01000000
00000000
00000000
10000000
,
00100000
00000000
00010000
00000000
00000000
00001000
00000100
00000000
,
00000001
00000000
00000010
00000100
00000000
00000010
00000100
00000000
,
00001000
00000000
00000001
00001000
00000002
00000000
00000100
00000000
,
00001003
00000020
00001000
00010030
,
00001000
01000000
10000000
01000000
,
00010000
00010000
20000000
01000000
,
30010000
00200000
00010000
00301000
,
00010000
00000100
00000001
00000100
,
00001000
00000000
00000001
00000000
00001000
00000000
00000000
00010000
,
01000000
00000000
00200000
00000000
00300000
10000000
01000000
00000000
,
00020000
00000000
00030000
00001000
00000100
00000000
00000002
00000000
,
00000003
00000010
00001000
00000000
02000000
00000000
00000000
00000000
,
00000000
03000000
00000000
00000000
00000000
00000000
00010000
10000000
,
02000000
00000000
03010000
00001000
,
00000010
00000000
00000001
00000000
00000100
00000000
00000001
00000100
,
00001000
00010000
01000000
10000000
,
00100000
00010000
00001000
01000000
,
10000000
00000000
01000000
00000000
00100000
00000000
10000000
01000000
,
00000000
01000000
00010000
00000000
01000000
00000000
10000000
00000000
,
00010000
00000000
10000000
00100000
00000000
00100000
00010000
00000000
,
00100000
00000000
10000000
00000000
01000000
00000000
10000000
01000000
,
00010000
00001000
00000100
00000001
,
00000010
00001000
00010000
00000100
,
00000001
00000100
00000020
00000000
,
00000000
00000000
00000000
00000030
00000000
00000000
00000001
00000100
,
00002000
00000000
00013000
01000000
,
10000000
00000000
01000000
00000000
00001000
00000000
00000100
00000010
,
00000000
00000100
00000010
00000000
00000001
00000000
00000100
00000000
,
00010000
00000000
01000000
00100000
00000000
01000000
00100000
00000000
,
20000000
00000000
00000000
00000000
30010000
00000000
01000000
00100000
,
00000000
01000000
00100000
00000000
00010000
00000000
00001000
00000000
,
00000100
00000000
00000010
00001000
00000000
00000010
00000100
00000000
,
00000001
00000000
00001000
00000000
00000001
00000000
00000010
00000100
,
00000000
00000010
00000100
00000000
00010000
00000000
01000000
00000000
,
10000000
00000000
00100000
01000000
00000000
00100000
01000000
00000000
,
00020000
00000000
00000000
00000000
10030000
00000000
01000000
00100000
,
00000000
01000000
00100000
00000000
00010000
00000000
00000010
00000000
,
00000001
00000000
00000100
00001000
00000000
00000100
00000001
00000000
,
00001000
00000100
00001000
00000100
00000000
00000000
00000000
00000000
;

//---------------dance-double - ----------------
#NOTES:
     dance-double:
     :
     Medium:
     10:
     0.477,0.534,0.000,0.132,0.000: // measure 1
00000000
00000000
00000000
00000000
,  // measure 2
00000000
00000000
00000000
00000000
,  // measure 3
00000000
00000000
00000000
00000000
,  // measure 4
00000000
00000000
00000000
00000000
,  // measure 5
00000000
00000000
00000000
00000000
,  // measure 6
00000000
00000000
00000000
00000000
,  // measure 7
00000000
00000000
00000000
00000000
,  // measure 8
00000000
00000000
00000000
00000000
,  // measure 9
00000000
00000000
00000000
00000000
,  // measure 10
10000000
00000000
00000000
01000000
00000000
00000000
00100000
00000000
,  // measure 11
00010000
00000000
01000000
00000000
00001000
00000000
00000000
00010000
,  // measure 12
00000000
00000100
00001000
00000000
,  // measure 13
00000010
00000000
00000000
00000100
00000000
00000000
00000001
00000000
,  // measure 14
00000010
00000000
00000100
00000000
00010000
00000000
00000000
00001000
,  // measure 15
00000000
01000000
00010000
00010000
,  // measure 16
10000000
00000000
00000000
00100000
00000000
00000000
01000000
00000000
,  // measure 17
00010000
00000000
00100000
00000000
00001000
00000000
00000000
00010000
,  // measure 18
00000000
00000010
00001000
00000000
,  // measure 19
00000100
00000000
00000000
00000010
00000000
00000000
00000001
00000000
,  // measure 20
00000100
00000000
00000010
00000000
00010000
00000000
00000000
00001000
,  // measure 21
00000000
00100000
00010000
00010000
,  // measure 22
00000000
02000000
00000000
00000000
,  // measure 23
03000000
00000000
00100000
00000000
00100000
00000000
10000000
01000000
,  // measure 24
10000000
00010000
01000000
00001000
,  // measure 25
00010000
00000100
00001000
00000001
,  // measure 26
00000100
00000001
00000020
00000000
,  // measure 27
00000000
00000030
00000100
00000100
,  // measure 28
00020000
00000000
00000000
00030000
,  // measure 29
00001000
00000000
00001000
00000000
01000000
00000000
00100000
10000000
,  // measure 30
00100000
01000000
00010000
00100000
,  // measure 31
00001000
00010000
00000010
00002000
,  // measure 32
00000000
00003001
00000020
00000000
,  // measure 33
00000000
00000000
00000030
00000000
00000000
00000000
00000001
00000100
,  // measure 34
00000002
00000000
00001003
00000100
,  // measure 35
00010000
00000000
00001000
00000000
01000000
00000000
00000000
01000000
,  // measure 36
00000000
01000000
00100000
10000000
,  // measure 37
01000000
00000000
00000000
01000000
00000000
00000000
01000000
00000000
,  // measure 38
00010000
00000000
00000000
00000000
00001000
00000000
00000000
00001000
,  // measure 39
00000000
00001000
00000100
00000010
,  // measure 40
00001000
00000000
00000000
00001000
00000000
00000000
00001000
00000000
,  // measure 41
00000001
00000000
00000010
00000000
00000001
00000000
00000000
00000001
,  // measure 42
00000000
00000001
00000100
00001000
,  // measure 43
00010000
00000000
00000000
00010000
00000000
00000000
00010000
00000000
,  // measure 44
01000000
00000000
00000000
00000000
10000000
00000000
00000000
10000000
,  // measure 45
00000000
10000000
00010000
00100000
,  // measure 46
00001000
00000000
00000000
00001000
00000000
00000000
00001000
00000000
,  // measure 47
00010000
00000100
00000010
00000000
,  // measure 48
00000001
00000100
00000001
00001000
,  // measure 49
00000100
00000000
00001000
00000100
,  // measure 50
00010000
00000000
00001000
00000000
00100000
00000000
00000000
00100000
,  // measure 51
00000000
00100000
00010000
10000000
,  // measure 52
00100000
00000000
00000000
00100000
00000000
00000000
00100000
00000000
,  // measure 53
10000000
00000000
00010000
00000000
,  // measure 54
00100000
00001000
00010000
00000010
,  // measure 55
00001000
00000000
00001000
00000010
,  // measure 56
00000100
00000000
00001000
00000000
00010000
00000000
00000000
00010000
,  // measure 57
00000000
00010000
00001000
01000000
,  // measure 58
00010000
00000000
00000000
00010000
00000000
00000000
00010000
00000000
,  // measure 59
10000000
01000000
00010000
00000000
,  // measure 60
00001000
00000100
00000000
00000001
,  // measure 61
00000100
00001000
00000100
00000010
,  // measure 62
00010000
00001000
01000000
00000000
,  // measure 63
00001000
00100000
00000000
01000000
,  // measure 64
20000000
00000000
00000000
30000000
,  // measure 65
01000000
00010000
00001000
00000000
,  // measure 66
00010000
00010000
00000100
00001000
,  // measure 67
00000010
00000010
00000100
00001000
,  // measure 68
00010000
01000000
10000000
00000000
,  // measure 69
10000000
00100000
00000000
00100000
,  // measure 70
00010000
00000000
00001000
00010000
,  // measure 71
00001000
00000100
00000020
00000000
,  // measure 72
00000030
00000100
00000100
00000001
,  // measure 73
00001000
00000200
00000000
00000000
,  // measure 74
00000300
00010000
00010000
00001000
,  // measure 75
01000000
01000000
00010000
00100000
,  // measure 76
00100000
01000000
10000000
00010000
,  // measure 77
01000000
00000000
00010000
00100000
,  // measure 78
00100000
00001000
00010000
00010000
,  // measure 79
00000100
00001000
00000010
00000100
,  // measure 80
00000001
00000000
00000010
00000001
,  // measure 81
00000001
00000100
00000010
00000010
,  // measure 82
00001000
00000100
00010000
00001000
,  // measure 83
01000000
00010000
10000000
01000000
,  // measure 84
01000000
00100000
00001000
00001000
,  // measure 85
00010000
00000000
00000100
00001000
,  // measure 86
00000010
00000100
00000001
00000010
,  // measure 87
00000010
00000100
00010000
00010000
,  // measure 88
00001000
01000000
00100000
10000000
,  // measure 89
01000000
00000000
10000000
01000000
,  // measure 90
01000000
00010000
00001000
00001000
,  // measure 91
00000100
00000001
00001000
00000100
,  // measure 92
00000010
00000000
00000001
00000100
,  // measure 93
00000001
00001000
00000100
00001000
,  // measure 94
00000010
00010000
00000010
00100000
,  // measure 95
00001000
00100000
02000000
00000000
,  // measure 96
00000000
00000000
03000000
00000000
00000000
00000000
10000000
00010000
,  // measure 97
10000000
00000000
01000000
00010000
,  // measure 98
00001000
00000000
00000100
00000000
00000001
00000000
00000001
00000100
,  // measure 99
00000001
00001000
00000100
00010000
,  // measure 100
00001000
01000000
00010000
10000000
,  // measure 101
01000000
10000000
00200000
00000000
,  // measure 102
00000000
00300000
01000000
01000000
,  // measure 103
00002000
00000000
00000000
00003000
,  // measure 104
00010000
00000000
00010000
00000000
00000100
00000000
00000010
00000001
,  // measure 105
00000010
00000100
00001000
00000010
,  // measure 106
00010000
00001000
00100000
00020000
,  // measure 107
00000000
10030000
00200000
00000000
,  // measure 108
00000000
00000000
00300000
00000000
00000000
00000000
10000000
01000000
,  // measure 109
20000000
00000000
30010000
01000000
,  // measure 110
00001000
00000000
00010000
00000000
00000100
00000000
00000000
00000100
,  // measure 111
00000000
00000100
00000010
00000001
,  // measure 112
00000100
00000000
00000000
00000100
00000000
00000000
00000100
00000000
,  // measure 113
00001000
00000000
00000000
00000000
00010000
00000000
00000000
00010000
,  // measure 114
00000000
00010000
01000000
00100000
,  // measure 115
00010000
00000000
00000000
00010000
00000000
00000000
00010000
00000000
,  // measure 116
10000000
00000000
00100000
00000000
10000000
00000000
00000000
10000000
,  // measure 117
00000000
10000000
01000000
00010000
,  // measure 118
00001000
00000000
00000000
00001000
00000000
00000000
00001000
00000000
,  // measure 119
00000100
00000000
00000000
00000000
00000001
00000000
00000000
00000001
,  // measure 120
00000000
00000001
00001000
00000010
,  // measure 121
00010000
00000000
00000000
00010000
00000000
00000000
00010000
00000000
,  // measure 122
00001000
01000000
00000000
00000000
;

//---------------dance-double - ----------------
#NOTES:
     dance-double:
     :
     Easy:
     7:
     0.360,0.427,0.000,0.053,0.000: // measure 1
00000000
00000000
00000000
00000000
,  // measure 2
00000000
00000000
00000000
00000000
,  // measure 3
00000000
00000000
00000000
00000000
,  // measure 4
00000000
00000000
00000000
00000000
,  // measure 5
00000000
00000000
00000000
00000000
,  // measure 6
00000000
00000000
00000000
00000000
,  // measure 7
00000000
00000000
00000000
00000000
,  // measure 8
00000000
00000000
00000000
00000000
,  // measure 9
00000000
00000000
00000000
00000000
,  // measure 10
10000000
00000000
00000000
01000000
,  // measure 11
00100000
01000000
10000000
00000000
,  // measure 12
00000000
00010000
01000000
00000000
,  // measure 13
00001000
00000000
00000000
00010000
,  // measure 14
00000100
00001000
00000010
00000000
,  // measure 15
00000000
00000100
00000001
00000000
,  // measure 16
00000010
00000000
00000000
00000001
,  // measure 17
00000100
00000001
00001000
00000000
,  // measure 18
00000000
00000100
00010000
00000000
,  // measure 19
00001000
00000000
00000000
01000000
,  // measure 20
00001000
00100000
01000000
00000000
,  // measure 21
00000000
10000000
01000000
00000000
,  // measure 22
00010000
00002000
00000000
00000000
,  // measure 23
00003000
00000000
00000100
00000010
,  // measure 24
00001000
00000100
00000010
00000001
,  // measure 25
00000100
00000000
00000001
00000010
,  // measure 26
00000000
00000001
00000100
00000000
,  // measure 27
00000000
00000000
00000000
00001000
,  // measure 28
00010000
00000000
00000000
00000000
,  // measure 29
00000000
00000000
01000000
10000000
,  // measure 30
00010000
01000000
00100000
10000000
,  // measure 31
01000000
00000000
00100000
01000000
,  // measure 32
00000000
10000000
00020000
00000000
,  // measure 33
00000000
00030000
00000000
00100000
,  // measure 34
00001000
00000000
00010000
00000100
,  // measure 35
00001000
00000100
00010000
00000000
,  // measure 36
00000000
00000100
00000010
00000001
,  // measure 37
00000100
00000000
00000000
00000001
,  // measure 38
00000010
00000000
00000100
00000000
,  // measure 39
00000000
00010000
00001000
01000000
,  // measure 40
00001000
00000000
00000000
01000000
,  // measure 41
00010000
00000000
10000000
00000000
,  // measure 42
00000000
01000000
00100000
00010000
,  // measure 43
01000000
00000000
00000000
00001000
,  // measure 44
01000000
00000000
00001000
00000000
,  // measure 45
00000000
00010000
00000100
00001000
,  // measure 46
00000010
00000000
00000000
00000100
,  // measure 47
00000001
00000000
00000010
00000000
,  // measure 48
00000010
00000001
00000000
00000001
,  // measure 49
00000100
00000000
00000100
00000010
,  // measure 50
00000000
00000010
00001000
00000000
,  // measure 51
00000000
00001000
00000100
00010000
,  // measure 52
00001000
00000000
00000000
00001000
,  // measure 53
01000000
00000000
00010000
00000000
,  // measure 54
00010000
10000000
00000000
10000000
,  // measure 55
01000000
00000000
01000000
00100000
,  // measure 56
00000000
00100000
00001000
00000000
,  // measure 57
00000000
00010000
00000100
00001000
,  // measure 58
00000010
00000000
00000000
00000100
,  // measure 59
00000001
00000000
00000010
00000000
,  // measure 60
00000100
00001000
00000000
00001000
,  // measure 61
00000100
00000000
00010000
00000100
,  // measure 62
00000000
00000100
00010000
00000000
,  // measure 63
00001000
01000000
00000000
01000000
,  // measure 64
00001000
00000000
00000000
00000000
,  // measure 65
00100000
00010000
10000000
00000000
,  // measure 66
10000000
01000000
00000000
01000000
,  // measure 67
00100000
00000000
00100000
00001000
,  // measure 68
00000000
00001000
00010000
00000000
,  // measure 69
00010000
00000100
00000000
00000100
,  // measure 70
00001000
00000000
00001000
00000010
,  // measure 71
00000000
00000010
00000100
00000000
,  // measure 72
00000000
00000100
00000001
00001000
,  // measure 73
00000100
00000020
00000000
00000000
,  // measure 74
00000030
00000000
00000001
00000000
,  // measure 75
00000001
00000100
00000000
00000100
,  // measure 76
00001000
00000000
00001000
00010000
,  // measure 77
00000000
00010000
01000000
00000000
,  // measure 78
01000000
10000000
00000000
10000000
,  // measure 79
00100000
00000000
00100000
00100000
,  // measure 80
01000000
00010000
10000000
00000000
,  // measure 81
10000000
01000000
00010000
00000000
,  // measure 82
00010000
00001000
00000000
00001000
,  // measure 83
00000100
00000001
00001000
00000000
,  // measure 84
00001000
00000001
00000000
00000001
,  // measure 85
00000010
00000000
00000010
00000001
,  // measure 86
00000100
00000010
00001000
00000000
,  // measure 87
00001000
00000100
00000000
00000100
,  // measure 88
00010000
00000000
00010000
00001000
,  // measure 89
00000000
00001000
00100000
00000000
,  // measure 90
00100000
00010000
00000000
00010000
,  // measure 91
10000000
00000000
10000000
01000000
,  // measure 92
00100000
00010000
01000000
00000000
,  // measure 93
01000000
00010000
00000000
00010000
,  // measure 94
00100000
00000000
00100000
00001000
,  // measure 95
00000000
00001000
00020000
00000000
,  // measure 96
00000000
00030000
00000000
00000100
,  // measure 97
00001000
00000000
00001000
00000010
,  // measure 98
00000100
00000001
00000100
00000010
,  // measure 99
00001000
00000100
00000010
00000001
,  // measure 100
00000100
00000000
00000001
00000010
,  // measure 101
00000000
00000001
00000100
00000000
,  // measure 102
00000000
00000000
00000000
00001000
,  // measure 103
00010000
00000000
00000000
00000000
,  // measure 104
00000000
00000000
01000000
10000000
,  // measure 105
00010000
01000000
00100000
10000000
,  // measure 106
01000000
00000000
00100000
01000000
,  // measure 107
00000000
10000000
00020000
00000000
,  // measure 108
00000000
00030000
00000000
00100000
,  // measure 109
00001000
00000000
00010000
00000100
,  // measure 110
00001000
00000100
00010000
00000000
,  // measure 111
00000000
00000100
00000010
00000001
,  // measure 112
00000100
00000000
00000000
00000001
,  // measure 113
00000010
00000000
00000100
00000000
,  // measure 114
00000000
00010000
00001000
01000000
,  // measure 115
00001000
00000000
00000000
01000000
,  // measure 116
00010000
00000000
10000000
00000000
,  // measure 117
00000000
01000000
00100000
00010000
,  // measure 118
01000000
00000000
00000000
00001000
,  // measure 119
01000000
00000000
00001000
00000000
,  // measure 120
00000000
00010000
00000100
00001000
,  // measure 121
00000010
00000000
00000000
00000100
,  // measure 122
00000002
00000000
00000000
00000003
00000000
00000000
00000000
00000000
;
