#TITLE:IMMORAL;
#SUBTITLE:;
#ARTIST:川田まみ;
#TITLETRANSLIT:;
#SUBTITLETRANSLIT:;
#ARTISTTRANSLIT:Kawada Mami;
#GENRE:;
#CREDIT:;
#MENUCOLOR:;
#METERTYPE:DDR;
#BANNER:IMMORAL.png;
#BACKGROUND:IMMORAL-bg.png;
#LYRICSPATH:;
#CDTITLE:cdtitle.png;
#MUSIC:IMMORAL.mp3;
#OFFSET:-0.464;
#SAMPLESTART:64.454;
#SAMPLELENGTH:15.000;
#SELECTABLE:YES;
#LISTSORT:;
#BPMS:0.000=135.000;
#STOPS:;
#BGCHANGES:;
#ATTACKS:;

//---------------dance-single - ----------------
#NOTES:
     dance-single:
     :
     Hard:
     10:
     0.451,0.480,0.142,0.222,0.009:
0000
0000
0000
0000
,
0000
0000
0000
0000
,
0000
0000
0000
0000
,
0000
0000
0000
0000
,
1000
0100
0010
0100
,
1000
0001
0010
0001
,
0001
0100
0010
0100
,
0001
1000
0010
1000
,
1000
0100
0001
0100
,
1000
0100
0010
0001
,
0001
0100
1000
0100
,
0001
1000
0001
1000
0001
0010
0100
1000
,
1000
0000
0100
1000
0100
0010
0000
0100
,
0000
1000
0001
0100
0001
0010
0000
0100
,
0000
1000
0010
0100
1000
0100
0001
1000
,
0000
0100
1000
0100
0000
0100
0001
0100
,
0000
0000
0010
0001
0010
0100
0000
0010
,
0000
0001
1000
0010
1000
0100
0000
0010
,
0000
0001
0000
0100
0000
1000
0100
0001
,
0000
1000
0100
0000
0010
0100
1000
0001
,
0100
0000
0120
0000
0130
0000
0001
1000
,
0100
0000
0120
0000
0130
1000
0001
1000
,
0010
0000
0210
0000
1300
0000
0100
0001
,
0010
0000
2100
0000
3100
1000
0001
0100
,
0010
0200
0302
2003
,
3200
0000
0310
0000
0100
1000
0001
0000
,
0100
0000
0010
0200
0000
0000
0000
0000
,
0300
1100
0101
0011
,
0010
0000
0100
1000
0000
0001
0010
0100
,
1000
0000
0001
0100
0000
0010
0100
0001
,
1000
0000
0100
0010
0000
0001
1000
0010
,
0100
0000
0010
0001
0000
0010
1000
0100
,
0010
0000
0100
1000
0000
0001
0010
0100
,
1000
0000
0001
0100
0000
0010
0100
0001
,
0000
1100
0000
0101
0001
1000
0001
0020
,
0000
0000
0130
0000
0000
0000
1000
0000
0100
0000
0010
0000
0001
1000
0001
1000
,
0002
0000
0100
0000
0013
0100
1000
0020
,
0100
0000
1000
0000
0130
0001
0010
0200
,
0000
2300
0000
3001
1000
0010
0100
0002
,
0010
0000
0100
0000
0013
0100
1000
0020
,
0100
0000
0001
0000
1030
0001
0010
0200
,
0000
2300
0000
3002
0000
0203
0000
0310
,
0100
0000
0010
0000
0001
0010
1000
0001
,
0000
0100
0001
0010
0000
0010
1000
0100
,
0010
0000
0001
0000
1000
0100
0010
0002
,
0100
0000
0010
0000
0103
0010
1000
0002
,
0000
0023
0000
0130
1000
0100
0010
0001
,
0000
0100
0010
0100
1000
0001
0100
0000
,
0020
0000
1000
1000
0000
0001
0031
0000
,
0200
0000
0001
0001
0000
1000
1300
0100
,
0000
0001
1000
0000
0001
0100
0001
0010
,
0000
0010
1000
0100
0100
0001
0010
0100
,
1000
0000
1100
0000
1000
0100
0001
0100
,
1000
0000
0101
0000
0001
0100
1000
0100
,
0001
0000
1010
0000
1000
0010
0001
0010
,
1000
0000
0011
0000
0001
0010
1000
0010
,
0001
0000
1100
0000
0001
0100
1000
0010
,
0001
0000
1100
0000
1000
0100
0001
0010
,
1000
0000
0101
0000
0010
1000
0100
0001
,
0010
0000
0001
0100
0001
0100
1000
0010
,
0100
0000
0000
0000
;

//---------------dance-single - ----------------
#NOTES:
     dance-single:
     :
     Medium:
     7:
     0.329,0.373,0.009,0.009,0.000:
0000
0000
0000
0000
,
0000
0000
0000
0000
,
0000
0000
0000
0000
,
0000
0000
0000
0000
,
0001
0100
0010
1000
,
0100
0010
0001
1000
,
0001
0001
0010
0010
,
0100
0100
1000
1000
,
0001
0100
0010
1000
,
0100
0010
0001
1000
,
0001
0001
1000
1000
,
0001
0100
0020
0030
,
0100
0000
0100
0000
0001
0100
0001
0000
,
0010
0000
0010
0000
0100
1000
0100
0000
,
0010
0001
1000
0010
,
0100
0001
0010
1000
,
0010
0000
0001
1000
0001
0000
0100
0000
,
0010
0000
1000
0001
1000
0000
0010
0000
,
0100
0001
1000
1000
,
0100
0010
0001
0001
,
1000
0000
1000
0100
0010
0000
0010
0000
,
0001
0000
0001
0100
0010
0000
0010
0000
,
1000
0000
1000
0010
0100
0000
0100
0000
,
0001
0000
0001
0010
0100
0000
0100
0000
,
1000
0100
0010
0001
,
0010
0100
1000
0001
,
1000
0010
0100
0001
,
0100
0010
1000
0001
,
0010
0000
0100
0100
0000
0000
1000
0000
,
0001
0000
0100
0100
0000
0000
0010
0000
,
1000
0000
0001
0001
0000
0000
0010
0000
,
0100
0000
1000
1000
0000
0000
0010
0000
,
0100
0000
0010
0010
0000
0000
1000
0000
,
0100
0000
0010
0010
0000
0000
0001
0000
,
1000
0000
0100
0000
0010
0001
0010
0001
,
0000
0100
0100
0000
0010
0000
1001
0000
,
0010
0000
1000
0000
0100
0010
0100
0000
,
1000
0000
0010
0000
0100
0010
0100
0000
,
0001
0010
0001
0000
1000
0010
1000
0000
,
0001
0000
0010
0000
0100
1000
0100
0000
,
0010
0000
0001
0000
0100
0010
0100
0000
,
0001
0010
0100
1000
,
0001
0000
0100
0000
0010
1000
0010
1000
,
0000
0000
0001
0000
0010
0000
0100
0100
,
0100
0000
1000
0000
0010
0100
0010
0000
,
1000
0000
0100
0000
0010
0001
0010
0000
,
0100
1000
0001
0100
,
0010
1000
0100
0010
,
0001
0000
0100
0010
0000
0010
0100
0000
,
0001
0000
0010
0100
0000
0100
0010
0000
,
0001
0100
0010
1000
,
0100
0010
0100
1000
,
0001
0000
0100
0000
0001
0100
0001
0000
,
1000
0000
0100
0000
1000
0100
1000
0000
,
0001
0000
0010
0000
0001
0010
0001
0000
,
1000
0000
0010
0000
1000
0010
1000
0000
,
0001
0000
0010
0000
0001
0100
0001
0000
,
1000
0000
0010
0000
1000
0100
1000
0000
,
0001
0100
0001
0000
1000
0010
1000
0000
,
0001
0010
0100
0000
1000
0010
0100
0001
,
1000
0000
0000
0000
;

//---------------dance-single - ----------------
#NOTES:
     dance-single:
     :
     Easy:
     4:
     0.190,0.240,0.009,0.000,0.000:
0000
0000
0000
0000
,
0000
0000
0000
0000
,
0000
0000
0000
0000
,
0000
0000
0000
0000
,
1000
1000
0100
0010
,
0001
0001
0100
0010
,
1000
1000
0010
0100
,
0001
0001
0010
0100
,
1000
0100
0010
0001
,
1000
0100
0010
0001
,
1000
0010
0100
0001
,
1000
0010
0100
0001
,
0100
0000
0100
0000
,
0100
0001
0010
0000
,
0010
0000
0100
0000
,
0100
1000
0010
0000
,
0100
0000
0001
0000
,
0001
0100
0010
0000
,
0010
0000
1000
0000
,
1000
0100
0010
0000
,
0001
0000
0001
1000
,
0001
0000
1000
0001
,
1000
0000
0010
0000
,
0100
0000
0100
0001
,
0100
0000
0010
0000
,
0100
0000
0010
0000
,
1000
0100
0000
0000
,
0000
0010
0010
0010
,
0001
0100
0000
0000
,
0001
0100
0000
0000
,
0010
1000
0000
0000
,
0010
1000
0000
0000
,
0100
0010
0000
0000
,
0100
0010
0000
0000
,
0001
0000
1000
0000
,
0001
0100
0010
0000
,
0100
0000
0100
0001
,
0100
0000
0100
0010
,
0100
0000
0100
1000
,
0100
0000
0001
1000
,
0001
0000
0001
0010
,
0001
0000
0001
0100
,
0001
0000
1000
0000
,
0100
0010
0001
0000
,
1000
0100
1000
0000
,
1000
0001
1000
0000
,
1000
0010
1000
0000
,
1000
0100
1000
0000
,
0001
0000
0000
1000
,
1000
0000
0000
0000
,
0001
0000
0100
0000
,
0010
0100
0001
0000
,
1000
0000
1000
0000
,
0100
0000
0010
0000
,
0001
0000
0001
0000
,
0100
0000
0010
0000
,
1000
0000
1000
0000
,
0100
0000
0010
0000
,
0001
0000
0001
0000
,
0010
0000
0100
0000
,
1001
0000
0000
0000
;

//---------------dance-single - ----------------
#NOTES:
     dance-single:
     :
     Beginner:
     1:
     0.081,0.107,0.000,0.000,0.000:
0000
0000
0000
0000
,
0000
0000
0000
0000
,
0000
0000
0000
0000
,
0000
0000
0000
0000
,
1000
0000
0000
0000
,
0001
0000
0000
0000
,
1000
0000
0000
0000
,
0001
0000
0000
0000
,
1000
0000
1000
0000
,
1000
0000
0000
0000
,
0001
0000
0001
0000
,
0001
0000
0000
0000
,
1000
0000
0000
0000
,
0100
0000
0000
0000
,
0010
0000
0000
0000
,
0000
0000
0000
0000
,
0001
0000
0000
0000
,
0100
0000
0000
0000
,
0010
0000
0000
0000
,
1000
0000
0000
0000
,
0100
0000
0000
0000
,
0010
0000
0000
0000
,
0001
0000
0000
0000
,
0100
0000
0000
0000
,
0001
0000
0000
0000
,
0010
0000
0000
0000
,
0100
0000
0000
0000
,
0000
0000
0000
0000
,
0100
0000
0100
0000
,
0100
0000
0000
0000
,
0010
0000
0010
0000
,
0010
0000
0000
0000
,
0100
0000
0100
0000
,
0100
0000
0000
0000
,
0001
0000
0001
0000
,
0001
0000
0000
0000
,
0100
0000
0000
0000
,
0100
0000
0000
0000
,
0010
0000
0000
0000
,
0010
0000
0010
0000
,
0010
0000
0000
0000
,
0100
0000
0000
0000
,
0100
0000
0000
0000
,
0100
0000
0100
0000
,
0100
0000
0000
0000
,
0001
0000
0000
0000
,
0001
0000
0001
0000
,
0001
0000
0000
0000
,
1000
0000
0000
0000
,
0000
0000
0000
0000
,
0001
0000
0000
0000
,
0010
0000
0000
0000
,
0100
0000
0000
0000
,
1000
0000
0000
0000
,
0001
0000
0000
0000
,
0100
0000
0000
0000
,
0010
0000
0000
0000
,
1000
0000
0000
0000
,
0001
0000
0000
0000
,
0100
0000
0100
0000
,
0100
0000
0000
0000
;

//---------------dance-double - ----------------
#NOTES:
     dance-double:
     :
     Hard:
     11:
     0.458,0.480,0.018,0.258,0.031:
00000000
00000000
00000000
00000000
,
00000000
00000000
00000000
00000000
,
00000000
00000000
00000000
00000000
,
00000000
00000000
00000000
00000000
,
00000100
00010000
00001000
01000000
,
00001000
00010000
01000000
00010000
00001000
00000000
00010000
00001000
,
00000100
00001000
00010000
00100000
,
00010000
00001000
00000010
00001000
00010000
00000000
00001000
00010000
,
00100000
00010000
00001000
00000100
,
00001000
00010000
01000000
00010000
00001000
00000000
00010000
00001000
,
00000100
00000001
00000010
00000100
,
00001000
00000001
00001000
00000001
00000100
00000100
00000100
00000000
,
00000001
00000000
00000010
00000001
00000100
00000010
00000000
00001000
,
00000000
00000100
00010000
00001000
00000100
00001000
00000000
00010000
,
00000000
01000000
10000000
00100000
10000000
01000000
00100000
00010000
,
00000000
01000000
00000000
00001000
00000000
00010000
00000100
00001000
,
00000000
00000000
00000100
00000010
00000001
00000100
00000000
00000010
,
00000000
00001000
00000100
00010000
00001000
01000000
00000000
00100000
,
00000000
10000000
00000000
01000000
00000000
00010000
00001000
00000100
,
00000000
00000010
00001000
00000000
00000100
00000010
00000001
00000100
,
00000020
00000000
00000031
00000010
00001000
00010000
01000000
10000000
,
02000000
00000000
03100000
10000000
01000000
00010000
00001000
00000100
,
00000002
00000000
00000013
00000001
00000010
00001000
00010000
01000000
,
10000000
00100000
10000000
01000000
00001000
01000000
00100000
00010000
,
01000000
00000000
00200000
00000000
02300000
00000000
03001000
00020000
,
00000000
02030000
00000000
13000000
00100000
00010000
00001000
00000100
,
00000002
00000000
00001003
00000200
00000000
00000000
00000000
00000000
,
00000300
00010000
01000000
10000000
,
00100000
00000000
01000000
00010000
00000000
00010000
00100000
00001000
,
00010000
00000000
00010000
00000100
00000000
00000100
00001000
00000010
,
00000100
00000000
00000100
00000001
00000000
00000010
00000100
00010000
,
00001000
00000000
00001000
01000000
00000000
01000000
00100000
10000000
,
01000000
00000000
00100000
00010000
00000000
01000000
00001000
00010000
,
00000100
00001000
00000010
00000100
00000000
00000001
00000100
00001000
,
00000000
01000000
00000000
00010000
00100000
01000000
10000000
00010000
,
00000000
00000000
10000000
01000000
00000000
00000000
00000000
00100000
00000000
00001000
00000000
01000000
00001000
00010000
00001000
00010000
,
00002000
00000000
00000100
00000000
00013000
01000000
10000000
00100000
,
00020000
00000000
00000100
00000000
00031000
00000100
00000001
00000010
,
00002000
00000000
00100000
00000000
00013000
00100000
10000000
01000000
,
00020000
00000000
00000010
00000000
00031000
00000010
00000001
00000100
,
00001000
00000000
00100000
00000000
00010000
01000000
00001000
00020000
,
00000000
00030200
00000000
00002300
00000000
00003020
00000000
00010030
,
00200000
00000000
20300000
00000000
30010000
00100000
00010000
00100000
,
00000000
01000000
00000000
10000000
01000000
00100000
00001000
00010000
,
00000200
00000000
00000010
00000000
00010300
01000000
10000000
00100000
,
02000000
00000000
10000000
00000000
03100000
00010000
00001000
00000020
,
00000000
00000032
00000000
00001003
00000100
00010000
00001000
01000000
,
00000000
00000000
00100000
00000000
10000000
00000000
00010000
00100000
00010000
00000000
01000000
00000000
00001000
00000000
00000100
00000000
,
00000020
00000000
00001000
00002000
00000000
00000000
00000000
00000000
,
00003030
00000000
00000000
00000000
00000000
00000100
00010000
00001000
,
00000000
00000000
01001000
00000000
01000000
00100000
10000000
02000000
,
00000000
03020000
00000000
00032000
00000000
00003200
00000000
00000000
,
00000301
00001000
00000010
00001000
00000010
00010000
00001000
01000000
,
00010000
00000000
10000000
00000000
01000000
00100000
01000000
00000000
,
10000000
01000000
00100000
00001000
00010000
00000100
00001000
00000010
,
00000100
00000000
00000001
00000000
00001000
00000010
00001000
00000000
,
00000100
00010000
00001000
01000000
00010000
00100000
00001000
00000100
,
00000001
00000000
00000010
00000000
00000100
00001000
00000100
00000000
,
00010000
01000000
10000000
00100000
00010000
00001000
00000100
00000001
,
00000010
00000001
00000010
00000001
00001000
00010000
10000000
00010000
,
00011000
00000000
00000000
00000000
;

//---------------dance-double - ----------------
#NOTES:
     dance-double:
     :
     Medium:
     7:
     0.311,0.347,0.009,0.018,0.000: // measure 1
00000000
00000000
00000000
00000000
,  // measure 2
00000000
00000000
00000000
00000000
,  // measure 3
00000000
00000000
00000000
00000000
,  // measure 4
00000000
00000000
00000000
00000000
,  // measure 5
10000000
01000000
10000000
01000000
,  // measure 6
00010000
01000000
00010000
00001000
,  // measure 7
00010000
00001000
00010000
00001000
,  // measure 8
00000100
00001000
00000100
00000001
,  // measure 9
00000100
00000001
00000010
00000100
,  // measure 10
00001000
00000001
00000100
00001000
,  // measure 11
00010000
01000000
10000000
00010000
,  // measure 12
10000000
01000000
00010000
00001000
,  // measure 13
00000100
00000000
00000001
00001000
00000001
00000000
00000100
00000000
,  // measure 14
00001000
00010000
01000000
10000000
,  // measure 15
00100000
00000000
10000000
00010000
10000000
00000000
01000000
00000000
,  // measure 16
00010000
00001000
00000100
00000001
,  // measure 17
00000010
00000000
00000001
00001000
00000001
00000000
00000010
00000000
,  // measure 18
00001000
00010000
01000000
10000000
,  // measure 19
00010000
00000000
01000000
00000000
00100000
01000000
00100000
00000000
,  // measure 20
10000000
01000000
10000000
00000000
,  // measure 21
10000000
01000000
00010000
00001000
,  // measure 22
00000100
00000001
00000010
00000001
,  // measure 23
00000100
00001000
00010000
01000000
,  // measure 24
10000000
00000000
00100000
00000000
10000000
01000000
10000000
00000000
,  // measure 25
01000000
00010000
00001000
00000100
,  // measure 26
00000001
00000100
00001000
00010000
,  // measure 27
01000000
00000000
20000000
00020000
00000000
00000000
00000000
00000000
,  // measure 28
30030000
10000000
01000000
10000000
,  // measure 29
00100000
00010000
00001000
00000100
,  // measure 30
00000001
00000000
00001000
00000001
00001000
00000000
00000001
00000000
,  // measure 31
00000100
00001000
00010000
01000000
,  // measure 32
10000000
00000000
00010000
10000000
00010000
00000000
10000000
00000000
,  // measure 33
01000000
00010000
00001000
00000010
,  // measure 34
00000001
00000000
00000100
00000010
00000100
00000000
00000001
00000000
,  // measure 35
00001000
00000100
00010000
00001000
,  // measure 36
01000000
00010000
01000000
00000000
00100000
10000000
00100000
00000000
,  // measure 37
10000000
01000000
00010000
00001000
,  // measure 38
00000100
00000010
00001000
00000001
,  // measure 39
00000010
00001000
00010000
01000000
,  // measure 40
10000000
00000000
00010000
00000000
01000000
00100000
01000000
00000000
,  // measure 41
00010000
10000000
01000000
00010000
,  // measure 42
00001000
00000100
00000010
00000100
,  // measure 43
00000001
00000010
00001000
00010000
,  // measure 44
01000000
00100000
00010000
01000000
,  // measure 45
00001000
00010000
00000100
00000010
,  // measure 46
00001000
00010000
01000000
10000000
,  // measure 47
00100000
00000000
00010000
00000000
00001000
00000000
01000000
00010000
,  // measure 48
01000000
00100000
00010000
00001000
,  // measure 49
00000100
00000000
00000010
00001000
00000000
00000010
00001000
00000000
,  // measure 50
00000100
00000000
00010000
00000000
00001000
00000000
01000000
00010000
,  // measure 51
01000000
00100000
10000000
01000000
,  // measure 52
00010000
00000000
00001000
00000000
00000100
00000000
00000001
00000010
,  // measure 53
00000001
00000100
00001000
00010000
,  // measure 54
00100000
00000000
10000000
00000000
00010000
00000000
10000000
01000000
,  // measure 55
10000000
01000000
00010000
00001000
,  // measure 56
00000100
00000010
00001000
00010000
,  // measure 57
01000000
00100000
01000000
00000000
00010000
00000000
00100000
00000000
,  // measure 58
01000000
00010000
00001000
00000100
,  // measure 59
00000010
00001000
00000100
00000010
,  // measure 60
00000001
00000100
00000001
00000100
00000001
00000100
00000001
00000000
,  // measure 61
00001001
00000000
00000000
00000000
;

//---------------dance-double - ----------------
#NOTES:
     dance-double:
     :
     Easy:
     5:
     0.192,0.213,0.000,0.000,0.000: // measure 1
00000000
00000000
00000000
00000000
,  // measure 2
00000000
00000000
00000000
00000000
,  // measure 3
00000000
00000000
00000000
00000000
,  // measure 4
00000000
00000000
00000000
00000000
,  // measure 5
10000000
10000000
01000000
00000000
,  // measure 6
01000000
01000000
00100000
00000000
,  // measure 7
00100000
00100000
00010000
00000000
,  // measure 8
01000000
00001000
00010000
00000000
,  // measure 9
00001000
00010000
00000100
00000000
,  // measure 10
00001000
00000010
00000100
00000000
,  // measure 11
00000001
00000010
00000100
00000000
,  // measure 12
00001000
00001000
00000100
00010000
,  // measure 13
00001000
01000000
01000000
00000000
,  // measure 14
00100000
10000000
01000000
00000000
,  // measure 15
00010000
00000000
00001000
00000000
,  // measure 16
00000100
00000001
00000010
00000000
,  // measure 17
00000001
00000000
00000100
00000000
,  // measure 18
00001000
00010000
01000000
00000000
,  // measure 19
10000000
00000000
00100000
00000000
,  // measure 20
00010000
00000000
00001000
00000000
,  // measure 21
00000100
00000000
00000001
00000010
,  // measure 22
00000100
00000000
00000010
00000001
,  // measure 23
00000100
00000000
00001000
00000100
,  // measure 24
00000001
00000000
00001000
00000000
,  // measure 25
00010000
00000000
10000000
00000000
,  // measure 26
01000000
01000000
10000000
00010000
,  // measure 27
01000000
00000000
00001000
00000000
,  // measure 28
00010000
00000000
00000100
00000000
,  // measure 29
00001000
00000010
00000100
00000000
,  // measure 30
00000001
00000010
00000100
00000000
,  // measure 31
00010000
00001000
01000000
00000000
,  // measure 32
00010000
00100000
01000000
00000000
,  // measure 33
10000000
00100000
01000000
00000000
,  // measure 34
00010000
01000000
00001000
00000000
,  // measure 35
00010000
00000100
00001000
00000010
,  // measure 36
00000100
00000000
00000000
00000000
,  // measure 37
00000001
00000000
00000100
00001000
,  // measure 38
00010000
00000000
01000000
10000000
,  // measure 39
00100000
00000000
10000000
01000000
,  // measure 40
00010000
00000000
00001000
00000000
,  // measure 41
00000100
00000000
00000001
00000001
,  // measure 42
00000001
00000000
00001000
00000000
,  // measure 43
00000100
00010000
00001000
01000000
,  // measure 44
00100000
00000000
10000000
01000000
,  // measure 45
00100000
00000000
00001000
00000000
,  // measure 46
00000010
00000000
00000001
00000000
,  // measure 47
00000100
00000000
00001000
00000000
,  // measure 48
01000000
00000000
00010000
00000000
,  // measure 49
10000000
01000000
00100000
00000000
,  // measure 50
00010000
01000000
00001000
00000000
,  // measure 51
00010000
00000000
00001000
00000000
,  // measure 52
00000001
00000000
00001000
00000000
,  // measure 53
00010000
01000000
10000000
00000000
,  // measure 54
00010000
00000000
01000000
00000000
,  // measure 55
00001000
00000000
00010000
00000000
,  // measure 56
00000100
00000000
00001000
00000000
,  // measure 57
00000010
00000100
00000001
00000000
,  // measure 58
00000010
00000000
00001000
00000000
,  // measure 59
00100000
00000000
00010000
00000000
,  // measure 60
10000000
01000000
00100000
00010000
,  // measure 61
10000000
00000000
00000000
00000000
;
