#TITLE:GRADIUS 2012;
#SUBTITLE:;
#ARTIST:Sota Fujimori;
#TITLETRANSLIT:;
#SUBTITLETRANSLIT:;
#ARTISTTRANSLIT:;
#GENRE:;
#CREDIT:;
#MENUCOLOR:;
#METERTYPE:DDR;
#BANNER:GRADIUS 2012.png;
#BACKGROUND:GRADIUS 2012-bg.png;
#LYRICSPATH:;
#CDTITLE:cdtitle.png;
#MUSIC:GRADIUS 2012.mp3;
#OFFSET:-0.025;
#SAMPLESTART:101.338;
#SAMPLELENGTH:15.000;
#SELECTABLE:YES;
#LISTSORT:;
#BPMS:0.000=180.000;
#STOPS:;
#BGCHANGES:0.000=GRADIUS 2012.avi=1.000=1=0=0,
99999=-nosongbg-=1.000=0=0=0 // don't automatically add -songbackground-
;
#ATTACKS:;

//---------------dance-single - ----------------
#NOTES:
     dance-single:
     :
     Challenge:
     17:
     0.975,0.953,0.678,0.287,0.714:
0000
0000
0000
0000
,
0010
0000
0100
0000
0001
0000
0000
0010
0000
0100
0000
0000
1000
0000
0001
0000
,
0100
0000
0001
0000
0010
0000
0000
0100
0000
1000
0000
0000
0001
0000
0010
0000
,
0100
0000
1000
0000
0010
0000
0000
0100
0000
0001
0000
0000
1000
0000
0100
0000
,
0010
0000
0001
0000
1000
0000
0000
0010
0000
0100
0000
0000
1001
0000
0001
0000
,
1000
0000
0100
0000
0010
0100
0000
1000
0000
0000
0001
0000
0100
0000
0010
0000
,
0100
0000
0001
0000
0010
0100
0000
1000
0000
0000
0100
0000
0001
0000
0100
0000
,
0010
0000
0001
0000
0100
0010
0000
1000
0000
0000
0010
0000
0100
0000
0001
0000
,
1000
0000
0001
0000
0100
0001
0000
0010
0000
0000
0100
0000
1001
0000
0000
0000
,
1000
0100
1000
0000
0001
0100
0000
0010
0000
0000
0100
0000
0001
0000
0010
0000
,
0100
1000
0100
0000
0010
0001
0000
0100
0000
0000
0010
0000
1000
0000
0001
0000
,
1000
0100
1000
0000
0001
0100
0000
0010
0000
0000
0100
0001
0100
0002
0000
0000
,
0000
0000
0000
0000
0003
0000
0000
0000
1000
0010
1000
0010
0000
0100
0001
0000
,
1000
0100
1000
0000
0001
0100
0000
0010
0000
0000
0100
0000
0001
0000
0010
0000
,
0100
1000
0100
0000
0010
0001
0000
0100
0000
0000
0001
0000
0100
0000
1000
0000
,
0100
0010
0100
0000
0010
1000
0000
0001
0000
0000
0010
0100
1000
0100
0000
0000
,
0000
1000
0001
1000
0000
0000
0000
0000
0010
0000
0100
0000
1001
0000
0000
0000
,
0001
0000
0010
0000
0100
0000
0000
0010
0001
0000
0100
0000
0010
0000
1000
0000
,
0001
0000
0000
1000
0200
0000
0000
0000
0310
0000
0001
0010
0001
0000
1000
0010
,
1000
0000
0000
0001
0100
0000
0010
0000
1000
0000
0001
0000
0010
0000
0100
0000
,
1001
0000
0000
1100
0000
0101
0000
0000
0010
0000
0000
1010
0000
0010
1000
0000
,
0100
0000
1000
0000
0010
0000
0000
0100
0001
0000
0010
0000
0100
0000
0001
0000
,
0100
0000
0000
1000
0020
0000
0000
0000
0130
0000
0001
0100
0001
0000
1000
0100
,
1000
0000
0000
0100
1000
0000
0001
0000
0100
0000
0010
0000
0100
0000
0001
0000
,
1000
0000
0000
0100
0020
0000
0000
0000
0031
0000
1000
0000
0001
0000
1000
0001
,
0010
0000
0000
0100
0000
0000
1001
0000
0000
0000
1000
0000
0100
0000
0010
0000
,
0001
0000
0000
0100
0000
0000
0101
0000
0000
0000
1000
0000
0100
0000
0010
0000
,
0001
0000
0000
1001
0000
0000
1000
0000
0010
0000
0000
0110
0000
0000
0100
0000
,
0001
0000
0000
0011
0000
0000
0010
0000
0100
0000
0000
1100
0000
0000
1000
0000
,
0001
0000
0100
0010
0000
0100
0010
0000
1000
0000
0001
0000
0010
0100
1000
0100
,
0010
0000
0001
0010
0000
0001
0010
0000
0100
0000
0100
0000
1000
0000
0010
0000
,
0100
0000
0001
1000
0000
0001
1000
0000
0220
0000
0000
0000
0330
0000
0000
0000
,
1000
0000
0001
0000
0100
0000
0010
0000
1000
0100
0010
0002
0000
0000
0000
0000
,
1003
0100
0010
0002
0000
0000
0000
0000
1003
0000
0000
0001
0000
0000
0100
0000
,
0110
0000
0010
0000
1000
0000
0001
0000
1000
0010
0100
0002
0000
0000
0000
0000
,
1003
0010
0100
0002
0000
0000
0003
0000
1100
0000
0000
0110
0000
0000
0011
0000
,
0001
0000
1000
0000
0010
0000
0100
0000
0001
0000
0000
0010
0000
0000
0100
0000
,
1000
0000
0000
0010
0000
0000
0100
0000
1000
0000
0000
0100
0000
0000
0001
0000
,
1000
0100
1000
0000
0001
0100
0001
0000
1000
0010
1000
0000
0001
0010
0001
0000
,
1100
0000
0000
0101
0000
0000
0011
0000
0000
1010
0000
0000
1001
0000
0001
0100
,
0020
0000
0100
0000
0130
0000
0001
0000
1000
0100
0010
0001
0000
0000
1000
0000
,
0001
0100
0000
0110
0000
0000
0010
0000
1000
0100
0000
0110
0000
0000
0010
0000
,
0001
0100
0000
0110
0000
0000
0010
0000
1000
0000
0001
1000
0001
0000
1000
0000
,
1000
0000
0001
0100
0010
1000
0010
1000
0000
0001
0010
0001
0010
0000
0100
1000
,
0100
0000
0010
0000
0001
0100
0001
0100
0000
0010
1000
0100
1000
0000
0010
0000
,
1100
0000
0000
1100
0000
1000
0100
0000
0110
0000
0110
0000
0010
0000
0001
0000
,
0101
0000
0000
0110
0000
0000
1010
0000
1001
0000
0100
0000
0020
0000
0000
0000
,
1030
0000
0100
0000
0001
0000
0100
0000
1000
0010
1000
0002
0000
0000
0103
0000
,
0001
0010
0001
2000
0000
0000
3010
0000
0100
0000
1000
0100
0000
0001
0100
0000
,
0010
0000
1000
0000
0001
0000
0010
0000
0100
1000
0100
0020
0000
0000
0031
0000
,
0100
0010
0100
0002
0000
0000
1003
0000
0100
0000
0001
0100
0000
1000
0100
0000
,
0010
0000
0001
0000
0100
0000
1000
0000
0100
0000
0000
0101
0000
0000
0010
0000
,
1000
0000
0000
1001
0000
0000
0001
0000
0100
0000
0000
0110
0000
0000
0010
0000
,
1000
0100
0010
0001
0100
0010
1000
0000
0001
0100
0010
1000
0100
0010
0001
0000
,
1000
0000
0000
0101
0000
0000
1010
0000
0000
1100
0000
0000
0011
0000
0001
0100
,
0002
0000
0100
0000
0103
0000
0010
0000
1000
0100
1000
0001
0000
0100
0001
0000
,
1000
0100
0000
0110
0000
0010
0001
0000
0001
0100
0000
0110
0000
0010
1000
0000
,
1000
0100
0000
0110
0000
0010
0001
0000
1000
0000
0001
0100
0001
0100
0010
0000
,
1010
1000
0100
0110
0010
0001
0101
0000
,
1100
0100
0010
0011
0001
1000
1010
0000
,
0011
0000
0001
0000
0100
0000
0110
0000
0010
0000
1000
0000
0001
0100
0010
0000
,
1010
0000
1000
0000
0100
0000
0110
0000
0010
0000
0001
0000
0101
0000
0001
1000
,
0010
1000
0001
0011
0010
0100
1100
0000
,
0011
0001
1000
1100
0100
0010
0011
0000
,
1010
0010
0100
0101
0001
1000
1001
0000
,
1000
0000
0100
0000
0001
0000
0100
0000
1000
0000
0001
0000
0100
0010
0100
0000
,
0101
0010
1000
0100
0010
0001
0100
1000
,
0100
0001
1000
0100
0001
0100
0011
0000
,
1010
0000
0100
0000
0001
0000
1000
0000
0100
0000
0001
0000
0100
1000
0010
1000
,
0001
0000
0100
0000
1000
0000
0100
0000
0010
0000
0000
1000
0000
0000
0101
0000
,
1010
0000
0100
0000
0001
0000
1000
0000
0100
0000
0001
0000
0100
0010
0001
0000
,
1000
0000
0010
0000
0001
0000
0010
0000
0100
0000
1000
0000
0100
0001
1000
0000
,
1100
0000
0010
0000
0001
0000
0100
0000
0001
0000
1000
0000
0100
1000
0010
1000
,
0001
0000
0100
0000
1000
0000
0100
0000
0001
0000
1000
0000
0100
0010
0100
0000
,
0011
0000
1100
0000
0101
0000
1010
0000
0101
0000
1100
0000
,
0001
0010
0000
0010
0200
0000
0000
0000
0000
0000
0000
0000
1300
0000
0000
0000
,
0002
0100
1003
0200
0010
1300
0002
0100
,
2003
0100
3001
0200
0010
0301
2000
0100
,
3020
0000
1000
1000
0000
0001
0031
0000
,
1000
0100
0010
1001
0000
0100
1001
0000
,
2000
0010
3001
0020
0100
0031
1000
0010
,
0001
0010
0100
1001
0000
1000
0010
1100
,
0000
0001
0010
0101
0000
1000
0001
0110
,
1000
0000
0100
0000
0010
0000
0001
0000
0100
0010
1000
0000
0100
0010
0001
0000
,
2000
0100
3001
0200
0010
0301
2000
0100
,
3002
0100
1003
0200
0010
1300
0002
0100
,
0023
0000
0001
0001
0000
1000
1030
0000
,
0001
0000
0100
0000
0010
0000
1100
0000
0000
0000
0001
0100
1000
0000
0000
0000
,
0002
0010
1003
0020
0100
1030
0001
0010
,
1000
0010
0100
1010
0000
0001
0010
0101
,
0010
0000
1000
0000
0100
0000
0010
0001
0100
0000
0001
0000
0100
0000
0011
0000
,
1000
0000
0100
0010
0000
0010
0001
0000
1000
0000
0010
1000
0001
0010
0100
1000
;

//---------------dance-single - ----------------
#NOTES:
     dance-single:
     :
     Hard:
     14:
     0.772,0.659,0.247,0.191,0.311:
0000
0000
0000
0000
,
0001
0000
0010
0000
0100
0000
0000
0010
0000
0000
0001
0000
0010
0000
0100
0000
,
1000
0000
0010
0000
0100
0000
0000
0010
0000
0000
1000
0000
0010
0000
0100
0000
,
0001
0000
1000
0000
0100
0000
0000
0010
0000
0000
0100
0000
1000
0000
0001
0000
,
0100
0000
0010
0000
1000
0000
0000
0001
0000
0000
1000
0000
0100
0000
0100
0000
,
0010
0000
0001
0000
0100
0000
0000
0010
0000
0000
0100
0000
0001
0000
1000
0000
,
0100
0000
0010
0000
0001
0000
0000
0100
0000
0000
0010
0000
1000
0000
0010
0000
,
0100
0000
0001
0000
1000
0000
0000
0100
0000
0000
0010
0000
0100
0000
1000
0000
,
0001
0000
0100
0000
0010
0000
0000
0100
0000
0000
0001
0000
0010
0000
0010
0000
,
0100
1000
0100
1000
0001
0100
0001
0100
,
0010
1000
0010
1000
0001
0010
0001
0010
,
0100
1000
0010
0001
0010
1000
0100
0010
,
0002
0000
0000
0000
0000
0000
0000
0000
1003
0000
0001
0000
0100
0010
0100
0000
,
0001
0010
0001
0010
0100
1000
0100
1000
,
0001
0100
0001
0100
0010
1000
0010
1000
,
0001
0010
0100
1000
0010
0100
0001
0000
,
1000
0100
0010
0000
0001
1000
0110
0000
,
0001
0000
0100
0000
0001
0000
0000
1000
0100
0000
0010
0000
0100
0000
1000
0000
,
0001
0000
0000
0100
0020
0000
0000
0000
0030
0000
1000
0000
0100
0000
0001
0000
,
0100
0000
0000
0010
0001
0000
0100
0000
0001
0000
0010
0000
0100
0000
1000
0000
,
0001
0000
0000
0100
0000
0110
0000
0000
1000
0000
0000
0100
0000
0000
0110
0000
,
0010
0000
0001
0000
0100
0000
0000
0010
0100
0000
0001
0000
1000
0000
0100
0000
,
0010
0000
0000
0001
0200
0000
0000
0000
0300
0000
0010
0000
0001
0000
0010
0000
,
1000
0000
0000
0001
0100
0000
0010
0000
1000
0000
0100
0000
0010
0000
0001
0000
,
1000
0000
0000
0010
0200
0000
0000
0000
0301
0000
1000
0000
0001
0000
1000
0000
,
0100
0000
0000
0010
0000
0000
0011
0000
0000
0000
0001
0000
0100
0000
0000
0000
,
0010
0000
0000
1000
0000
0000
1100
0000
0000
0000
0100
0000
0010
0000
0001
0000
,
0100
0000
0000
0010
0000
0000
0100
0000
0001
0000
0000
1000
0000
0000
0100
0000
,
0010
0000
0000
0100
0000
0000
1000
0000
0001
0000
0000
0100
0000
0000
0010
0000
,
1000
0000
0001
0000
0010
0000
0100
0000
1000
0000
0001
0000
0100
0010
0100
0000
,
0001
0000
0000
0001
0000
0001
1000
0000
0010
0000
0010
0000
1000
0000
0100
0000
,
1000
0000
0000
1000
0000
0000
1000
0000
0100
0000
0010
0000
1001
0000
0000
0000
,
0001
0000
0100
0000
0001
0000
0100
0000
0010
0100
0010
0100
0000
0000
0000
0000
,
0010
0000
0100
0000
0101
0000
0000
0000
0001
0000
0000
0100
0000
0000
0010
0000
,
1000
0000
0100
0000
1000
0000
0100
0000
0010
0100
0010
0100
0000
0000
0000
0000
,
0010
0000
0100
0000
1100
0000
0000
0000
0001
0000
0000
1000
0000
0000
0001
0000
,
0010
0100
1000
0001
0010
0100
1000
0010
,
0100
0000
0000
0001
0000
0000
0100
0000
0010
0000
0000
1000
0000
0000
0100
0000
,
0010
0010
0001
0001
1000
1000
0010
0010
,
0100
0000
0000
0101
0000
0000
0001
0000
0000
1001
0000
0000
2000
0000
0000
0000
,
3100
0000
0010
0000
0001
0000
0010
0000
0100
1000
0100
1000
0000
0000
0001
0000
,
0100
0000
0000
0110
0000
0000
0010
0000
1000
0000
0000
1001
0000
0000
0001
0000
,
0010
0000
0000
0110
0000
0000
0100
0000
1000
0000
0001
1000
0001
0000
0000
0000
,
0010
0000
0010
0000
0100
0000
0100
1000
0000
0001
0000
1000
0001
0000
0000
0000
,
0010
0000
0010
0000
0100
0000
0100
1000
0000
0001
0000
1000
0001
0000
0000
0000
,
1000
0000
0000
0001
0000
0001
0100
0000
0010
0000
0010
0000
1000
0000
0100
0000
,
1000
0000
0000
1000
0000
0000
1000
0000
0100
0000
0010
0000
1001
0000
0000
0000
,
0010
0000
0100
0000
0001
0000
0100
0000
0010
0000
1000
0100
0000
0000
0000
0000
,
0010
0000
0001
0100
0000
0000
0010
0000
1000
0000
0000
0001
0000
0000
0100
0000
,
0010
0000
1000
0000
0100
0000
0010
0000
0001
0000
0100
0010
0000
0000
1000
0000
,
0100
0000
0010
0001
0000
0000
0100
0000
0010
0000
0000
0100
0000
0000
0010
0000
,
1000
0000
0001
0000
1000
0000
0001
0000
0010
0000
0000
0100
0000
0000
1000
0000
,
0001
0000
0000
0100
0000
0000
0010
0000
0100
0000
0000
0001
0000
0000
1000
0000
,
0001
0010
1000
0010
0001
0100
1000
0100
,
0001
0000
0000
1100
0000
0000
1000
0000
0000
0101
0000
0000
1001
0000
0000
0000
,
0010
0000
0100
0000
0001
0000
0010
0000
0100
0000
1000
0001
0000
0000
0100
0000
,
0010
0000
0000
0010
0000
0000
0010
0000
0100
0000
0000
0100
0000
0000
0100
0000
,
0001
0000
0000
0001
0000
0000
0001
0000
0000
0000
1000
0100
1000
0000
0001
0000
,
0100
0010
0100
0001
1000
0001
0010
0000
,
0100
1000
0100
0010
0001
0010
0100
0000
,
1000
0010
0100
0001
0010
0100
1000
0000
,
0001
0100
0001
1000
0100
1000
0010
0000
,
0100
0001
0010
0100
1000
0010
0100
0000
,
0010
1000
0010
0100
0001
0100
0010
0000
,
1000
0100
1000
0001
0100
0001
1000
0000
,
0001
0010
0100
1000
0001
0010
0100
1000
,
0010
0100
0001
0010
0100
1000
0100
0010
,
0001
1000
0010
0100
0001
0010
0100
1000
,
0001
0100
0010
1000
0100
0010
0001
0100
,
0010
1000
0001
0010
0100
0010
0001
1000
,
0010
0100
1000
0100
0010
1000
0100
0010
,
0001
0100
0010
1000
0100
0001
0100
0010
,
0001
1000
0001
1000
0010
0100
1000
0100
,
0010
1000
0010
1000
0100
0001
0100
0010
,
0001
0000
0010
0000
0110
0000
1000
0000
0010
0000
0110
0000
,
0001
1000
0000
1000
0020
0000
0000
0000
0000
0000
0000
0000
0130
0000
0000
0000
,
0002
0000
0000
2003
0000
0000
3200
0000
,
0320
0000
0000
0032
0000
0000
0203
0000
,
0310
1000
0100
0001
0100
1000
0010
0100
,
0001
0101
1000
1100
0000
0010
0110
0000
,
2000
0000
0000
3200
0000
0000
0320
0000
,
0031
0100
0010
1010
0000
1000
0100
0110
,
0000
0001
0100
0110
0000
1000
0001
0100
,
0010
0000
1000
0000
0010
0000
1000
0000
0001
0010
0001
0000
0100
0000
0010
0000
,
2000
0000
0000
3002
0000
0000
0203
0000
,
0320
0000
0000
2030
0000
0000
3200
0000
,
0310
0001
0100
1000
0100
0001
0010
0100
,
1000
1100
0001
0101
0000
0010
0110
0000
,
0002
0000
0000
0203
0000
0000
0320
0000
,
1030
0100
0010
0011
0000
0001
0100
0110
,
0000
1000
0100
0110
0000
0001
1000
0100
,
0010
0000
0001
0000
0010
0000
0001
0000
1000
0010
1000
0000
0100
0000
0010
0000
;

//---------------dance-single - ----------------
#NOTES:
     dance-single:
     :
     Medium:
     11:
     0.561,0.513,0.128,0.215,0.100:
0000
0000
0000
0000
,
0010
0000
0100
0000
0001
0010
0100
1000
,
0010
0000
0100
0000
0001
0100
0010
1000
,
0100
0000
0010
0000
0100
1000
0010
0100
,
0001
0000
0010
0000
0100
0010
0010
0000
,
0100
0000
1000
0000
0001
0100
1000
0100
,
0001
0000
0010
0000
0100
1000
0010
1000
,
0100
0000
0010
0000
0001
0100
0010
1000
,
0100
0000
0001
0000
0100
1000
0010
0010
,
0100
0001
0100
0000
0010
1000
0010
0000
,
0100
0001
0100
0000
0010
1000
0010
0000
,
0100
0001
0010
0100
1000
0010
0100
0000
,
0001
0000
1000
0000
0100
0100
0100
0000
,
0010
0100
1000
0000
1000
0100
0010
0000
,
0001
0100
0010
0000
0010
0100
0001
0000
,
1000
0100
0001
0100
1000
0010
0100
0000
,
0010
1000
0001
0000
0010
0000
0110
0000
,
0001
0000
0000
0000
0001
0000
0000
0001
0100
0000
0010
0000
0100
0000
0000
0000
,
0001
1000
0100
0000
0010
0000
0100
0000
,
1000
0100
0001
0000
0001
0100
1000
0000
,
0010
0110
0100
1100
,
1000
0000
0000
0000
1000
0000
0000
1000
0100
0000
0010
0000
0100
0000
0000
0000
,
1000
0001
0100
0000
0010
0000
0100
0000
,
0001
0100
1000
0000
1000
0100
0001
0000
,
0010
0110
0100
0101
,
0001
0000
0000
0001
0000
0000
0001
0000
0000
0000
1000
0000
0001
0000
0000
0000
,
1000
0000
0000
1000
0000
0000
1000
0000
0000
0000
0001
0000
1000
0000
0000
0000
,
0010
0100
0001
0010
,
0100
1000
0001
0100
,
0010
1000
0010
0100
0001
0000
1001
0000
,
0010
0000
0000
0010
0000
0000
0010
0000
0100
0000
0000
0000
1000
0000
0000
0000
,
0100
0000
0000
0100
0000
0000
0100
0000
0020
0000
0000
0000
0030
0000
0000
0000
,
0010
0100
0010
0000
0001
1000
0001
0000
,
0100
0010
0100
0000
0010
0000
0110
0000
,
0100
0001
0100
0000
0010
1000
0010
0000
,
0100
0001
0100
0000
0010
0000
0010
0000
,
1000
0100
0010
0000
0010
0100
1000
0000
,
0001
0000
0000
0100
0000
0000
0001
0000
1000
0000
0000
0100
0000
0000
1000
0000
,
0020
0230
0302
0023
,
0130
0000
0000
0100
0000
0000
0100
0000
0000
0100
0000
0000
0100
0000
0000
0000
,
1000
0100
0010
0000
0010
0100
1000
0000
,
0001
0000
0000
0001
0000
0000
0000
0000
1000
0000
0000
1000
0000
0000
0000
0000
,
0010
0000
0000
0010
0000
0000
0000
0000
0000
0000
0000
0000
0000
0000
0000
0000
,
0010
0010
0100
0100
,
1000
0001
1000
0001
,
0200
0000
0000
0300
0010
0010
0000
0000
,
0001
0000
0000
1000
0000
0000
0001
0000
0100
0000
0000
0000
0000
0000
0000
0000
,
0010
1000
0100
0000
0100
1000
0010
0000
,
0100
0001
0010
0000
0100
0000
0110
0000
,
0010
0001
0100
0000
0010
1000
0100
0000
,
0100
1000
0010
0000
0100
0000
0101
0000
,
0001
1000
0100
0000
0010
0001
0100
0000
,
0010
0000
0000
0010
0000
0000
0000
0000
0100
0000
0000
0100
0000
0000
0000
0000
,
0001
0010
0100
1000
0002
0000
2003
0000
,
3100
0000
0000
0100
0000
0000
0100
0000
0000
0100
0000
0000
0100
0000
0000
0000
,
0010
0001
0100
0000
0100
0001
1000
0000
,
0100
0000
0000
0100
0000
0000
0000
0000
0010
0000
0000
0010
0000
0000
0000
0000
,
0001
0000
0000
0001
0000
0000
0000
0000
0000
0000
0000
0000
0000
0000
0000
0000
,
1000
0000
0000
0001
0000
0000
1100
0000
,
0001
0000
0000
0010
0000
0000
1100
0000
,
1000
0000
0000
0010
0000
0000
0101
0000
,
0010
0000
0000
1000
0000
0000
0101
0000
,
0001
0000
0000
1000
0000
0000
1010
0000
,
0100
0000
0000
0001
0000
0000
0011
0000
,
0100
0000
0000
1000
0000
0000
1001
0000
,
0010
0000
0100
0000
0001
0010
0100
0000
,
1000
0000
1000
0100
0000
0100
0010
0000
,
0001
0000
0001
0100
0000
0100
0010
0000
,
1000
0000
1000
0001
0000
0001
0010
0000
,
0100
0000
0100
1000
0000
1000
0010
0100
,
0001
0000
0001
0100
0000
0100
0010
0000
,
1000
0000
1000
0001
0000
0001
0100
0000
,
0010
0000
0010
0100
0000
0100
0001
0000
,
0010
0000
0010
0100
0000
0100
1000
0000
,
0001
0000
0001
0000
0001
0000
1000
0000
1000
0000
1000
0000
,
0001
2000
0000
3010
,
0200
0000
0000
0302
0000
0000
0023
0000
,
0230
0000
0000
2300
0000
0000
3020
0000
,
0130
0000
0001
1000
0000
0001
1000
0000
,
0100
0010
0001
0100
0000
0010
0100
0000
,
0002
0000
0000
0023
0000
0000
0230
0000
,
1300
0001
0100
0010
0000
0010
0100
0001
,
0000
0001
0010
0100
0000
1000
0100
1000
,
0000
0001
0100
0000
0010
0100
0001
1000
,
0200
0000
0000
2300
0000
0000
3020
0000
,
0230
0000
0000
0302
0000
0000
0023
0000
,
0130
0000
1000
0001
0000
1000
0001
0000
,
0100
0010
1000
0100
0000
0010
0100
0000
,
2000
0000
0000
3020
0000
0000
0230
0000
,
0301
1000
0100
0010
0000
0010
0100
1000
,
0000
1000
0010
0100
0000
0001
0100
0001
,
0000
1000
0100
0000
0010
0100
1000
0001
;

//---------------dance-single - ----------------
#NOTES:
     dance-single:
     :
     Easy:
     8:
     0.412,0.403,0.000,0.080,0.000:
0000
0000
0000
0000
,
1000
0100
0010
0001
,
0010
0100
1000
0001
,
1000
0100
0010
0001
,
0010
0100
1000
0002
,
1003
0010
0100
0001
,
0100
0010
1000
0001
,
1000
0010
0100
0001
,
0100
0010
1000
0002
,
0013
0010
0100
0100
,
1000
1000
0001
0001
,
0100
0100
0010
0010
,
0100
0000
0000
0000
,
0001
0001
0010
0010
,
0100
0100
1000
1000
,
0001
0001
0100
0100
,
0000
0010
0000
0100
,
0001
0000
0001
0000
0010
0100
0000
0100
,
1000
0001
0100
0010
,
0100
0001
0010
0100
,
1000
1000
0001
0001
,
1000
0000
1000
0000
0010
0100
0000
0100
,
0001
1000
0100
0010
,
0100
1000
0010
0100
,
0001
0001
1000
1000
,
0010
0000
0010
0000
0100
0010
0100
0000
,
0010
0000
0010
0000
0100
0010
0100
0000
,
0001
0000
0000
0001
1000
0000
0000
1000
,
0100
0000
0000
0100
0010
0000
0000
0010
,
0001
1000
0001
0100
,
0010
0010
0020
0030
,
0100
0100
0200
0300
,
0001
0000
0010
0000
0100
1000
0000
0000
,
0001
0010
0000
0000
0100
0000
1000
0000
,
0010
0000
0100
0000
0001
0010
0000
0000
,
0100
1000
0000
0000
0001
0000
0100
0000
,
0010
1000
0010
0100
,
0001
0000
0000
0001
1000
0000
0000
1000
,
0001
0010
0100
1000
,
0001
0000
0000
1000
0000
0000
0001
0000
,
0100
0010
0100
0001
,
1000
0000
0000
1000
0001
0000
0000
0001
,
1000
0000
0000
1000
0010
0000
0100
0000
,
0001
0000
1000
0001
1000
0000
0010
0000
,
0100
0001
0100
0000
0010
0000
1000
0000
,
0100
0100
0100
0010
,
0001
0001
0002
0003
,
0100
0000
0001
0000
0010
0001
0000
0000
,
0100
0010
0000
0000
1000
0000
0100
0000
,
0010
0000
0100
0000
1000
0010
0000
0000
,
0100
0001
0000
0000
0010
0000
0100
0000
,
1000
0100
0010
0001
,
0100
0100
0010
0010
,
1000
0100
0020
0032
,
0103
0000
0100
0001
0000
0001
0100
0000
,
0010
1000
0100
0010
,
0100
0000
0000
0100
1000
0000
0000
1000
,
0001
0100
0001
0010
,
0100
0000
0000
0100
0000
0000
1000
0000
,
0001
0000
0000
0001
0000
0000
0100
0000
,
0010
0000
0000
0010
0000
0000
1000
0100
,
0010
0000
0000
0010
0000
0000
0001
0000
,
0100
0000
0000
0100
0000
0000
0010
0000
,
1000
0000
0000
1000
0000
0000
0001
0000
,
0010
0000
0000
0010
0000
0000
0100
0000
,
1000
0000
0001
0000
0100
0010
0100
0000
,
0001
0000
0000
1000
0000
0000
0100
0000
,
0010
0000
0000
0001
0000
0000
0100
0000
,
0010
0000
0000
1000
0000
0000
0010
0100
,
0001
0000
0000
0010
0000
0000
0100
0000
,
1000
0000
0000
0001
0000
0000
0100
0000
,
0001
0000
0000
0010
0000
0000
1000
0000
,
0010
0000
0000
0100
0000
0000
0001
0000
,
0100
0000
0000
1000
0000
0000
0010
0000
,
0200
0000
0320
0000
,
1030
0002
0000
0103
,
0001
0000
0000
0100
0000
0000
0010
0000
,
0100
0000
0000
0001
0000
0000
0010
0000
,
0100
0000
1000
0100
0000
1000
0100
0000
,
0010
0000
0010
0100
0000
0100
1000
0000
,
0001
0000
0000
0100
0000
0000
0010
0000
,
0100
0001
0000
0100
0000
0001
1000
0001
,
0000
1000
0100
0000
0010
0000
0100
0000
,
1000
0000
0001
0000
0100
0010
1000
0000
,
1000
0000
0000
0100
0000
0000
0010
0000
,
0100
0000
0000
1000
0000
0000
0010
0000
,
0100
0000
0001
0100
0000
0001
0100
0000
,
0010
0000
0010
0100
0000
0100
0001
0000
,
1000
0000
0000
0100
0000
0000
0010
0000
,
0100
1000
0000
0100
0000
1000
0001
1000
,
0000
0001
0100
0000
0010
0000
0100
0000
,
0001
0000
1000
0000
0100
0010
0001
1000
;

//---------------dance-single - ----------------
#NOTES:
     dance-single:
     :
     Beginner:
     4:
     0.203,0.256,0.016,0.056,0.000:
0000
0000
0000
0000
,
1000
0000
0000
0000
,
0001
0000
0000
0000
,
1000
0000
0000
0000
,
0001
0000
0100
0100
,
0100
0000
0000
0000
,
0010
0000
0000
0000
,
1000
0000
0000
0000
,
0001
0000
0010
0010
,
0010
0000
0000
0000
,
0100
0000
0000
0000
,
1000
0000
0000
0000
,
0001
0000
0100
0100
,
0100
0000
0000
0000
,
0010
0000
0000
0000
,
1000
0000
0000
0000
,
0001
0000
0000
0010
,
0010
0000
0100
0000
,
0010
0000
0100
0000
,
0010
0000
0100
0000
,
0010
0010
0010
0000
,
0001
0000
1000
0000
,
0001
0000
1000
0000
,
0001
0000
1000
0000
,
0001
0001
0001
0000
,
0100
0000
0100
0000
,
0100
0000
0100
0000
,
0100
0000
0100
0000
,
0100
0000
0100
0000
,
0100
0100
0100
0100
,
0100
0000
0000
0010
,
0010
0000
0000
0000
,
1000
0000
0001
0000
,
1000
0000
0001
0000
,
0100
0000
0010
0000
,
0100
0000
0010
0000
,
1000
0000
0001
0000
,
1000
0000
0001
0000
,
0020
0000
0030
0000
,
1001
0000
0000
0000
,
0100
0000
0001
0000
,
0100
0000
0001
0000
,
1000
0000
0100
0000
,
0010
0000
0010
0000
,
0100
0000
0100
0000
,
1000
0000
0001
0000
,
1000
0000
0002
0003
,
1000
0000
0001
0000
,
1000
0000
0001
0000
,
0100
0000
0010
0000
,
0100
0000
0010
0000
,
1000
0000
0001
0000
,
1000
0000
0001
0000
,
0020
0000
0030
0000
,
1001
0000
0000
0000
,
0001
0000
0010
0000
,
0001
0000
1000
0000
,
0010
0000
1000
0000
,
0100
0000
0000
0010
,
0010
0000
0000
0001
,
0001
0000
0000
0100
,
0100
0000
0000
0010
,
0010
0000
0000
1000
,
1000
0000
0000
0001
,
0001
0000
0000
0010
,
0010
0000
0000
0100
,
0100
0000
0100
0000
,
0100
0000
0100
0000
,
0010
0000
0010
0000
,
0010
0000
0010
0000
,
0001
0000
0001
0000
,
0001
0000
0001
0000
,
1000
0000
1000
0000
,
1000
0000
1000
0000
,
0020
0000
0030
0000
,
0100
0000
0000
0100
,
0100
0000
0001
0000
,
0100
0000
0001
0000
,
1000
0000
0100
0000
,
2000
0000
3000
0000
,
0001
0000
0100
0000
,
0001
0000
0010
0000
,
0100
0000
1000
0000
,
0002
0000
0003
0000
,
1000
0000
0100
0000
,
0010
0000
0001
0000
,
1000
0000
0010
0000
,
0200
0000
0300
0000
,
0001
0000
0010
0000
,
0100
0000
1000
0000
,
0001
0000
0100
0000
,
0010
0000
0100
0100
;

//---------------dance-double - ----------------
#NOTES:
     dance-double:
     :
     Hard:
     14:
     0.803,0.696,0.231,0.255,0.435:
00000000
00000000
00000000
00000000
,
00010000
00000000
00001000
00000000
01000000
00000000
00000000
00010000
00000000
00000000
00100000
00000000
01000000
00000000
10000000
00000000
,
01000000
00000000
00100000
00000000
00010000
00000000
00000000
01000000
00000000
00000000
00001000
00000000
00010000
00000000
00000100
00000000
,
00001000
00000000
00000010
00000000
00000100
00000000
00000000
00000001
00000000
00000000
00000010
00000000
00000001
00000000
00000100
00000000
,
00000010
00000000
00001000
00000000
00000100
00000000
00000000
00010000
00000000
00000000
00000100
00000000
00010100
00000000
00010000
00000000
,
00001000
00000000
01000000
00000000
00010000
00000000
00000000
00100000
00000000
00000000
00010000
00000000
01000000
00000000
00100000
00000000
,
10000000
00000000
01000000
00000000
00010000
00000000
00000000
00001000
00000000
00000000
00010000
00000000
00001000
00000000
00000100
00000000
,
00000010
00000000
00001000
00000000
00000100
00000000
00000000
00000010
00000000
00000000
00000001
00000000
00000100
00000000
00000010
00000000
,
00001000
00000000
00000100
00000000
00010000
00000000
00000000
00001000
00000000
00000000
01000000
00000000
00020000
00000000
00130000
00000000
,
01000000
00000000
10000000
00000000
00010000
01000000
00000000
00010000
00000000
00000000
00100000
00000000
00001000
00000000
00010000
00000000
,
00000100
00000000
00001000
00000000
00000010
00000100
00000000
00000010
00000000
00000000
00000100
00000000
00000001
00000000
00000010
00000000
,
00000100
00000000
00010000
00000000
00000100
00010000
00000000
00001000
00000000
00000000
01000000
00000000
00010000
00000000
00200000
00000000
,
00000000
00000000
00000000
00000000
00000000
00000000
00000000
00000000
01300000
00000000
10000000
00000000
00010000
01000000
00010000
00000000
,
00100000
00000000
00001000
00000000
00010000
00000010
00000000
00001000
00000000
00000000
00000010
00000000
00000100
00000000
00000001
00000000
,
00000010
00000000
00000100
00000000
00010000
00001000
00000000
00010000
00000000
00000000
00001000
00000000
01000000
00000000
00010000
00000000
,
00100000
00000000
01000000
00000000
10000000
01000000
00000000
00100000
00000000
00000000
00000000
00010000
01000000
00010000
00000000
00000000
,
00000000
10000000
01000000
10000000
00000000
00000000
00000000
00000000
00000000
00000000
10000000
00010000
10000000
00000000
00000000
00000000
,
00010000
00000000
00000000
00000000
01010000
00000000
00000000
01000000
00001000
00000000
00010000
00000000
00001000
00000000
00000100
00000000
,
00000010
00000000
00000000
00001000
00000200
00000000
00000000
00000000
00000000
00000000
00000310
00000000
00000001
00000000
00000010
00000000
,
00000100
00000000
00000000
00010000
00001000
00000000
00010000
00000000
00001000
00000000
01000000
00000000
00010000
00000000
00100000
00000000
,
01000000
00000000
00000000
10000000
00000000
10000000
00000000
00000000
00100000
00000000
00000000
01000000
00000000
01000000
00010000
00000000
,
00100000
00000000
00000000
00000000
00110000
00000000
00000000
00010000
01000000
00000000
00001000
00000000
00010000
00000000
00000100
00000000
,
00001000
00000000
00000000
00000010
00000200
00000000
00000000
00000000
00000000
00000000
00000301
00000000
00000010
00000000
00000001
00000000
,
00000100
00000000
00000000
00001000
00010000
00000000
01000000
00000000
10000000
00000000
00100000
00000000
10000000
00000000
01000000
00000000
,
00010000
00000000
00000000
00001000
00000200
00000000
00000000
00000000
00000310
00000000
00001000
00000000
00000010
00000000
00001000
00000000
,
00000001
00000000
00000000
00000101
00000000
00000000
00001100
00000000
00000000
00000000
00001000
00000000
00000100
00010000
00001000
00000000
,
01000000
00000000
00000000
01010000
00000000
00000000
10010000
00000000
00000000
00000000
10000000
00000000
01000000
00000000
00100000
00000000
,
00010000
00000000
00000000
01010000
00000000
00000000
01000000
00000000
00001000
00000000
00000000
00011000
00000000
00000000
00010000
00000000
,
00000010
00000000
00000000
00001010
00000000
00000000
00001000
00000000
00000001
00000000
00000000
00000011
00000000
00000000
00000010
00000000
,
00000100
00000000
00010000
00000000
01000000
00000000
10000000
00000000
00100000
00000000
01000000
00010000
01000000
00010000
00100000
00000000
,
01000000
00000000
00000000
10000000
00000000
00010000
01000000
00000000
00001000
00000000
00001000
00000000
00010000
00000000
00000100
00000000
,
00001100
00000000
00000000
00001010
00000000
00000000
00000101
00000000
00002002
00000000
00000000
00000000
00000000
00000000
00003003
00000000
,
00000002
00000000
00000000
00000000
00000000
00000000
00000000
00000000
00001003
00000100
00010000
00000010
00000000
00000000
00000000
00000000
,
00001000
00000100
00010000
00000000
00001000
01000000
00100000
01000000
,
00020000
00000000
00000000
00000000
00000000
00000000
00000000
00000000
10030000
01000000
00100000
00010000
00000000
00000000
00000000
00000000
,
10000000
01000000
00010000
00000000
00001000
00000010
00000001
00000100
,
00000020
00000000
00000000
00000000
00000000
00000000
00000000
00000000
00001030
00000100
00010000
00001000
00000000
00000000
01000000
00000000
,
00001000
00000000
00000000
00100000
00000000
00000000
00010000
00000000
01000000
00000000
00000000
00100000
00000000
00000000
10000000
00000000
,
01000000
00100000
01000000
00000000
10000000
00000000
00010000
00000000
01000000
00100000
01000000
00000000
00010000
00000000
10000000
00000000
,
01000000
00000000
00000000
00010000
00000000
00000000
00001000
00000000
00000000
00000100
00000000
00000000
00000101
00000000
00000000
00000000
,
00000002
00000000
00000000
00000000
00000000
00000000
00000000
00000000
00000103
00000010
00001000
00000100
00000000
00000000
00010000
00000000
,
00001000
00000000
00000000
01001000
00000000
00000000
01000000
00000000
00100000
00000000
00000000
10100000
00000000
00000000
10000000
00000000
,
01000000
00000000
00000000
01100000
00000000
00000000
00100000
00000000
00010000
00000000
00100000
00001000
00100000
00000000
00000000
00000000
,
00100000
00000000
00100000
00000000
01000000
00000000
01000000
10000000
00000000
00010000
00000000
10000000
00010000
00000000
00000000
00000000
,
00100000
00000000
00100000
00000000
01000000
00000000
01000000
10000000
00000000
00010000
00000000
10000000
00010000
00000000
00000000
00000000
,
00100000
00000000
00000000
00001000
00000000
00000000
00010000
00000000
00000100
00000000
00000100
00000000
00001000
00000000
00000010
00000000
,
00000100
00000000
00000000
00000100
00000000
00000000
00001001
00000000
00002002
00000000
00003000
00000000
00000003
00000000
00000000
00000000
,
00000021
00000000
00000000
00000000
00000000
00000000
00000000
00000000
00000130
00010000
00001000
01000000
00000000
00000000
00000000
00000000
,
01000000
00010000
00100000
00000000
00010000
01000000
00100000
10000000
,
12000000
00000000
00000000
00000000
00000000
00000000
00000000
00000000
03100000
00001000
00010000
00000010
00000000
00000000
00000000
00000000
,
00000010
00001000
00000100
00000000
00000010
00000001
00000100
00000010
,
00002000
00000000
00000000
00000000
00000000
00000000
00000000
00000000
00003010
00001000
00000100
00010000
00000000
00000000
00001000
00000000
,
01000000
00000000
00000000
01010000
00000000
00000000
00010000
00000000
00100000
00000000
00000000
01100000
00000000
00000000
01000000
00000000
,
10000000
00000000
01000000
00000000
00100000
00000000
01000000
00000000
10000000
00000000
00010000
00000000
01000000
00010000
01000000
00000000
,
00100000
00000000
00000000
10100000
00000000
00000000
10000000
00000000
00000000
11000000
00000000
00000000
02000000
00000000
00000000
00000000
,
03200000
00000000
00000000
00000000
00000000
00000000
00000000
00000000
00301000
00010000
00000100
00000010
00000000
00000000
00000001
00000000
,
00000100
00000010
00000000
00000100
00000000
00000000
00000010
00000000
00001000
00000100
00000000
00010000
00000000
00000000
00001000
00000000
,
01000000
00010000
00000000
00100000
00000000
00010000
01000000
00000000
00000000
00000000
00100000
10000000
00100000
10000000
00100000
00000000
,
10000000
01000000
00010000
01000000
10000000
00100000
00010000
00100000
,
01000000
00001000
00010000
00000010
00010000
00001000
00000100
00000010
,
00001000
00000100
00000010
00000001
00000100
00001000
00000100
00000001
,
00000010
00001000
00010000
01000000
00100000
00010000
01000000
00100000
,
10000000
01000000
00010000
00001000
00000010
00000001
00000100
00001000
,
00000001
00000010
00001000
00000100
00000010
00000001
00000100
00001000
,
00010000
01000000
10000000
00100000
10000000
01000000
00100000
00010000
,
01000000
00000000
00001000
00000000
00000100
00000000
00000010
00000000
00010000
00000000
00001000
00000000
01000000
00010000
01000000
00010000
,
01000000
00100000
10000000
01000000
00010000
00001000
00000010
00000001
,
00000100
00000001
00000010
00001000
00000001
00000100
00001000
00000010
,
00000100
00001000
00010000
01000000
10000000
00100000
10000000
01000000
,
00010000
10000000
00100000
00010000
01000000
00001000
00010000
00000100
,
00001000
00000010
00000100
00001000
01000000
00010000
00100000
01000000
,
10000000
01000000
00010000
00001000
00000100
00000001
00000010
00000100
,
00010000
00001000
00100000
00001000
00010000
00000100
00001000
00000010
,
00000100
00000001
00000010
00000100
00001000
00010000
00100000
01000000
,
10000000
00000000
01000000
00000000
00010000
00000000
00001000
00000000
00000100
00000000
00000001
00000000
,
00001000
00000100
00000000
00000100
00020000
00000000
00000000
00000000
00000000
00000000
00000000
00000000
00031000
00000000
00000000
00000000
,
00010000
01000000
10000000
00010000
00100000
10000000
00100000
00001000
,
00010000
00000100
00000001
00001000
00000010
00000001
00000100
00000010
,
00002000
00000000
00003001
00000002
00000000
00000103
00000200
00000000
,
00000310
00001000
00000100
00000010
00000000
00000100
00001100
00000000
,
00001000
00000010
00000001
00001000
00000100
00000001
00000100
00010000
,
00001000
00100000
10000000
00020000
00000000
00130000
01000000
20000000
,
00000000
30010000
00100000
00002000
00000000
00013000
00000100
00002000
,
00000000
00000000
00003010
00000000
00000100
00000000
00000001
00000000
00001000
00000100
00001000
00000000
00000010
00000000
00000100
00000000
,
00001000
00000100
00000001
00001000
00000010
00000001
00000010
00010000
,
00001000
01000000
10000000
00010000
00100000
10000000
01000000
00100000
,
00020000
00000000
10030000
20000000
00000000
31000000
02000000
00000000
,
03100000
00010000
01000000
00100000
00000000
01000000
01010000
00000000
,
00010000
00100000
10000000
00010000
01000000
10000000
01000000
00001000
,
00010000
00000010
00000001
00002000
00000000
00003010
00000100
00000002
,
00000000
00001003
00000010
00020000
00000000
00031000
01000000
00010000
,
00100000
00000000
01000000
10000000
00000000
10000000
00010000
00000000
01000000
00100000
01000000
00000000
00001000
00000000
00010000
00000000
;

//---------------dance-couple - ----------------
#NOTES:
     dance-couple:
     :
     Edit:
     1:
     0.000,0.000,0.000,0.000,0.000:
00000000
00000000
00000000
00000000
,
00000000
00000000
00000000
00000000
,
00000000
00000000
00000000
00000000
,
00000000
00000000
00000000
00000000
,
00000000
00000000
00000000
00000000
,
00000000
00000000
00000000
00000000
,
00000000
00000000
00000000
00000000
,
00000000
00000000
00000000
00000000
,
00000000
00000000
00000000
00000000
,
00000000
00000000
00000000
00000000
,
00000000
00000000
00000000
00000000
,
00000000
00000000
00000000
00000000
,
00000000
00000000
00000000
00000000
,
00000000
00000000
00000000
00000000
,
00000000
00000000
00000000
00000000
,
00000000
00000000
00000000
00000000
,
00000000
00000000
00000000
00000000
,
00000000
00000000
00000000
00000000
,
00000000
00000000
00000000
00000000
,
00000000
00000000
00000000
00000000
,
00000000
00000000
00000000
00000000
,
00000000
00000000
00000000
00000000
,
00000000
00000000
00000000
00000000
,
00000000
00000000
00000000
00000000
,
00000000
00000000
00000000
00000000
,
00000000
00000000
00000000
00000000
,
00000000
00000000
00000000
00000000
,
00000000
00000000
00000000
00000000
,
00000000
00000000
00000000
00000000
,
00000000
00000000
00000000
00000000
,
00000000
00000000
00000000
00000000
,
00000000
00000000
00000000
00000000
,
00000000
00000000
00000000
00000000
,
00000000
00000000
00000000
00000000
,
00000000
00000000
00000000
00000000
,
00000000
00000000
00000000
00000000
,
00000000
00000000
00000000
00000000
,
00000000
00000000
00000000
00000000
,
00000000
00000000
00000000
00000000
,
00000000
00000000
00000000
00000000
,
00000000
00000000
00000000
00000000
,
00000000
00000000
00000000
00000000
,
00000000
00000000
00000000
00000000
,
00000000
00000000
00000000
00000000
,
00000000
00000000
00000000
00000000
,
00000000
00000000
00000000
00000000
,
00000000
00000000
00000000
00000000
,
00000000
00000000
00000000
00000000
,
00000000
00000000
00000000
00000000
,
00000000
00000000
00000000
00000000
,
00000000
00000000
00000000
00000000
,
00000000
00000000
00000000
00000000
,
00000000
00000000
00000000
00000000
,
00000000
00000000
00000000
00000000
,
00000000
00000000
00000000
00000000
,
00000000
00000000
00000000
00000000
,
00000000
00000000
00000000
00000000
,
00000000
00000000
00000000
00000000
,
00000000
00000000
00000000
00000000
,
00000000
00000000
00000000
00000000
,
00000000
00000000
00000000
00000000
,
00000000
00000000
00000000
00000000
,
00000000
00000000
00000000
00000000
,
00000000
00000000
00000000
00000000
,
00000000
00000000
00000000
00000000
,
00000000
00000000
00000000
00000000
,
00000000
00000000
00000000
00000000
,
00000000
00000000
00000000
00000000
,
00000000
00000000
00000000
00000000
,
00000000
00000000
00000000
00000000
,
00000000
00000000
00000000
00000000
,
00000000
00000000
00000000
00000000
,
00000000
00000000
00000000
00000000
,
00000000
00000000
00000000
00000000
,
00000000
00000000
00000000
00000000
,
00000000
00000000
00000000
00000000
,
00000000
00000000
00000000
00000000
,
00000000
00000000
00000000
00000000
,
00000000
00000000
00000000
00000000
,
00000000
00000000
00000000
00000000
,
00000000
00000000
00000000
00000000
,
00000000
00000000
00000000
00000000
,
00000000
00000000
00000000
00000000
,
00000000
00000000
00000000
00000000
,
00000000
00000000
00000000
00000000
,
00000000
00000000
00000000
00000000
,
00000000
00000000
00000000
00000000
,
00000000
00000000
00000000
00000000
,
00000000
00000000
00000000
00000000
,
00000000
00000000
00000000
00000000
,
00000000
00000000
00000000
00000000
,
00000000
00000000
00000000
00000000
,
00000000
00000000
00000000
00000000
,
MMMMMMMM
00000000
00000000
00000000
;

//---------------dance-double - ----------------
#NOTES:
     dance-double:
     :
     Medium:
     11:
     0.599,0.550,0.024,0.191,0.108:
00000000
00000000
00000000
00000000
,
10000000
01000000
00100000
00000000
00010000
01000000
00001000
00000000
,
00010000
00000100
00001000
00000000
00000010
00001000
00000100
00000000
,
00000010
00000001
00000100
00000000
00000010
00010000
00001000
00000000
,
01000000
00000000
00000000
00000000
00100000
00000000
00000000
00000000
10000000
00000000
00000000
00000000
00000000
00000000
00000000
00000000
01000000
00000000
00000000
00000000
00100000
00000000
00000000
00000000
00020000
00030000
00000000
00000000
00000000
00000000
00000000
00000000
,
10000000
01000000
10000000
00000000
00010000
01000000
00010000
00000000
,
00100000
00001000
00100000
00000000
00001000
00010000
00001000
00000000
,
00010000
00000100
00010000
00000000
00000100
00001000
00000100
00000000
,
00001000
00000010
00001000
00000000
00000010
00000100
00000001
00000001
,
00001000
00000100
00001000
00000000
00000100
00010000
00001000
00000000
,
01000000
00001000
00010000
00000000
00001000
00010000
00100000
00000000
,
10000000
01000000
00100000
00000000
00010000
01000000
00100000
00000000
,
02000000
00000000
00100000
03100000
,
10000000
01000000
00100000
00000000
00100000
00001000
00010000
00000000
,
00001000
00010000
00000100
00000000
00000100
00000010
00000001
00000000
,
00000100
00000010
00001000
00000000
00000100
00010000
00001000
00000000
,
00010000
00001000
01000000
00000000
00010000
00000000
01010000
00000000
,
00100000
00000000
00100000
00000000
10000000
01000000
00000000
01000000
,
20000000
00000000
00010000
00000000
31000000
00000000
00100000
00010000
,
01000000
00000000
01000000
00001000
00010000
00000000
00000100
00000000
,
00010000
00000000
00000000
00000010
00000000
00001000
00000000
00000000
00000010
00000000
00000000
00001000
00000000
00000000
00000100
00000000
,
00000010
00000000
00000010
00000000
00000001
00000100
00000000
00000100
,
00000020
00000000
00001000
00000000
00000130
00000000
00000010
00001000
,
00000100
00000000
00010000
00000000
00001000
01000000
00000000
01000000
,
00100000
00000000
10000000
00000000
01000000
00100000
01000000
00000000
,
10000000
00000000
00000000
01000000
00000000
00000000
00010000
00000000
00000000
00000000
00001000
00000000
00000100
00000000
00000000
00000000
,
00000001
00000000
00000000
00000100
00000000
00000000
00001000
00000000
00000000
00000000
00010000
00000000
01000000
00000000
00000000
00000000
,
10000000
00000000
00000000
01000000
00000000
00000000
00100000
00000000
00001000
00000000
00000000
00010000
00000000
00000000
00000100
00000000
,
00000010
00000000
00000000
00000001
00000000
00000000
00000100
00000000
00000010
00000000
00000000
00001000
00000000
00000000
00000100
00000000
,
00010000
00000000
00010000
00000000
00001000
01000000
00100000
10000000
,
01000000
00000000
00000000
01000000
00000000
00000000
01000000
00000000
00100000
00000000
00000000
00000000
00001000
00000000
00010000
00000000
,
00000100
00000000
00000000
00000100
00000000
00000000
00000100
00000000
00000010
00000000
00000000
00000000
00001001
00000000
00000000
00000000
,
00000001
00000000
00000100
00000000
00000010
00001000
00000100
00000000
,
00010000
00001000
00100000
00010000
,
01000000
00000000
00100000
00000000
10000000
01000000
00010000
00000000
,
00001000
00000100
00000010
00001000
,
00000100
00000000
00000010
00000000
00000001
00000100
00000010
00000000
,
00001000
00000100
00010000
00000000
00001000
01000000
00010000
00000000
,
10000000
01000000
00100000
01000000
00010000
01000000
00100000
00000000
,
00001000
00000000
00000000
00010000
00000000
00000000
00001000
00000000
00000000
00010000
00000000
00000000
00000100
00000000
00000000
00000000
,
00000010
00000000
00000001
00000000
00000100
00000010
00001000
00000000
,
00000100
00000000
00000000
00010000
00000000
00000000
00001000
00000000
00010000
00000000
00000000
00001000
00000000
00000000
01000000
00000000
,
00010000
00000000
00000000
10000000
00000000
00000000
01000000
00000000
00000000
00000000
00010000
00000000
00001000
00000000
00000000
00000000
,
00000010
00000010
00000100
00000100
00001000
00000001
00001000
00000001
,
00000010
00000010
00000100
00000100
00001000
00000001
00001000
00000001
,
00000010
00000000
00000000
00000010
00000000
00000000
00000010
00000000
00000100
00000000
00000000
00000000
00001000
00000000
00000001
00000000
,
00000100
00000000
00000000
00000100
00000000
00000000
00000100
00000000
00000010
00000000
00001000
00000000
00000100
00000000
00000000
00000000
,
00010000
00001000
01000000
00000000
01000000
00001000
00010000
00000000
,
01000000
00000000
10000000
00000000
00100000
01000000
00010000
00100000
,
00001000
00010000
00000100
00000000
00000100
00010000
00001000
00000000
,
00010000
00000000
00000100
00000000
00000010
00000001
00000100
00000010
,
00001000
00000100
00010000
00000000
00010000
00000100
00001000
00000000
,
00000100
00000000
00000000
00010000
00000000
00000000
00001000
00000000
01000000
00000000
00000000
00010000
00000000
00000000
10000000
00000000
,
01000000
00100000
01000000
10000000
01000000
00100000
00001000
00010000
,
00000100
00000000
00000000
00001000
00000000
00000000
00000010
00000000
00000000
00000100
00000000
00000000
00000001
00000000
00000000
00000000
,
00000010
00000001
00000100
00000000
00000010
00001000
00000100
00000000
,
00010000
00001000
00010000
00000000
00001000
00010000
00001000
00000000
,
00010000
01000000
10000000
00100000
10000000
00000000
01000000
00000000
,
00100000
00000000
00000000
01000000
00000000
00000000
10000000
00000000
,
00010000
00000000
00000000
01000000
00000000
00000000
00001000
00000000
,
00010000
00000000
00000000
00000100
00000000
00000000
00000010
00000001
,
00000100
00000000
00000010
00000000
00001000
00000100
00010000
00001000
,
01000000
00000000
00010000
00000000
00100000
01000000
10000000
00000000
,
01000000
00000000
00010000
00000000
00001000
00000100
00000010
00000000
,
00001000
00000000
00000100
00000000
00000010
00000001
00000100
00000000
,
00001000
00010000
01000000
10000000
00100000
10000000
01000000
00000000
,
00100000
00001000
00100000
00000000
00001000
00010000
00001000
00000000
,
00010000
00000100
00010000
00000000
00000100
00000010
00000100
00000000
,
00000010
00000001
00000100
00000010
00001000
00000100
00010000
00000000
,
00001000
00000000
00001000
00000000
01000000
00001000
01000000
00001000
,
00100000
00000000
01000000
00000000
10000000
01000000
00010000
00000000
,
00001000
00000000
00000100
00000000
00000001
00000010
00000100
00000000
,
00001000
00000100
00001000
00000000
00000100
00010000
00000100
00000000
,
00010000
00001000
00010000
00000000
00001000
01000000
00001000
00000000
,
01000000
00000000
00100000
00000000
10000000
00000000
01000000
00000000
00010000
00000000
00001000
00000000
,
00000100
00001002
00000000
00000103
,
00000020
00000000
00000000
00002030
00000000
00000000
00003200
00000000
,
00020300
00000000
00000000
00032000
00000000
00000000
02003000
00000000
,
03010000
00100000
01000000
10000000
01000000
00100000
00010000
01000000
,
00001000
00001000
00010000
00010000
00000000
00001000
00010000
00000000
,
00000200
00000000
00000000
00000320
00000000
00000000
00000032
00000000
,
00000103
00000010
00001000
00000100
00000000
00010000
00001000
01000000
,
00000000
00001000
00010000
00000100
00000000
00000010
00000001
00000100
,
00000000
00000010
00001000
00000000
00000200
00000000
00010300
00000000
,
00002000
00000000
00000000
02003000
00000000
00000000
03200000
00000000
,
20300000
00000000
00000000
32000000
00000000
00000000
03020000
00000000
,
00031000
00000000
00000100
00000010
00000000
00000010
00000100
00000000
,
00000001
00000010
00000100
00001000
00000000
00000100
00000010
00000000
,
00000002
00000000
00000000
00000203
00000000
00000000
00000320
00000000
,
00001030
00000100
00010000
00001000
00000000
01000000
00001000
00010000
,
00000000
01000000
10000000
00100000
00000000
01000000
00010000
00100000
,
00001000
00000000
00000000
00010000
00000000
00000000
00000100
00000000
00000010
00000000
00000001
00000000
00000100
00000000
00001000
00000000
;

//---------------dance-double - ----------------
#NOTES:
     dance-double:
     :
     Easy:
     8:
     0.409,0.403,0.008,0.080,0.000:
00000000
00000000
00000000
00000000
,
00000001
00000010
00000001
00000100
,
00000010
00010000
00001000
00010000
,
00001000
00100000
00010000
01000000
,
00100000
10000000
01000000
00200000
,
00310000
01000000
00100000
10000000
,
01000000
00100000
00001000
00100000
,
00010000
01000000
00100000
10000000
,
00100000
01000000
00001000
00020000
,
00030010
00001000
00000100
00000010
,
00000001
00000010
00000100
00001000
,
00000010
00010000
00001000
00100000
,
00010000
00000000
00000000
00000000
,
10000000
01000000
00100000
00010000
,
00100000
01000000
10000000
00100000
,
00010000
00001000
00000010
00000001
,
00000000
00000001
00000000
00000001
,
00000010
00000000
00000100
00000000
00010000
00001000
00000000
00010000
,
00001000
00100000
01000000
10000000
,
00100000
00010000
00100000
10000000
,
01000000
00100000
00001000
00010000
,
00000010
00000000
00001000
00000000
00000100
00000010
00000000
00000100
,
00000010
00000001
00000010
00000100
,
00001000
00000010
00010000
00001000
,
00100000
00010000
01000000
00100000
,
10000000
00000000
01000000
00000000
00100000
00010000
00100000
00000000
,
01000000
00000000
10000000
00000000
00100000
01000000
00100000
00000000
,
01000000
00000000
00000000
00010000
00100000
00000000
00000000
00001000
,
00010000
00000000
00000000
00000100
00001000
00000000
00000000
00000010
,
00000100
00000010
00001000
00000100
,
00010000
00001000
00200000
00300000
,
00010000
10000000
20020000
30030000
,
10000000
00000000
00100000
00000000
01000000
00010000
00000000
00000000
,
01000000
00010000
00000000
00000000
00100000
00000000
00001000
00000000
,
00010000
00000000
00000010
00000000
00000100
00000010
00000000
00000000
,
00000100
00000010
00000000
00000000
00001000
00000000
00000100
00000000
,
00000010
00000001
00000010
00000100
,
00001000
00000000
00000000
00000100
00010000
00000000
00000000
00001000
,
00100000
00010000
01000000
00100000
,
10000000
00000000
00000000
01000000
00000000
00000000
00100000
00000000
,
00010000
01000000
00001000
00010000
,
00000010
00000000
00000000
00001000
00000100
00000000
00000000
00010000
,
00000010
00000000
00000000
00000100
00000010
00000000
00001000
00000000
,
00000100
00000100
00000010
00000010
,
00000001
00001000
00000001
00001000
,
00000100
00010000
00001000
00100000
,
00001000
00010000
00000020
00000030
,
00000100
00000000
00000000
00000000
00000010
00000100
00000000
00000000
,
00000010
00000100
00000000
00000000
00010000
00000000
00001000
00000000
,
00100000
00000000
00010000
00000000
01000000
00100000
00000000
00000000
,
01000000
00100000
00000000
00000000
10000000
00000000
01000000
00000000
,
00100000
00010000
00100000
00001000
,
00010000
00000010
00010000
00001000
,
00100000
01000000
20000000
30000000
,
00100000
00000000
01000000
00010000
00000000
01000000
00010000
00000000
,
00100000
00001000
00010000
00000010
,
00000100
00000000
00000000
00000010
00001000
00000000
00000000
00000100
,
00001000
00000010
00010000
00001000
,
00100000
00000000
00000000
00100000
00000000
00000000
00100000
00000000
,
01000000
00000000
00000000
01000000
00000000
00000000
01000000
00000000
,
10000000
00000000
00000000
10000000
00000000
00000000
10000000
00100000
,
10000000
00000000
00000000
00010000
00000000
00000000
00100000
00000000
,
00001000
00000000
00000000
00001000
00000000
00000000
00001000
00000000
,
00010000
00000000
00000000
00010000
00000000
00000000
00010000
00000000
,
00000010
00000000
00000000
00000010
00000000
00000000
00000010
00000000
,
00000100
00000000
00000001
00000000
00000010
00000100
00000010
00000000
,
00000001
00000000
00000000
00000010
00000000
00000000
00001000
00000000
,
00010000
00000000
00000000
00100000
00000000
00000000
10000000
00000000
,
01000000
00000000
00000000
00100000
00000000
00000000
00001000
00010000
,
00001000
00000000
00000000
00010000
00000000
00000000
00000010
00000000
,
00000100
00000000
00000000
00000010
00000000
00000000
00001000
00000000
,
00000100
00000000
00000000
00000001
00000000
00000000
00001000
00000000
,
00000010
00000000
00000000
00000001
00000000
00000000
00001000
00000000
,
00000010
00000000
00000000
00010000
00000000
00000000
00001000
00000000
,
00200000
00000000
02300000
00000000
,
13000000
00020000
00000000
00130000
,
00001000
00000000
00000000
00010000
00000000
00000000
00000010
00000000
,
00000100
00000000
00000000
00000001
00000000
00000000
00000010
00000000
,
00000100
00000000
00010000
00001000
00000000
00010000
00001000
00000000
,
00100000
00000000
00010000
01000000
00000000
00010000
01000000
00000000
,
00100000
00000000
00000000
10000000
00000000
00000000
01000000
00000000
,
00100000
00010000
00000000
00100000
00000000
00001000
00010000
00001000
,
00000000
00010000
00000010
00000000
00001000
00000000
00000100
00000000
,
00000010
00000000
00000100
00000000
00001000
00000010
00001000
00000000
,
00000100
00000000
00000000
00010000
00000000
00000000
01000000
00000000
,
10000000
00000000
00000000
00100000
00000000
00000000
00010000
00000000
,
00000010
00000000
00001000
00000100
00000000
00010000
00001000
00000000
,
00100000
00000000
00001000
01000000
00000000
00010000
01000000
00000000
,
00100000
00000000
00000000
10000000
00000000
00000000
01000000
00000000
,
10000000
00100000
00000000
01000000
00000000
00010000
00100000
00010000
,
00000000
00100000
00001000
00000000
00010000
00000000
00000010
00000000
,
00000100
00000000
00000001
00000000
00000010
00000100
00000010
00000100
;

//---------------dance-double - ----------------
#NOTES:
     dance-double:
     :
     Challenge:
     18:
     0.957,0.917,0.734,0.295,0.770: // measure 1
00000000
00000000
00000000
00000000
,  // measure 2
00010000
00000000
00000100
00000000
00001000
00000000
00000000
00000010
00000000
00000100
00000000
00000000
00000001
00000000
00000010
00000000
,  // measure 3
00000001
00000000
00000100
00000000
00000010
00000000
00000000
00001000
00000000
00000100
00000000
00000000
00010000
00000000
00001000
00000000
,  // measure 4
01000000
00000000
00010000
00000000
00100000
00000000
00000000
01000000
00000000
10000000
00000000
00000000
01000000
00000000
00010000
00000000
,  // measure 5
00000100
00000000
00000010
00000000
00000001
00000000
00000000
00001000
00000000
00000010
00000000
00000000
00001010
00000000
00001000
00000000
,  // measure 6
00000100
00000000
00000001
00000000
00000100
00000000
00000000
00010000
00000000
00001000
00000000
00000000
01000000
00000000
00010000
00000000
,  // measure 7
00100000
00000000
01000000
00000000
10000000
00000000
00000000
01000000
00000000
00010000
00000000
00000000
00001000
00000000
00000100
00000000
,  // measure 8
00000010
00000000
00001000
00000000
00000100
00000000
00000000
00000010
00000000
00000001
00000000
00000000
00000100
00000000
00001000
00000000
,  // measure 9
00100000
00000000
00010000
00000000
01000000
00000000
00000000
10000000
00000000
01000000
00000000
00000000
00001000
00000000
00010000
00000000
,  // measure 10
00000010
00001000
00000010
00000000
00000100
00001000
00000000
00000100
00000000
00000010
00000000
00001000
00000100
00000000
00010000
00000000
,  // measure 11
00001000
01000000
00001000
00000000
00010000
01000000
00000000
10000000
00000000
00100000
00000000
01000000
00010000
00000000
00100000
00000000
,  // measure 12
00001000
00010000
00001000
00000000
00000100
00000010
00000000
00001000
00000000
00000100
00000000
00000010
00000001
00000000
00000100
00000000
,  // measure 13
00000020
00000000
00000000
00000000
00000000
00000000
00000000
00000000
00001030
00000100
00010000
00001000
00000000
01000000
00010000
00100000
,  // measure 14
01000000
10000000
01000000
00000000
00100000
00010000
00000000
00100000
00000000
00001000
00000000
00010000
00000100
00000000
00000010
00000000
,  // measure 15
00000001
00000100
00001000
00000000
00000100
00000010
00000000
00001000
00000000
00000100
00000000
00010000
00001000
00000000
00100000
00000000
,  // measure 16
00010000
01000000
10000000
00000000
01000000
00100000
00000000
10000000
00000000
01000000
00000000
00010000
00001000
00000100
00000000
00000000
,  // measure 17
00000000
00000001
00000010
00000100
00000000
00000000
00000000
00000000
00000000
00000000
00001000
00000100
00010000
00000000
00000000
00000000
,  // measure 18
00011000
00000000
00000000
00000000
01001000
00000000
00000000
01000000
00010000
00000000
00100000
00000000
01000000
00000000
10000000
00000000
,  // measure 19
01000000
00000000
00100000
00001000
00200000
00000000
00000000
00000000
00300000
00000000
00001000
00010000
00000100
00000010
00000100
00010000
,  // measure 20
00001000
00000000
00000000
01000000
00010000
00000000
00100000
00000000
01000000
00000000
10000000
00000000
00010000
01000000
00100000
10000000
,  // measure 21
01000000
00000000
00000000
11000000
00000000
01010000
00000000
00000000
00011000
00000000
00000000
00001100
00000000
00000100
00000010
00000000
,  // measure 22
00000011
00000000
00000000
00000000
00000101
00000000
00000000
00000100
00000010
00000000
00001000
00000000
00000100
00000000
00010000
00000000
,  // measure 23
00001000
00000000
01000000
00001000
02000000
00000000
00000000
00000000
03000000
00000000
00001000
00100000
00010000
01000000
00100000
10000000
,  // measure 24
01000000
00000000
00000000
00100000
00010000
00000000
00100000
00000000
01000000
00000000
10000000
00000000
01000000
00000000
00010000
00000000
,  // measure 25
00001000
00000000
00000000
00000100
00000002
00000000
00000000
00000000
00000010
00000000
00000010
00000000
00000013
00000000
00000010
00000001
,  // measure 26
00000010
00000000
00000000
00000110
00000000
00000000
00000100
00000000
00010000
00000000
00001000
00000000
01000000
00010000
00100000
00000000
,  // measure 27
01000000
00000000
00000000
11000000
00000000
00000000
10000000
00000000
00010000
00000000
01000000
00000000
00001000
00000000
00000100
00000000
,  // measure 28
00000010
00000000
00000000
00001010
00000000
00000000
00001000
00000000
00000100
00000000
00000000
00010100
00000000
00000000
00010000
00000000
,  // measure 29
00001000
00000000
00000000
01001000
00000000
00000000
01000000
00000000
00100000
00000000
00000000
10100000
00000000
00000000
10000000
00000000
,  // measure 30
01000000
00000000
00010000
00000000
00001000
00000000
00000100
00000000
00000001
00000000
00000010
00000000
00001000
00010000
00100000
00010000
,  // measure 31
00001000
00000000
00100000
00010000
00000000
00010000
01000000
00000000
00100000
00000000
10000000
00000000
11000000
00000000
01100000
00000000
,  // measure 32
00101000
00000000
00000000
00011000
00000000
00000000
00010100
00000000
00002200
00000000
00000000
00000000
00000000
00000000
00003300
00000000
,  // measure 33
00000200
00000000
00000000
00000000
00000000
00000000
00000000
00000000
00000310
00000001
00001000
00000100
00000000
00000000
00000000
00000000
,  // measure 34
00000010
00000001
00001000
00000100
00000000
00000000
00000000
00000000
00010100
00000000
00000000
00011000
00000000
00000000
01001000
00000000
,  // measure 35
01020000
00000000
00000000
00000000
00000000
00000000
00000000
00000000
10030000
01000000
00100000
00010000
00000000
00000000
00000000
00000000
,  // measure 36
10000000
01000000
00100000
00010000
00000000
00000000
00000000
00000000
01010000
00000000
00000000
01001000
00000000
00000000
00011000
00000000
,  // measure 37
00010200
00000000
00000000
00000000
00000000
00000000
00000000
00000000
00000310
00000001
00001000
00000100
00000000
00000000
00000010
00000000
,  // measure 38
00000001
00000000
00000000
00000100
00000000
00000000
00000010
00000000
00001000
00000000
00000000
00000100
00000000
00000000
00010000
00000000
,  // measure 39
00001000
01000000
00100000
00000000
00100000
01000000
00001000
00000000
00100000
00010000
10000000
00000000
10000000
00010000
00100000
00000000
,  // measure 40
01000000
00000000
00000000
00010000
00000000
00000000
00000100
00000000
00000000
00000010
00000000
00000000
00000001
00000000
00000000
00000000
,  // measure 41
00002000
00000000
00000000
00000000
00000000
00000000
00000000
00000000
00003010
00010000
00000100
00001000
00000000
00000000
00000000
00000000
,  // measure 42
00000010
00010000
00000000
00011000
00000000
00000000
00002000
00000000
00103000
00001000
00000000
00011000
00000000
00000000
00020000
00000000
,  // measure 43
00030100
00010000
00000000
00011000
00000000
00001000
01000000
00000000
00000000
00000000
00100000
10000000
01000000
00000000
00000000
00000000
,  // measure 44
10000000
00000000
01000000
00100000
01000000
00100000
00001000
00010000
00000000
00000100
00010000
00000100
00001000
00000000
00000010
00000100
,  // measure 45
00000001
00000000
00000010
00000000
00000001
00000010
00000100
00001000
00000000
00000010
00010000
00001000
01000000
00000000
00010000
00000000
,  // measure 46
10000000
00000000
00000000
01000000
00000000
00010000
00001000
00000000
00000100
00000000
00000001
00000000
00000011
00000000
00000101
00000000
,  // measure 47
00000110
00000000
00000000
00010010
00000000
00000000
00011000
00000000
01001000
00000000
01000000
00000000
00010000
00000000
00000000
00000000
,  // measure 48
20000000
00000000
00000000
00000000
00000000
00000000
00000000
00000000
31000000
00100000
00001000
00010000
00000000
00000000
00000000
00000000
,  // measure 49
01000000
00100000
00001000
00010000
00000000
00000000
00000000
00000000
00011000
00000000
00000000
00010100
00000000
00000000
00001100
00000000
,  // measure 50
00001020
00000000
00000000
00000000
00000000
00000000
00000000
00000000
00000130
00000001
00001000
00000010
00000000
00000000
00000000
00000000
,  // measure 51
00000100
00000001
00001000
00000010
00000000
00000000
00000000
00000000
00001010
00000000
00000000
00001100
00000000
00000000
00010100
00000000
,  // measure 52
00012000
00000000
00000000
00000000
00000000
00000000
00000000
00000000
01003000
00010000
00100000
00001000
00000000
00000000
00100000
00000000
,  // measure 53
01000000
00000000
00000000
10000000
00000000
00000000
01000000
00000000
00010000
00000000
00000000
00000100
00000000
00000000
00001000
00000000
,  // measure 54
00000001
00000100
00000010
00001000
00000001
00000100
00000010
00001000
00010000
01000000
00100000
10000000
00010000
01000000
00100000
10000000
,  // measure 55
00010000
00000000
00000000
00100000
00000000
00000000
00001000
00000000
00000000
00010000
00000000
00000000
00010100
00000000
00000000
00000000
,  // measure 56
00000200
00000000
00000000
00000000
00000000
00000000
00000000
00000000
00000310
00000001
00001000
00000100
00000000
00000010
00000001
00000000
,  // measure 57
00000001
00000100
00000000
00001000
00000000
00010000
01000000
00000000
10000000
00100000
00000000
00010000
00000000
00001000
00000010
00000000
,  // measure 58
00000001
00000100
00000000
00001000
00000000
00010000
00100000
00000000
00000000
00000000
10000000
00010000
10000000
00010000
10000000
00000000
,  // measure 59
11000000
01000000
00100000
00101000
00001000
00010000
00010100
00000000
,  // measure 60
00001100
00001000
00000010
00000110
00000100
00000001
00001001
00000000
,  // measure 61
00001100
00000000
00000100
00000000
00010000
00000000
00011000
00000000
00001000
00000000
01000000
00000000
00100000
10000000
00100000
00000000
,  // measure 62
10100000
00000000
10000000
00000000
01000000
00000000
01100000
00000000
00100000
00000000
00001000
00000000
00011000
00000000
00010000
00000100
,  // measure 63
00001000
00000100
00000010
00000011
00000001
00000100
00000110
00000000
,  // measure 64
00001010
00001000
00000100
00010100
00010000
00001000
01001000
00000000
,  // measure 65
01010000
00010000
00100000
01100000
01000000
10000000
11000000
01000000
,  // measure 66
00010000
00000000
00001000
00000000
00000100
00000000
00000010
00000000
00001000
00000000
00100000
00000000
00010000
00000100
00010000
00000100
,  // measure 67
00001000
00000010
00000100
00000001
00000010
00001000
00010000
01000000
,  // measure 68
10000000
00010000
00001000
00000010
00010000
01000000
10000000
00100000
,  // measure 69
00010000
00000000
00001000
00000000
00000010
00000000
00010000
00000000
00000010
00000000
00000001
00000000
00001000
00000100
00010000
00000100
,  // measure 70
00001000
00000000
01000000
00000000
00010000
00000000
00001000
00000000
00100000
00000000
00000000
01100000
00000000
00000000
01000000
00000000
,  // measure 71
10000000
00000000
00010000
00000000
01000000
00000000
00001000
00000000
00010000
00000000
00000100
00000000
00001000
00000010
00000100
00000000
,  // measure 72
00000001
00000000
00000010
00000000
00001000
00000000
00010000
00000000
01000000
00000000
10000000
00000000
00100000
01000000
00010000
00000000
,  // measure 73
00100000
00000000
00001000
00000000
00010000
00000000
00000010
00000000
00001000
00000000
00000001
00000000
00000100
00001000
00000100
00000010
,  // measure 74
00000100
00000000
00000110
00000000
00000010
00000000
00010010
00000000
00010000
00000000
00011000
00000000
00001000
01000000
00100000
00000000
,  // measure 75
10100000
00000000
11000000
00000000
01010000
00000000
00001100
00000000
00000101
00000000
00000011
00000000
,  // measure 76
00000010
00000100
00000000
00000100
00020000
00000000
00000000
00000000
00000000
00000000
00000000
00000000
00031000
00000000
00000000
00000000
,  // measure 77
00020000
00001000
00030100
00002000
00000010
00003001
00000200
00000010
,  // measure 78
00000302
00000010
00001003
00000200
00001000
00010300
00002000
00010000
,  // measure 79
02003000
00000000
00100000
00100000
00000000
03100000
10000000
01000000
,  // measure 80
00010000
01010000
01000000
11000000
00000000
10000000
10010000
00000000
,  // measure 81
20000000
01000000
30010000
02000000
00010000
03001000
00020000
00001000
,  // measure 82
00030100
00000010
00000001
00000101
00000000
00000010
00010000
00010100
,  // measure 83
00000000
00000100
00010000
00011000
00000000
00001000
01000000
01100000
,  // measure 84
00100000
00000000
10000000
00000000
01000000
00000000
00010000
00000000
00001000
00000100
00000001
00000000
00000100
00001000
00010000
00000000
,  // measure 85
00002000
00010000
01003000
00020000
00100000
10030000
02000000
00100000
,  // measure 86
23000000
00100000
30010000
02000000
00010000
03001000
00020000
00001000
,  // measure 87
00030200
00000000
00000010
00000010
00000000
00000310
00000001
00000100
,  // measure 88
00001000
00000000
00001100
00000000
00000100
00000000
00000101
00000000
00000000
00000000
00000001
00001000
00000001
00000000
00000000
00000000
,  // measure 89
00000002
00000100
00001003
00000200
00001000
00010300
00002000
00010000
,  // measure 90
01003000
00100000
10000000
11000000
00000000
00100000
00001000
01001000
,  // measure 91
01001000
01000000
00001000
00011000
00011000
00010000
00000100
00000110
,  // measure 92
00000110
00000000
00000010
00000001
00000000
00000100
00001000
00000000
00010000
01000000
10000000
00000000
01000000
00010000
00001000
00000100
;
