#TITLE:Fly to Next World;
#SUBTITLE:;
#ARTIST:Qrispy Joybox;
#TITLETRANSLIT:;
#SUBTITLETRANSLIT:;
#ARTISTTRANSLIT:;
#GENRE:;
#CREDIT:;
#MENUCOLOR:;
#METERTYPE:DDR;
#BANNER:Fly to Next World.png;
#BACKGROUND:Fly to Next World-bg.png;
#LYRICSPATH:;
#CDTITLE:cdtitle.png;
#MUSIC:Fly to Next World.mp3;
#OFFSET:-1.329;
#SAMPLESTART:56.110;
#SAMPLELENGTH:15.000;
#SELECTABLE:YES;
#LISTSORT:;
#BPMS:0.000=184.000;
#STOPS:;
#BGCHANGES:;
#ATTACKS:;

//---------------dance-single - ----------------
#NOTES:
     dance-single:
     :
     Hard:
     13:
     0.666,0.658,0.113,0.209,0.035:
0000
0000
0000
0000
,
0000
0000
0000
0000
,
0000
0000
0000
0000
,
0000
0000
0000
0000
,
0010
1000
0010
0100
0000
0001
0010
0100
,
0000
0000
0000
1000
0000
0000
0100
0000
0000
0010
0000
0000
0001
0000
0000
0000
0100
0000
0000
0000
0010
0000
0000
0000
,
1000
0000
2002
0000
,
0000
0000
0000
3003
,
0001
0100
0001
1000
0100
1000
0001
0100
,
0001
0000
1000
0000
0100
0000
1000
0000
0001
0000
0010
0100
0010
0000
0001
0000
,
1000
0100
1000
0001
0100
0001
1000
0100
,
1000
0010
0100
0010
0001
0010
0100
0010
,
1000
0100
1000
0001
0100
0001
1000
0100
,
1000
0000
0001
0000
0100
0000
0001
0000
1000
0000
0100
0010
0100
0000
1000
0000
,
0001
0100
0010
0100
1000
0100
0010
0100
,
0001
0010
0100
0010
1000
0010
0100
0010
,
0001
0001
0000
0001
0100
0100
0000
0100
,
0010
0010
0000
0010
1000
1000
0000
1000
,
0100
0100
0000
0100
0010
0010
0000
0010
,
0001
0001
0000
0001
0100
0010
0000
0010
,
1000
1000
0000
1000
0100
0100
0000
0100
,
0010
0010
0000
0010
0001
0001
0000
0001
,
0101
0010
1100
0010
,
1010
0100
0011
0100
,
1000
0100
0010
0100
0000
0001
0100
1000
,
0000
0010
0100
0001
1000
0100
0010
0100
,
1000
0001
1000
0010
0000
0100
0000
0001
,
0000
1000
0100
0020
0000
0000
0030
0000
,
1000
0100
0010
0100
0001
0100
0010
0100
,
1000
0010
0100
0010
0001
0010
0100
0010
,
1000
0000
0100
0100
0000
1001
0000
0220
,
0000
0000
0000
0330
,
1000
0100
0100
0100
0010
0001
0000
0100
,
0100
0010
1000
0002
0000
0000
0103
0000
,
0010
0100
0100
0100
0001
1000
0000
0100
,
0100
0010
0001
2000
0000
0001
3001
0000
,
1000
0010
0010
0010
0100
0001
0000
0010
,
0010
0100
1000
0002
0000
0000
0103
0000
,
0001
0010
0100
1000
,
0101
1100
1001
0110
,
0000
0000
0000
0000
,
2002
0000
0000
3003
,
0001
0010
0100
1000
0010
0100
0001
0010
,
0100
0000
1000
0000
0010
0000
0100
0000
0001
0000
0010
0100
0010
0000
0001
0000
,
1000
0010
0100
0001
0010
0100
1000
0010
,
1000
0100
0010
0100
0001
0100
0010
0100
,
1000
0010
0100
0001
0010
0100
1000
0010
,
0100
0000
0001
0000
0010
0000
0100
0000
1000
0000
0010
0100
0010
0000
1000
0000
,
0001
0010
0100
0010
1000
0010
0100
0010
,
0001
0100
0010
0100
1000
0100
0010
0100
,
0001
0100
1000
0001
0010
1000
0001
0100
,
1000
0000
0001
0000
0010
0000
1000
0000
0001
0000
0010
0100
0010
0000
0001
0000
,
1000
0100
0001
1000
0010
0001
1000
0100
,
1000
0010
0001
0010
1000
0100
0001
0100
,
1000
0010
0001
1000
0100
0001
1000
0010
,
0001
0000
1000
0000
0100
0000
0001
0000
1000
0000
0100
0010
0100
0000
1000
0000
,
0001
0010
1000
0010
0001
0100
1000
0100
,
0001
0010
1000
0010
0001
0100
1000
0100
,
0001
0001
0000
0001
1000
1000
0000
1000
,
1000
0100
0010
0002
0000
0000
0013
0000
,
0001
0001
0000
0001
1000
1000
0000
1000
,
0100
0001
0100
2000
0000
0010
3010
0000
,
1000
1000
0000
1000
0001
0001
0000
0001
,
0001
0010
0100
2000
0000
0000
3010
0000
,
1000
0100
0001
0100
1000
0100
0001
0100
,
1000
0010
0001
0010
1000
0010
0001
0010
,
1000
0100
0010
0001
1000
0010
0100
0001
,
1000
0100
0001
0100
1000
0010
0001
0010
,
1000
0100
0010
0100
0001
0100
0010
0100
,
1000
0010
0100
0010
0001
0010
0100
0100
,
0001
0010
0100
1000
0001
0100
0010
1000
,
0001
0100
1000
0100
0001
0010
1000
0010
,
0001
0100
0010
0100
1000
0100
0010
0100
,
0001
0010
0100
0010
1000
0010
0100
0100
,
1000
0100
0010
0002
0000
0103
0010
2000
,
0000
3001
0010
0200
0000
1300
0001
0000
,
0100
0010
1000
0200
0000
0310
0001
0200
,
0000
1300
0100
0020
0000
1030
0100
0000
,
0010
0001
0100
0002
0000
0013
0100
2000
,
0000
3001
0100
0020
0000
0130
0001
0000
,
2002
0000
0000
0000
,
0000
0000
0000
0000
,
0000
0000
0000
0000
,
0000
0000
0000
0000
,
3003
0000
0000
0000
;

//---------------dance-single - ----------------
#NOTES:
     dance-single:
     :
     Medium:
     10:
     0.552,0.658,0.644,0.192,0.009:
0000
0000
0000
0000
,
0000
0000
0000
0000
,
0000
0000
0000
0000
,
0000
0000
0000
0000
,
0001
0000
0010
0100
0000
0100
0010
0001
,
0000
0000
0000
1000
0000
0000
0010
0000
0000
0000
0000
0000
0100
0000
0000
0000
0010
0000
0000
0000
0100
0000
0000
0000
,
0010
0000
2002
0000
,
0000
0000
0000
3003
,
1000
0100
0000
0100
0010
0000
0010
0001
,
0000
0001
0100
0000
0010
0100
0001
0000
,
0001
0010
0000
0010
0100
0000
1000
0001
,
0100
0101
0010
1010
,
1000
0010
0000
0010
0100
0000
0100
0001
,
0000
0001
1000
0000
0100
0010
0001
0000
,
0001
0101
1000
1100
,
0001
0011
1000
1010
,
0001
0100
0000
0100
0001
0100
0000
0100
,
0010
0100
0000
0100
1000
0100
0000
0100
,
0001
0010
0000
0010
0100
0010
0000
0010
,
1000
0010
0000
0010
0100
0010
0000
0010
,
0001
0100
0000
0100
0010
0100
0000
0100
,
1000
0100
0000
0100
0001
0100
0000
0100
,
0010
1010
0100
0101
,
0010
0011
0100
1100
,
1000
0100
1000
0000
0001
0100
0001
0000
,
1000
0100
0010
0000
0001
0010
0100
0000
,
1000
0010
0100
0001
0000
1000
0000
0001
,
0000
0100
0010
0200
0000
0000
0300
0000
,
0101
0101
1100
0101
,
1010
0110
0101
0110
,
0001
0000
1000
0100
0000
0010
0000
0200
,
0000
0000
0000
0300
,
0000
1000
0100
1000
0001
1000
0000
0001
,
0100
0001
1000
0002
0000
0000
0003
0000
,
0000
1000
0010
1000
0001
1000
0000
0001
,
0010
0001
1000
0002
0000
0000
0003
0000
,
0000
0100
1000
0100
0001
0100
0000
0010
,
0001
0010
1000
0020
0000
0000
0030
0000
,
1000
0100
0010
0001
,
1000
0010
0100
1001
,
0000
0000
0000
0000
,
0200
0000
0000
0300
,
0001
0100
0000
1000
0100
0000
0001
0100
,
0000
1000
0100
0000
0001
0010
0100
0000
,
1000
0100
0000
0001
0100
0000
1000
0100
,
0010
0010
1100
0011
,
0001
0100
0000
1000
0100
0000
0001
0100
,
0000
1000
0100
0000
0001
0010
0100
0000
,
1000
1100
0001
0101
,
1000
1010
0001
0011
,
1000
0010
0000
0001
0010
0000
1000
0010
,
0000
0001
0010
0000
1000
0010
0100
0000
,
0001
0010
0000
1000
0010
0000
0001
0010
,
0100
0100
0011
1100
,
1000
0010
0000
0001
0010
0000
1000
0010
,
0000
0001
0010
0000
1000
0010
0100
0000
,
0001
0101
1000
1100
,
0001
0011
1000
1010
,
0001
0100
0000
0100
0010
1000
0000
1000
,
0100
0010
0002
2000
0000
0000
3003
0000
,
1000
0100
0000
0100
0010
0001
0000
0001
,
0100
0010
2000
0002
0000
0000
3003
0000
,
0001
0010
0000
0010
0100
1000
0000
1000
,
0010
0100
0002
2000
0000
0000
3003
0000
,
0011
1100
0101
1010
,
0011
0101
1100
1001
,
1010
1100
1010
1100
,
0011
0101
0011
0101
,
1010
1001
1100
1001
,
0011
1001
0101
1001
,
0110
1010
0110
0011
,
0110
1100
0110
0101
,
0011
1010
1100
0101
,
0011
0101
1100
1010
,
1002
0000
0010
0010
0000
0100
0000
2003
,
0000
0100
0100
0000
0010
0000
3010
0000
,
0002
0000
0100
0100
0000
0010
0000
2003
,
0000
0010
0010
0000
0100
0000
3100
0000
,
0002
0000
0100
0100
0000
0010
0000
2003
,
0000
0010
0010
0000
0100
0000
3001
0000
,
2002
0000
0000
0000
,
0000
0000
0000
0000
,
0000
0000
0000
0000
,
0000
0000
0000
0000
,
3003
0000
0000
0000
;

//---------------dance-single - ----------------
#NOTES:
     dance-single:
     :
     Easy:
     7:
     0.391,0.549,0.435,0.104,0.000:
0000
0000
0000
0000
,
0000
0000
0000
0000
,
0000
0000
0000
0000
,
0000
0000
0000
0000
,
1000
1000
0000
0001
,
0100
0010
0200
0000
,
0310
0000
2002
0000
,
0000
0000
3003
0000
,
0010
1000
0100
1000
,
0010
0000
0100
0000
0001
0010
0100
0000
,
1000
0100
0010
0100
,
1000
1001
0001
1001
,
1000
0010
0100
0001
,
0010
0000
0100
0000
1000
0001
0010
0000
,
0001
0001
1001
1001
,
1000
1000
1001
1001
,
0001
0001
0100
0100
,
0010
0010
1000
1000
,
0100
0100
0001
0001
,
0100
0100
1000
1000
,
0001
0001
0010
0010
,
1000
1000
0010
0010
,
1001
0000
0110
0000
,
1001
0000
0110
0000
,
1000
0000
0100
0000
,
0010
0000
0001
0000
,
0100
0010
0100
0000
0001
0000
0000
0000
,
1000
0100
0010
0000
,
0001
0001
1001
1001
,
1000
1000
1001
1001
,
0001
0000
0100
0010
0000
0010
0000
0010
,
0000
0000
0000
0000
,
0000
1000
0100
1000
0000
0001
0000
0001
,
0100
0001
0000
1000
0000
0000
0000
0000
,
0000
0001
0100
0001
0000
1000
0000
1000
,
0100
1000
0000
0001
0000
0000
0000
0000
,
0000
1000
0010
1000
0000
0001
0000
0001
,
0010
0001
0000
1000
0000
0000
0000
0000
,
0100
0010
0001
1000
,
0010
0100
0001
1000
,
0000
0000
0000
0000
,
2002
0000
3003
0000
,
1000
0000
0000
0100
0000
0000
0010
0000
,
0000
0001
0000
0000
0100
0000
0100
0000
,
0010
0000
0000
1000
0000
0000
0001
0000
,
0010
0110
0100
0110
,
1000
0000
0000
0001
0000
0000
0100
0000
,
0000
0010
0000
0000
0100
0000
0100
0000
,
0001
1001
1000
1001
,
0001
1001
1000
1001
,
0100
0000
0000
0010
0000
0000
0001
0000
,
0000
0100
0000
0000
0010
0000
1000
0000
,
0100
0000
0000
1000
0000
0000
0010
0000
,
0100
0110
0010
0110
,
0100
0000
0000
0001
0000
0000
0010
0000
,
0000
0100
0000
0000
1000
0000
0001
0000
,
0010
0110
0100
0110
,
0010
0110
0100
0110
,
0100
0100
1000
1000
,
0001
0100
0001
0100
0000
0000
0000
0000
,
0010
0010
0100
0100
,
0001
1000
0001
1000
0000
0000
0000
0000
,
0100
0100
1000
1000
,
0001
0100
0010
0100
0000
0000
0000
0000
,
0001
1001
0100
0110
,
1001
0110
1001
0110
,
0001
0010
0100
1000
,
1001
0110
1001
0110
,
1000
0100
0010
0001
,
1001
0110
1001
0110
,
0001
0100
0010
1000
,
1001
0110
1001
0110
,
1000
0010
0100
0001
,
1001
0110
1001
0110
,
2000
0000
0000
0000
0000
3000
0000
0200
,
0000
0000
0300
0000
,
0020
0000
0000
0000
0000
0030
0000
0002
,
0000
0000
0003
0000
,
2000
0000
0000
0000
0000
3000
0000
0020
,
0000
0000
0030
0000
,
0200
0000
0000
0000
,
0000
0000
0000
0000
,
0000
0000
0000
0000
,
0000
0000
0000
0000
,
0300
0000
0000
0000
;

//---------------dance-single - ----------------
#NOTES:
     dance-single:
     :
     Beginner:
     4:
     0.193,0.256,0.070,0.070,0.000:
0000
0000
0000
0000
,
0000
0000
0000
0000
,
0000
0000
0000
0000
,
0000
0000
0000
0000
,
0100
0000
0100
0000
,
0001
0000
0001
0000
,
0010
0000
0020
0000
,
0000
0000
0030
0000
,
1000
0000
1000
0000
,
0001
0000
0001
0000
,
0100
0000
0100
0000
,
0010
0010
0010
0000
,
0100
0000
0100
0000
,
0001
0000
0001
0000
,
1000
0000
0100
0000
,
0010
0000
0001
0000
,
1000
0000
1000
0000
,
0001
0000
0001
0000
,
1000
0000
0001
0000
,
1000
0000
0001
0000
,
0100
0000
0100
0000
,
0010
0000
0010
0000
,
0110
0000
0000
0000
,
1001
0000
0000
0000
,
1000
0000
1000
0000
,
0001
0000
0001
0000
,
0100
0000
0100
0000
,
0020
0000
0030
0000
,
0100
0000
0100
0000
,
0001
0000
0001
0000
,
1000
0000
1000
0000
,
0200
0000
0300
0000
,
1001
0000
0000
0000
,
0110
0000
0000
0000
,
1001
0000
0000
0000
,
0110
0000
0000
0000
,
1001
0000
0000
0000
,
0110
0000
0000
0000
,
0100
0000
0100
0000
,
0100
0000
0100
0000
,
0000
0000
0000
0000
,
0020
0000
0030
0000
,
1000
0000
1000
0000
,
0100
0000
0100
0000
,
1000
0000
1000
0000
,
0010
0010
0010
0000
,
0100
0000
0100
0000
,
0001
0000
0001
0000
,
0010
0000
0010
0000
,
0100
0000
0100
0000
,
1000
0000
1000
0000
,
0100
0000
0100
0000
,
1000
0000
1000
0000
,
0010
0010
0010
0000
,
0100
0000
0100
0000
,
0001
0000
0001
0000
,
0010
0000
0010
0000
,
0100
0000
0100
0000
,
1000
0000
1000
0000
,
0100
0200
0300
0000
,
0010
0000
0010
0000
,
0001
0002
0003
0000
,
0100
0000
0100
0000
,
0010
0020
0030
0000
,
1000
0000
1000
0000
,
0001
0000
0001
0000
,
1000
1000
1000
0000
,
0001
0001
0001
0000
,
1000
0000
1000
0000
,
0001
0000
0001
0000
,
0100
0100
0100
0000
,
0010
0010
0010
0000
,
0100
0000
0100
0000
,
0010
0000
0010
0000
,
1000
0000
0000
0000
,
0001
0000
0000
0000
,
0100
0000
0000
0000
,
0010
0000
0000
0000
,
0100
0000
0000
0000
,
0001
0000
0000
0000
,
0200
0000
0000
0000
,
0000
0000
0000
0000
,
0000
0000
0000
0000
,
0000
0000
0000
0000
,
0300
0000
0000
0000
;

//---------------dance-double - ----------------
#NOTES:
     dance-double:
     :
     Hard:
     13:
     0.672,0.695,0.087,0.209,0.035:
00000000
00000000
00000000
00000000
,
00000000
00000000
00000000
00000000
,
00000000
00000000
00000000
00000000
,
00000000
00000000
00000000
00000000
,
00010000
01000000
00100000
10000000
00000000
01000000
00010000
00001000
,
00000000
00000000
00000000
00000010
00000000
00000000
00000001
00000000
00000000
00000100
00000000
00000000
00000010
00000000
00000000
00000000
00001000
00000000
00000000
00000000
00000100
00000000
00000000
00000000
,
00010000
00000000
00022000
00000000
,
00000000
00000000
00000000
00033000
,
00001000
00010000
01000000
10000000
01000000
00010000
00001000
00010000
,
01000000
00000000
10000000
00000000
01000000
00000000
00010000
00000000
00001000
00000000
00010000
00001000
00010000
00000000
00001000
00000000
,
00010000
00001000
00000100
00000001
00000100
00001000
00010000
00001000
,
00100000
01000000
00010000
01000000
10000000
01000000
00100000
01000000
,
00010000
00001000
00000010
00000001
00000010
00001000
00010000
00001000
,
00000010
00000000
00000001
00000000
00000010
00000000
00001000
00000000
00010000
00000000
00001000
00010000
00001000
00000000
00010000
00000000
,
00001000
01000000
00100000
01000000
10000000
01000000
00001000
00001000
,
00010000
00000100
00000010
00000100
00000001
00000100
00010000
00010000
,
00001000
01000000
00000000
01000000
00010000
10000000
00000000
10000000
,
01000000
00010000
00000000
00010000
00001000
00000100
00000000
00000100
,
00000010
00001000
00000000
00001000
00000001
00000010
00000000
00000010
,
00001000
00010000
00000000
00010000
01000000
10000000
00000000
00010000
,
01000000
10000000
00000000
10000000
01000000
00100000
00000000
00100000
,
01000000
00001000
00000000
00001000
00010000
00000100
00000000
00000100
,
00001100
00001000
00000000
00001000
00001010
00000010
00000000
00000010
,
00010010
00010000
00000000
00010000
00011000
00001000
00000000
00001000
,
01000000
00100000
10000000
01000000
00000000
00010000
00001000
00010000
,
00000000
00000100
00001000
00000010
00000100
00000001
00000100
00001000
,
00000100
00000010
00010000
00001000
00000000
00100000
00000000
00010000
,
00000000
10000000
01000000
00200000
00000000
00000000
00300000
00000000
,
00010000
01000000
00100000
01000000
10000000
01000000
00010000
01000000
,
00001000
00000100
00000010
00000100
00000001
00000100
00000010
00000100
,
00001000
00000000
00010000
00001000
00000000
01001000
00000000
02200000
,
00000000
00000000
00000000
03300000
,
00000000
10000000
01000000
00010000
00001000
00000100
00000000
00000001
,
00000100
00001000
00010000
02000000
00000000
00000000
13000000
00000000
,
00000000
10000000
00100000
00010000
00001000
00000010
00000000
00000001
,
00000010
00001000
00010000
00200000
00000000
00000000
10300000
00000000
,
00000000
10000000
01000000
00010000
00001000
00000010
00000000
00000001
,
00000100
00001000
00010000
00200000
00000000
00000000
10300000
00000000
,
10000000
01000000
00100000
00010000
,
00001000
00000100
00000010
00001001
,
00000000
00000000
00000000
00000000
,
00022000
00000000
00000000
00033000
,
00001000
00010000
01000000
10000000
00100000
00010000
00001000
00010000
,
01000000
00000000
10000000
00000000
00100000
00000000
00010000
00000000
00001000
00000000
00010000
00001000
00010000
00000000
00001000
00000000
,
00010000
00001000
00000100
00000001
00000010
00001000
00010000
00001000
,
00010000
01000000
00100000
01000000
10000000
01000000
00100000
01000000
,
00010000
00001000
00000010
00000001
00000100
00001000
00010000
00001000
,
00000010
00000000
00000001
00000000
00000100
00000000
00001000
00000000
00010000
00000000
00001000
00010000
00001000
00000000
00010000
00000000
,
00001000
00000100
00000010
00000100
00000001
00000100
00000010
00000100
,
00010000
01000000
00100000
01000000
10000000
01000000
00100000
01000000
,
00001000
00010000
00100000
10000000
01000000
00010000
00001000
00010000
,
00100000
00000000
10000000
00000000
01000000
00000000
00010000
00000000
00001000
00000000
00010000
00001000
00010000
00000000
00001000
00000000
,
00010000
00001000
00000010
00000001
00000100
00001000
00010000
00001000
,
00010000
01000000
00100000
01000000
10000000
01000000
00100000
01000000
,
00010000
00001000
00000010
00000001
00000100
00001000
00010000
00001000
,
00000010
00000000
00000001
00000000
00000100
00000000
00001000
00000000
00010000
00000000
00001000
00010000
00001000
00000000
00010000
00000000
,
00001000
01000000
00100000
01000000
10000000
01000000
00100000
01000000
,
00010000
00000100
00000010
00000100
00000001
00000100
00000010
00000100
,
00001000
00010000
00000000
00010000
01000000
10000000
00000000
10000000
,
00100000
00000000
00010000
00000000
00001000
00000000
01000000
00000000
00200000
00300000
00020000
00030000
00002000
00003000
02000000
03000000
,
00100000
10000000
00000000
10000000
01000000
00100000
00000000
00100000
,
00001000
00000000
00010000
00000000
00000100
00000000
00000010
00000000
00002000
00003000
00020000
00030000
00000200
00000300
00000020
00000030
,
00000001
00000100
00000000
00000100
00000010
00010000
00000000
00010000
,
00001000
00000000
01000000
00000000
00010000
00000000
00100000
00000000
00002000
00003000
02000000
03000000
00020000
00030000
00200000
00300000
,
01000000
00100000
10000000
00100000
00010000
00100000
01000000
00100000
,
00001000
00000010
00000100
00000010
00000001
00000010
00000100
00000010
,
00000001
00000100
00001000
00010000
01000000
10000000
00100000
10000000
,
01000000
00010000
00001000
00000100
00000001
00000010
00000001
00000100
,
00000010
00001000
00010000
01000000
00100000
00010000
00001000
00000100
,
00000010
00001000
00000100
00010000
00001000
01000000
00010000
00010000
,
10000000
01000000
00010000
00001000
00000100
00000001
00000010
00000001
,
00000100
00001000
00010000
01000000
10000000
00100000
10000000
01000000
,
00100000
00010000
00001000
00000100
00000010
00001000
00010000
01000000
,
00100000
00010000
01000000
00001000
00010000
00000100
00001000
00001000
,
00000001
00000100
00000010
00001000
00000000
00001000
00000100
00010000
,
00000000
00010000
00001000
01000000
00000000
01000000
00100000
00000000
,
10000000
01000000
00100000
00010000
00000000
00010000
01000000
00001000
,
00000000
00001000
00010000
00000100
00000000
00000100
00000010
00000000
,
00000001
00000100
00001000
00010000
00000000
01000000
10000000
00100000
,
00000000
00010000
00001000
00000100
00000000
00000001
00000010
00000000
,
00022000
00000000
00000000
00000000
,
00000000
00000000
00000000
00000000
,
00000000
00000000
00000000
00000000
,
00000000
00000000
00000000
00000000
,
00033000
00000000
00000000
00000000
;

//---------------dance-double - ----------------
#NOTES:
     dance-double:
     :
     Medium:
     10:
     0.505,0.512,0.305,0.104,0.009: // measure 1
00000000
00000000
00000000
00000000
,  // measure 2
00000000
00000000
00000000
00000000
,  // measure 3
00000000
00000000
00000000
00000000
,  // measure 4
00000000
00000000
00000000
00000000
,  // measure 5
00001000
00000000
01000000
00010000
00000000
10000000
01000000
00000000
,  // measure 6
00100000
00000000
00000000
01000000
00000000
00000000
10000000
00000000
00010000
00000000
10000000
00000000
,  // measure 7
00010000
00000000
02200000
00000000
,  // measure 8
00000000
00000000
00000000
03300000
,  // measure 9
10000000
01000000
00000000
01000000
00010000
00000000
00010000
00001000
,  // measure 10
00000000
00001000
00000100
00000000
00000100
00000001
00001000
00000000
,  // measure 11
00000001
00000100
00000000
00000100
00001000
00000000
00001000
00010000
,  // measure 12
01000000
10000000
11000000
01010000
,  // measure 13
10000000
00100000
00000000
00100000
00010000
00000000
00010000
00001000
,  // measure 14
00000000
00001000
00000010
00000000
00000010
00000001
00001000
00000000
,  // measure 15
00001010
00000010
00010010
00010000
,  // measure 16
00011000
00001000
01001000
01000000
,  // measure 17
00100000
10000000
00000000
10000000
01000000
01000000
00000000
01000000
,  // measure 18
00010000
00010000
00000000
00010000
00001000
00001000
00000000
00001000
,  // measure 19
00000100
00000100
00000000
00000100
00000001
00000001
00000000
00000001
,  // measure 20
00000010
00000010
00000000
00000010
00001000
00001000
00000000
00001000
,  // measure 21
00010000
00100000
00000000
00100000
10000000
10000000
00000000
10000000
,  // measure 22
01000000
01000000
00000000
01000000
00010000
00010000
00000000
00010000
,  // measure 23
00011000
00000100
00011000
01000000
,  // measure 24
00011000
00000010
00011000
00100000
,  // measure 25
00001000
00000000
00010000
01000000
00000000
01000000
10000000
00000000
,  // measure 26
10000000
00100000
00000000
00010000
00001000
00000000
00001000
00000000
,  // measure 27
00000100
00000001
00000100
00000010
00000000
00001000
00000000
00000001
,  // measure 28
00000000
00000010
00000100
00002000
00000000
00000000
00003000
00000000
,  // measure 29
00000101
00000100
00001100
00001000
,  // measure 30
00011000
00010000
01010000
01000000
,  // measure 31
11000000
00000000
10000000
00010000
00000000
01000000
00000000
02200000
,  // measure 32
00000000
00000000
00000000
03300000
,  // measure 33
00000000
10000000
00100000
00010000
00100000
10000000
00000000
00010000
,  // measure 34
00100000
10000000
00100000
00020000
00000000
00000000
00000000
00030000
,  // measure 35
00000000
00001000
00000100
00000001
00000100
00001000
00000000
00000001
,  // measure 36
00000100
00001000
00000100
00000002
00000000
00000000
00000000
00000003
,  // measure 37
00000000
00000100
00001000
00010000
00001000
00000100
00000000
00001000
,  // measure 38
00010000
01000000
00010000
00002000
00000000
00000000
00000000
00003000
,  // measure 39
00010000
01000000
10000000
00100000
,  // measure 40
00010000
00001000
00000100
00000001
,  // measure 41
00000000
00000000
00000000
00000000
,  // measure 42
00002002
00000000
00000000
00003003
,  // measure 43
00000001
00000010
00000000
00000010
00001000
00000000
00001000
00010000
,  // measure 44
00000000
00010000
01000000
00000000
01000000
10000000
00100000
00000000
,  // measure 45
10000000
00100000
00000000
00100000
00010000
00000000
00010000
00001000
,  // measure 46
00000100
00001010
00000100
00000011
,  // measure 47
00000001
00000100
00000000
00000100
00001000
00000000
00001000
00010000
,  // measure 48
00000000
00010000
00100000
00000000
00100000
10000000
01000000
00000000
,  // measure 49
01100000
00100000
00101000
00001000
,  // measure 50
00011000
00010000
00010100
00000100
,  // measure 51
00000001
00000100
00000000
00000100
00001000
00000000
00001000
00010000
,  // measure 52
00000000
00010000
00100000
00000000
00100000
00010000
01000000
00000000
,  // measure 53
10000000
01000000
00000000
01000000
00010000
00000000
00010000
00001000
,  // measure 54
00000010
00001000
00000101
00001100
,  // measure 55
00000001
00000100
00000000
00000100
00001000
00000000
00001000
00010000
,  // measure 56
00000000
00010000
01000000
00000000
01000000
10000000
00100000
00000000
,  // measure 57
11000000
10000000
10010000
00010000
,  // measure 58
01010000
01000000
01001000
00001000
,  // measure 59
00010000
00000100
00000000
00000100
00010000
00001000
00000000
00001000
,  // measure 60
01000000
00100000
01000000
00001000
00000000
00000000
00000000
00000000
,  // measure 61
00001000
00010000
00000000
00010000
00001000
00010000
00000000
00010000
,  // measure 62
00000100
00000010
00000100
00010000
00000000
00000000
00000000
00000000
,  // measure 63
00010000
00001000
00000000
00001000
01000000
00100000
00000000
00100000
,  // measure 64
10000000
01000000
00010000
00001000
00000000
00000000
00000000
00000000
,  // measure 65
00010000
00000000
01000000
10000000
01000000
00000000
00010000
00001000
,  // measure 66
00010000
00000000
00001000
00000100
00000001
00000000
00001001
00000000
,  // measure 67
00000001
00000100
00000010
00001000
,  // measure 68
00000100
00010000
00001000
00100000
,  // measure 69
00010000
01000000
00100000
10000000
,  // measure 70
01000000
00010000
01000000
10000000
01000000
00010000
01000000
10000000
,  // measure 71
01000000
00100000
00001000
00010000
,  // measure 72
00000100
00001000
00000010
00000100
,  // measure 73
00000001
00000010
00000100
00010000
,  // measure 74
00001000
01000000
00010000
01000000
00001000
01000000
00010000
01000000
,  // measure 75
00001000
00000000
00010000
01000000
00000000
01000000
10000000
00100000
,  // measure 76
00000000
01000000
00010000
00000000
10000000
00000000
11000000
00000000
,  // measure 77
01000000
00000000
00100000
00010000
00000000
01000000
00001000
00100000
,  // measure 78
00000000
00001000
00010000
00000000
00000100
00000000
00001100
00000000
,  // measure 79
00001000
00000000
00000010
00000100
00000000
00000001
00000010
00000100
,  // measure 80
00000000
00001000
00000001
00000000
00000100
00000000
00000110
00000000
,  // measure 81
00002002
00000000
00000000
00000000
,  // measure 82
00000000
00000000
00000000
00000000
,  // measure 83
00000000
00000000
00000000
00000000
,  // measure 84
00000000
00000000
00000000
00000000
,  // measure 85
00003003
00000000
00000000
00000000
;

//---------------dance-double - ----------------
#NOTES:
     dance-double:
     :
     Easy:
     7:
     0.372,0.366,0.052,0.113,0.000: // measure 1
00000000
00000000
00000000
00000000
,  // measure 2
00000000
00000000
00000000
00000000
,  // measure 3
00000000
00000000
00000000
00000000
,  // measure 4
00000000
00000000
00000000
00000000
,  // measure 5
10000000
01000000
00010000
00001000
,  // measure 6
00010000
01000000
20000000
00000000
,  // measure 7
30010000
00000000
20020000
00000000
,  // measure 8
00000000
00000000
00000000
30030000
,  // measure 9
10000000
01000000
00010000
00001000
,  // measure 10
00010000
00000000
01000000
00000000
10000000
00010000
10000000
00000000
,  // measure 11
00010000
01000000
00001000
00010000
,  // measure 12
00000100
00000100
00001000
00001000
,  // measure 13
00000001
00000100
00001000
00010000
,  // measure 14
00001000
00000000
00000100
00000000
00000001
00001000
00000001
00000000
,  // measure 15
00000100
00001000
00010000
00100000
,  // measure 16
10000000
01000000
10000000
00010000
,  // measure 17
10000000
10000000
01000000
01000000
,  // measure 18
00010000
00010000
00001000
00001000
,  // measure 19
00000010
00000010
00000001
00000001
,  // measure 20
00000100
00000100
00001000
00001000
,  // measure 21
00010000
00010000
00001000
00001000
,  // measure 22
00000100
00000100
00000001
00000001
,  // measure 23
00001001
00000000
00000110
00000000
,  // measure 24
00001001
00000000
00000110
00000000
,  // measure 25
00000001
00000100
00001000
00010000
,  // measure 26
00100000
00010000
00001000
00000100
,  // measure 27
00000001
00000010
00001000
00010000
,  // measure 28
01000000
10000000
00010000
00000000
,  // measure 29
10000000
10000000
00010000
01000000
,  // measure 30
00001000
00001000
00010000
00000100
,  // measure 31
00001000
00000001
00000100
00000010
,  // measure 32
00000200
00000000
00000000
00000300
,  // measure 33
00000001
00000100
00001000
00010000
,  // measure 34
01000000
10000000
00010000
00000000
,  // measure 35
10000000
01000000
00010000
00001000
,  // measure 36
00000100
00000001
00001000
00000000
,  // measure 37
00000001
00000100
00001000
00010000
,  // measure 38
01000000
10000000
00010000
00000000
,  // measure 39
10000000
01000000
00010000
00001000
,  // measure 40
00000100
00000001
00001000
00000010
,  // measure 41
00000000
00000000
00000000
00000000
,  // measure 42
00000220
00000000
00000000
00000330
,  // measure 43
00000001
00000100
00001000
00010000
,  // measure 44
00001000
00000000
00000100
00000000
00000001
00001000
00000001
00000000
,  // measure 45
00001000
00000100
00010000
00001000
,  // measure 46
01000000
01000000
00100000
00100000
,  // measure 47
10000000
01000000
00010000
00001000
,  // measure 48
00010000
00000000
01000000
00000000
10000000
00010000
10000000
00000000
,  // measure 49
01000000
01000000
00100000
00001000
,  // measure 50
00010000
00000010
00000100
00000100
,  // measure 51
00000001
00000100
00001000
00010000
,  // measure 52
00001000
00000000
00000100
00000000
00000001
00001000
00000001
00000000
,  // measure 53
00001000
00000100
00010000
00001000
,  // measure 54
01000000
01000000
00100000
00100000
,  // measure 55
10000000
01000000
00010000
00001000
,  // measure 56
00010000
00000000
01000000
00000000
10000000
00010000
10000000
00000000
,  // measure 57
01000000
01000000
00100000
00001000
,  // measure 58
00010000
00000010
00000100
00000100
,  // measure 59
00000001
00000100
00001000
00010000
,  // measure 60
01000000
10000000
00010000
10000000
00000000
00000000
00000000
00000000
,  // measure 61
10000000
01000000
00010000
00001000
,  // measure 62
00000100
00000001
00001000
00000001
00000000
00000000
00000000
00000000
,  // measure 63
00000001
00000100
00001000
00010000
,  // measure 64
01000000
10000000
00010000
10000000
00000000
00000000
00000000
00000000
,  // measure 65
10000000
01000000
00010000
00001000
,  // measure 66
00000010
00000001
00000100
00001000
,  // measure 67
00000100
00000001
00000100
00000001
,  // measure 68
00001000
00000100
00001000
00000100
,  // measure 69
00010000
00001000
01000000
00100000
,  // measure 70
10000000
01000000
00100000
00010000
,  // measure 71
10000000
00100000
00010000
00001000
,  // measure 72
00000100
00000001
00000010
00001000
,  // measure 73
00000010
00000001
00000010
00000001
,  // measure 74
00001000
00000010
00001000
00000010
,  // measure 75
00020000
00000000
00001000
00000000
00001000
00030000
00000000
00002000
,  // measure 76
00000000
01000000
01003000
00000000
,  // measure 77
00200000
00000000
10000000
00000000
10000000
00300000
00000000
02000000
,  // measure 78
00000000
00100000
03100000
00000000
,  // measure 79
00002000
00000000
00010000
00000000
00010000
00003000
00000000
00020000
,  // measure 80
00000000
00000100
00030100
00000000
,  // measure 81
00000020
00000000
00000000
00000000
,  // measure 82
00000000
00000000
00000000
00000000
,  // measure 83
00000000
00000000
00000000
00000000
,  // measure 84
00000000
00000000
00000000
00000000
,  // measure 85
00000030
00000000
00000000
00000000
;
