#TITLE:EURO-ROMANCE;
#SUBTITLE:;
#ARTIST:K-MASERA;
#TITLETRANSLIT:;
#SUBTITLETRANSLIT:;
#ARTISTTRANSLIT:;
#GENRE:;
#CREDIT:;
#MENUCOLOR:;
#METERTYPE:DDR;
#BANNER:EURO-ROMANCE.png;
#BACKGROUND:EURO-ROMANCE-bg.png;
#LYRICSPATH:;
#CDTITLE:cdtitle.png;
#MUSIC:EURO-ROMANCE.mp3;
#OFFSET:-0.027;
#SAMPLESTART:55.167;
#SAMPLELENGTH:15.000;
#SELECTABLE:YES;
#LISTSORT:;
#DISPLAYBPM:161.000;
#BPMS:0.000=161.000,316.000=148.615,317.000=138.000,318.000=124.641,319.000=98.633;
#STOPS:;
#BGCHANGES:;
#ATTACKS:;

//---------------dance-single - ----------------
#NOTES:
     dance-single:
     :
     Hard:
     11:
     0.547,0.581,0.284,0.174,0.043:
0000
0000
0000
0000
,
0000
0000
0000
0000
,
0100
1000
0010
0100
0000
0001
0000
0010
,
0000
0100
1000
0010
0000
0100
0000
0001
,
0000
0010
0001
0000
1000
0010
0100
0000
,
0010
1000
0001
0010
0000
1000
0010
0000
,
0001
0100
0010
1000
0000
0100
0000
0010
,
0000
0001
1000
0010
0000
0100
0000
0001
,
0000
0010
0100
0000
1000
0001
0100
0000
,
0010
1000
0001
0010
0000
1000
0010
0000
,
0002
0010
0000
0100
,
0000
0000
0000
0000
0013
0000
0000
0100
0000
0000
1000
0000
0010
0000
0100
0000
,
0001
0000
0101
0000
0010
1000
0100
0000
,
0010
0001
1000
0000
0001
0000
0100
0010
,
1000
0000
0011
0000
0100
1000
0010
0000
,
0020
2030
3002
0103
,
0100
0000
1010
0000
0100
0001
1000
0000
,
0100
0010
0100
1000
0001
1000
0100
0000
,
0010
0001
1000
0000
0010
0000
0110
0000
,
0001
0100
1000
0100
0010
0000
0001
0010
,
1000
0000
0110
0000
1000
0100
0010
0000
,
0001
0100
1000
0000
0100
0000
0001
1000
,
0100
0000
0011
0000
0100
1000
0001
0000
,
0002
2003
3020
0130
,
0100
0000
1010
0000
1000
0001
0100
0000
,
0001
0010
0100
1000
0100
0010
0001
0000
,
0100
0010
1000
0000
0010
0000
0110
0000
,
1000
0100
0001
0100
1000
0100
0001
0000
,
0100
0000
0100
0000
0010
0000
0100
0000
0100
0000
0000
0010
0100
0000
1000
0000
,
0000
0101
0000
1100
0000
1010
0000
0000
,
0100
0000
0100
0000
0010
0000
0100
0000
0100
0000
0000
0001
0100
0000
0010
0000
,
0000
1001
0000
1100
0000
0011
0000
0000
,
1000
0000
1000
0000
0001
1000
0001
1000
0001
0000
0000
0100
0001
0000
0010
0000
,
0000
1100
0000
0011
0000
0110
0000
1001
,
0000
0100
0010
1000
0000
0001
1000
0100
,
0000
0010
0001
0000
1000
0001
0100
0000
,
0010
0000
1000
0000
0001
0000
0000
0000
0010
0000
0000
0100
1000
0000
0010
0000
,
0100
0001
1000
0100
0000
0010
0000
0001
,
0100
0001
1000
0100
0000
0010
0000
0001
,
0100
0010
1000
0000
0100
0010
1000
0000
,
0100
0010
1000
0100
0100
0010
1000
0000
,
0001
0010
0100
1000
0000
0010
0000
0100
,
0001
0010
0100
1000
0000
0010
0000
0100
,
0001
1000
0100
0000
0001
1000
0100
0000
,
0001
1000
0100
0100
0001
1000
0100
0000
,
0010
0001
0100
0010
0000
0110
0000
1001
,
0010
0001
0100
0010
0000
0110
0000
1001
,
0010
0001
0100
0000
0010
0001
0100
0000
,
0010
0001
0100
0100
0010
0001
0100
0000
,
0001
0010
0100
0001
0000
0101
0000
1100
,
0001
0010
0100
0001
0000
0101
0000
1100
,
0001
0100
0010
0000
0001
0100
0010
0000
,
0001
0100
0010
0010
0001
0100
0010
0000
,
2000
0000
3200
0000
,
0320
0000
0032
0000
,
0203
0000
0320
1000
,
2030
0000
3200
0000
,
0320
0000
0032
0100
,
0203
0000
0302
0000
,
2000
0000
0000
0000
,
3003
0000
0000
0000
,
1001
0000
0110
0000
,
1001
0000
0000
0000
0010
0000
0000
0000
0100
0000
0000
0010
0000
0000
0001
0000
,
1000
0010
0100
0001
0000
0010
0001
0100
,
0001
0010
0100
1000
0000
0001
0010
0001
,
0100
0000
0110
0000
1000
0001
0100
0000
,
0010
0100
1000
0100
0010
0100
0001
0100
,
0010
1000
0100
0010
0000
0001
0100
0001
,
0010
0001
0100
0010
0000
1000
0100
1000
,
0010
0000
0110
0000
1000
0001
0010
0000
,
0100
0000
0000
0000
1000
0000
0001
0100
0001
0000
0000
0001
0000
0000
0001
0000
,
1000
0100
0010
0001
0000
0010
0100
0010
,
0001
0100
0010
1000
0000
0010
0100
0010
,
1000
0000
0101
0000
1000
0100
0001
0000
,
0100
0000
0000
0000
1000
0000
0100
0000
0010
0000
0000
0001
0100
0000
0010
0000
,
0100
0001
1000
0100
0000
0010
0001
0010
,
0100
1000
0001
0100
0000
0010
1000
0010
,
0100
0000
1001
0000
0010
1000
0100
0000
,
0001
0100
1000
0100
0001
0100
1000
0000
,
0010
1000
0001
0011
0000
1010
0000
2002
,
0000
0000
0000
0000
,
0000
0000
0000
0000
0000
0000
0000
3003
;

//---------------dance-single - ----------------
#NOTES:
     dance-single:
     :
     Medium:
     9:
     0.431,0.452,0.142,0.110,0.008:
0000
0000
0000
0000
,
0000
0000
0000
0000
,
1000
0001
0100
0010
,
0100
0000
0001
0000
1000
0100
0010
0000
,
0100
1000
0001
0100
,
0010
0100
0001
0000
1000
0100
0001
0000
,
0100
1000
0010
0100
,
0001
0000
0010
0000
0100
1000
0001
0000
,
0100
1000
0100
0001
,
0010
0100
1000
0000
0001
0100
1000
0000
,
0200
0010
0000
0010
,
0000
0000
0000
0000
0310
0000
0000
0010
0000
0000
0010
0000
0100
0000
0000
0000
,
0001
0100
0001
0101
,
1000
0000
0100
0000
0010
0000
0100
1000
,
0000
0101
0001
1000
,
1100
0100
0110
0010
,
0011
0000
0001
0000
0100
0000
0010
1000
,
0000
0000
0100
0000
0010
0000
0100
1000
,
0000
0001
0100
0010
,
0100
0001
1000
0000
0100
0000
0100
0000
,
0010
0100
1000
1100
,
0001
0000
0100
0000
0010
0000
0100
0001
,
0000
1100
1000
0010
,
0110
0100
0101
0001
,
1001
0000
0100
0000
1000
0001
0100
0000
,
1000
0000
0100
0000
0001
1000
0100
0000
,
0001
0100
1000
0010
,
0100
0001
0100
0001
0100
0000
0010
1000
,
0100
0100
0010
0010
0100
0000
1000
0001
,
0000
0100
0000
0010
0000
1000
0000
0000
,
0001
0001
0100
0100
0001
0000
1000
0100
,
0000
0010
0000
0100
0000
1000
0000
0000
,
0010
0010
0100
0100
0001
0000
1000
0100
,
0000
0010
0000
0001
0000
0100
0000
0100
,
0000
0010
1000
0000
0010
0100
0001
0100
,
0000
0010
1000
0000
0001
0000
1000
0000
,
0100
0110
0110
0110
,
0010
0000
0001
1000
0000
1000
0000
0100
,
0010
0000
0001
1000
0000
1000
0000
0100
,
0010
0001
0100
0010
,
1000
0000
0100
0000
0001
0100
1000
0000
,
0010
0000
1000
0001
0000
0001
0000
0100
,
0010
0000
1000
0001
0000
0001
0000
0100
,
0010
1000
0100
0001
,
0100
0000
1000
0000
0010
0100
0001
0000
,
1000
0000
0100
0010
0000
0010
0000
0001
,
1000
0000
0100
0010
0000
0010
0000
0001
,
1000
0100
0010
0001
,
0100
0000
1000
0000
0001
0010
1000
0000
,
0100
0000
0010
0001
0000
0001
0000
1000
,
0100
0000
0010
0001
0000
0001
0000
1000
,
0100
1000
0010
0100
,
0001
0000
0100
1000
0100
0001
0100
0000
,
0020
0000
2030
0000
,
3200
0000
0320
0000
,
0032
0000
0000
0100
,
0203
0000
0320
0000
,
2030
0000
0000
0100
,
3200
0000
2300
0000
,
0002
0000
0000
0000
,
3003
0000
0000
0000
,
1100
0000
0101
0000
,
1001
0000
0000
0000
1000
0000
0000
0000
0100
0000
0000
0100
0000
0000
0100
0000
,
0010
0001
0100
0010
,
1000
0000
0100
0000
0010
0001
0100
0000
,
0010
1000
0001
0000
0010
1000
0001
0000
,
0010
1000
0001
1000
0010
1000
0001
0000
,
0010
0100
1000
0001
,
0100
0000
0010
0000
1000
0100
0010
0000
,
0001
0100
0010
0000
0001
0100
0010
0000
,
0001
0100
0010
0100
0001
0100
0010
0000
,
1000
0010
1000
0100
,
0001
0000
0100
0000
0010
0001
0100
0000
,
0010
1000
0001
0000
0010
1000
0001
0000
,
0010
1000
0001
1000
0010
1000
0001
0000
,
0010
0100
1000
0001
,
0100
0000
1000
0000
0100
0001
1000
0000
,
0100
0010
0001
0000
0100
0010
0001
0000
,
0100
0010
0001
0010
0100
0010
0001
0000
,
1000
0000
0001
0100
0000
0110
0000
2002
,
0000
0000
0000
0000
,
0000
0000
0000
0000
0000
0000
0000
3003
;

//---------------dance-single - ----------------
#NOTES:
     dance-single:
     :
     Easy:
     6:
     0.319,0.355,0.055,0.008,0.000:
0000
0000
0000
0000
,
0000
0000
0000
0000
,
1000
0100
1000
0100
,
0010
0001
0010
0001
,
0100
0010
0000
0010
,
0000
0010
0000
0010
,
0100
0001
0100
0001
,
1000
0100
1000
0100
,
0010
0001
0000
0001
,
0000
0001
0000
0001
,
0100
0010
0000
0010
,
0000
0010
0000
0010
,
0100
0001
1000
0100
,
0010
0010
0100
0100
,
1000
0001
0100
0010
,
0100
0100
0001
0001
,
1000
0100
0001
0100
,
1000
0010
0001
0010
,
1000
0010
0100
0001
,
0010
0010
0110
0110
,
0100
1000
0001
0100
,
0010
1000
0100
0001
,
0100
1000
0010
0100
,
0001
0010
0010
0100
,
0100
1000
0010
0100
,
0001
1000
0100
0001
,
0100
1000
0010
0100
,
0001
0101
0100
0101
,
0001
1000
0001
0000
1001
0000
0000
0000
,
0100
0000
0100
0000
,
0010
0100
0010
0000
0110
0000
0000
0000
,
1000
0000
1000
0000
,
0001
0100
0001
0000
0101
0000
0000
0000
,
0010
0000
0010
0000
,
1000
0100
0001
0010
,
1000
0010
0001
0100
,
0000
0100
0000
0100
,
0001
1000
0100
0001
,
1000
0010
0001
0100
,
0010
1000
0100
0010
,
0001
0100
1000
0100
,
0001
0010
1000
0001
,
0100
1000
0001
0100
,
0010
1000
0100
1000
,
0010
0100
0001
0010
,
0100
1000
0001
0100
,
1000
0001
0010
1000
,
0001
0010
0100
0010
,
0001
1000
0100
1000
,
0001
0010
0100
1000
,
0001
0100
0010
1000
,
0100
0001
0100
1000
,
0010
0001
0010
1000
,
0001
0000
0100
0000
,
0010
0000
0000
0100
,
0100
0000
0001
0000
,
1000
0000
0000
0100
,
0100
0000
0010
0000
,
0001
0000
0000
1000
,
1000
0000
0001
0000
,
0100
0000
0000
0010
,
0010
0000
0010
0000
,
0010
0010
0010
0010
,
0001
0100
1000
0100
,
0001
1000
0100
0010
,
0001
0100
0010
1000
,
0100
1000
0010
0100
,
0001
0010
0001
0100
,
0010
1000
0100
0010
,
0001
0100
0001
1000
,
0100
0010
0001
0100
,
0010
0100
0010
0000
1000
0000
0100
0000
,
0010
0001
0100
0001
,
1000
0100
0010
0000
,
0001
0100
0010
0000
,
1000
0100
1000
0000
0001
0000
0100
0000
,
0010
1000
0001
0010
,
0100
1000
0001
0000
,
0100
0001
1000
0000
,
0010
0000
0000
0100
0000
0001
0000
2000
,
0000
0000
0000
0000
,
0000
0000
0000
0000
0000
0000
0000
3000
;

//---------------dance-single - ----------------
#NOTES:
     dance-single:
     :
     Beginner:
     3:
     0.167,0.221,0.000,0.000,0.000:
0000
0000
0000
0000
,
0000
0000
0000
0000
,
0000
1000
0000
1000
,
0000
0001
0000
0001
,
0000
0100
0000
0100
,
0000
0010
0010
0010
,
0000
0100
0000
0100
,
0000
0001
0000
0001
,
0000
0010
0000
0010
,
0000
0100
0100
0100
,
0100
0000
0000
0000
,
0000
0100
0000
0100
,
0100
0000
0000
0100
,
0100
0000
0000
0010
,
0010
0000
0000
0001
,
0001
0000
1000
0000
,
0001
0000
0000
0100
,
0100
0000
0000
0010
,
0010
0000
0000
0000
,
1000
0000
1000
0000
,
0100
0000
0000
0100
,
0100
0000
0000
0010
,
0010
0000
0000
0001
,
0001
0000
0000
0100
,
0100
0000
0000
0010
,
0010
0000
0000
1000
,
1000
0000
0000
0000
,
0000
0001
0000
0001
,
0001
0000
0001
0000
,
0000
0100
0000
0100
,
0100
0000
0100
0000
,
0000
0010
0000
0010
,
0010
0000
0010
0000
,
0000
1000
0000
1000
,
1000
0000
0001
0000
,
0100
0000
0000
0000
,
0000
0100
0000
0100
,
0100
0000
0100
0000
,
0001
0000
0001
0000
,
1000
0000
1000
0000
,
0100
0000
0100
0000
,
0010
0000
0010
0000
,
0100
0000
0100
0000
,
1000
0000
1000
0000
,
0001
0000
0001
0000
,
0100
0000
0100
0100
,
0100
0000
0000
0000
,
0001
0000
0001
0000
,
1000
0000
1000
0000
,
0010
0000
0010
0010
,
0010
0000
0000
0000
,
0100
0000
0100
0000
,
0001
0000
0001
0000
,
0010
0000
0000
0000
,
1000
0000
0000
0000
,
0100
0000
0000
0000
,
0001
0000
0000
0000
,
0010
0000
0000
0000
,
1000
0000
0000
0000
,
0100
0000
0000
0000
,
0001
0000
0000
0000
,
0010
0000
0010
0000
,
0010
0010
0010
0010
,
0010
0000
0010
0000
,
0100
0000
0100
0000
,
0001
0000
0001
0000
,
1000
0000
1000
0000
,
0100
0000
0100
0000
,
0010
0000
0010
0000
,
0001
0000
0001
0000
,
1000
0000
1000
0000
,
0010
0000
0010
0000
,
0100
0000
0100
0000
,
0001
0000
0001
0000
,
1000
0000
1000
0000
,
0100
0000
0100
0000
,
0010
0000
0010
0000
,
0001
0000
0001
0000
,
1000
0000
1000
0000
,
0010
0000
0000
0000
0000
0000
0000
0010
;

//---------------dance-double - ----------------
#NOTES:
     dance-double:
     :
     Hard:
     12:
     0.499,0.484,0.095,0.205,0.032:
00000000
00000000
00000000
00000000
,
00000000
00000000
00000000
00000000
,
00010000
00100000
00001000
00010000
00000000
00000100
00000000
00001000
,
00000000
00000010
00000000
00000100
00000000
00000001
00000000
00000020
,
00000000
00000100
00000000
00000001
,
00000000
00000000
00001000
00000000
00000000
00000100
00000130
00000000
,
00001000
00000100
00010000
00001000
00000000
01000000
00000000
00010000
,
00000000
00100000
00000000
01000000
00000000
10000000
00000000
00200000
,
00000000
00010000
00000000
01000000
,
00000000
10000000
00000000
01300000
,
00022000
00000000
00000000
00033000
,
00010000
00000000
00000000
00000000
00001000
00000000
00000000
01000000
00000000
00000000
00010000
00000000
00100000
00000000
01000000
10000000
,
01000000
00000000
00110000
00000000
10000000
01000000
00010000
00000000
,
00001000
00000000
00000100
00000000
00000010
00010000
00000100
00000000
,
00010000
00001000
00010000
00000000
01000000
00000000
10000000
00000000
,
20000000
32000000
03020000
00031000
,
00001000
00000000
00010000
00000000
00000100
00010000
00000010
00000000
,
00000100
00001000
00010000
00000000
00001000
00000000
01001000
00000000
,
01000000
00100000
10000000
00000000
00010000
10000000
01000000
00000000
,
00001000
00000100
00000001
00000000
00000100
00000000
00001001
00000000
,
00000100
00000000
00001010
00000000
00000001
00000100
00001000
00000000
,
00010000
00000000
01000000
00000000
00100000
00001000
01000000
00000000
,
00001000
00010000
00001000
00000000
00000100
00000000
00000001
00000000
,
00000002
00000203
00002300
00013000
,
00010000
00000000
00001000
00000000
01000000
00001000
00100000
00000000
,
01000000
00010000
00001000
00000000
00010000
00000000
00010100
00000000
,
00000100
00000010
00000001
00000000
00001000
00000001
00000100
00000000
,
00010000
01000000
10000000
00000000
01000000
00000000
20010000
00000000
,
31000000
01000000
01000000
01000000
01000000
00000000
00010000
00001000
,
00000000
00000010
00000000
00000001
00000000
00001002
00000000
00000003
,
00000100
00000100
00000100
00000100
00000100
00000000
00001000
00010000
,
00000000
00100000
00000000
10000000
00000000
20010000
00000000
30000000
,
01000000
00000000
01000000
00000000
01000000
00100000
01000000
00100000
01000000
00000000
00000000
00000000
00010000
00000000
00001000
00000000
,
00000000
00000010
00000000
00000001
00000000
00000100
00000000
00001000
,
00000000
00010000
00001000
01000000
00000000
00100000
10000000
01000000
,
00000000
00010000
00001000
00000000
00010000
00000000
00000010
00000000
,
00000100
00000000
00001000
00000000
00010000
00000000
00100000
00000000
10000000
00000000
00000000
00010000
01000000
00000000
00001000
00000000
,
00010000
01000000
10000000
01000000
00000000
00010000
00000000
00001000
,
00010000
01000000
10000000
01000000
00000000
00010000
00000000
00001000
,
00010000
00000010
00000100
00000000
00010000
00000010
00000100
00000000
,
00010000
00000010
00000100
00000100
00010000
00000010
00000100
00000000
,
00000001
00000100
00001000
00010000
00000000
00001000
00000000
00000100
,
00000001
00000100
00001000
00010000
00000000
00001000
00000000
00000100
,
00001000
00100000
01000000
00000000
00001000
00100000
01000000
00000000
,
00001000
00100000
01000000
01000000
00001000
00100000
01000000
00000000
,
10000000
01000000
00010000
00001000
00000000
00000010
00000000
00010000
,
10000000
01000000
00010000
00001000
00000000
00000010
00000000
00010000
,
00000010
00000001
00000100
00000000
00000010
00000001
00000100
00000000
,
00000010
00000001
00000100
00000100
00000010
00000001
00000100
00000000
,
00000001
00000100
00001000
00010000
00000000
00100000
00000000
00001000
,
00000001
00000100
00001000
00010000
00000000
00100000
00000000
00001000
,
00100000
10000000
01000000
00000000
00100000
10000000
01000000
00000000
,
00100000
10000000
01000000
01000000
00100000
10000000
01000000
00000000
,
00200000
00000000
00302000
00000000
,
00023000
00000000
00030020
00000000
,
00000230
00000000
00002300
00000000
,
00013000
00100000
10000000
00100000
00010000
00001000
00000100
00000001
,
00000020
00000000
00000230
00000000
,
00020300
00000000
00032000
00000000
,
02000000
00000000
00000000
00000000
,
03003000
00000000
00000000
00000000
,
11000000
00000000
00110000
00000000
,
00001000
00000000
00010000
00000000
00000100
00000000
00001000
00000000
00000001
00000000
00000000
00000001
00000000
00000000
00000001
00000000
,
00000100
00010000
01000000
00010000
00000000
00001000
00000000
00000010
,
00000100
00010000
01000000
00010000
00000000
00001000
00000000
00000010
,
00000100
00001000
00000000
01000000
00100000
00010000
00000000
00000010
,
00000100
00001000
00000000
01000000
00100000
00010000
00100000
10000000
,
01000000
00001000
00000100
00001000
00000000
00010000
00000000
00100000
,
01000000
00001000
00000100
00001000
00000000
00010000
00000000
00100000
,
01000000
00010000
00000000
00000100
00000010
00001000
00000000
00100000
,
01000000
00000000
00010000
00000000
01000000
00000000
10000000
00010000
10000000
00000000
00000000
10000000
00000000
00000000
10000000
00000000
,
01000000
00010000
00000100
00000010
00000000
00010000
00000000
00100000
,
01000000
00010000
00000100
00000010
00000000
00010000
00000000
00100000
,
00001000
00000000
00010000
01000000
00100000
00000000
00001000
00000010
,
00000100
00000000
00010000
01000000
00100000
00000000
00001000
00000010
,
00000100
00001000
01000000
00100000
00000000
00001000
00000000
00000010
,
00000100
00001000
01000000
00100000
00000000
00001000
00000000
00000010
,
00000100
00010000
00000100
00010000
00001000
01000000
00001000
01000000
,
00010000
00000100
00010000
00000100
00000001
00000010
00000100
00001000
,
00000010
00000001
00000010
00010000
00000000
00001000
00000000
00022000
,
00000000
00000000
00000000
00000000
,
00000000
00000000
00000000
00000000
00000000
00000000
00000000
00033000
;

//---------------dance-double - ----------------
#NOTES:
     dance-double:
     :
     Medium:
     9:
     0.424,0.452,0.032,0.142,0.012: // measure 1
00000000
00000000
00000000
00000000
,  // measure 2
00000000
00000000
00000000
00000000
,  // measure 3
10000000
01000000
00010000
00001000
00000000
00000010
00000000
00000001
,  // measure 4
00000000
00000100
00000000
00000010
00000000
00001000
00000000
00000100
,  // measure 5
00000000
00010000
00001000
00000000
01000000
00000000
00010000
00000000
,  // measure 6
00100000
00000000
01000000
00000000
10000000
01000000
01000000
00000000
,  // measure 7
10000000
01000000
00010000
00001000
00000000
00000010
00000000
00000001
,  // measure 8
00000000
00000100
00000000
00000010
00000000
00001000
00000000
00000100
,  // measure 9
00000000
00010000
00010000
00000000
00001000
00000000
01000000
00000000
,  // measure 10
00010000
00100000
01000000
10000000
,  // measure 11
01000000
00010000
00001000
00000010
,  // measure 12
00000001
00000000
00000000
00000000
00000100
00000000
00000000
00000100
00000000
00000000
00000100
00000000
00000100
00000000
00000000
00000000
,  // measure 13
00000010
00001000
00000100
00010000
,  // measure 14
00001000
00000000
01000000
00000000
00010000
00000000
00100000
01000000
,  // measure 15
10000000
00010000
01000000
00001000
,  // measure 16
00001000
00010000
00010000
00000100
,  // measure 17
00000100
00000000
00000010
00000000
00000001
00000010
00000100
00000000
,  // measure 18
00001000
00000010
00010000
00000100
,  // measure 19
00010000
00000000
00001000
00000000
01000000
00010000
00100000
00000000
,  // measure 20
01000000
10000000
01000000
00100000
01000000
00000000
10000000
00010000
,  // measure 21
01000000
00001000
00010000
00000100
,  // measure 22
00000010
00000000
00000001
00000000
00000100
00000000
00000010
00001000
,  // measure 23
00000100
00010000
00001000
01000000
,  // measure 24
01000000
00100000
00100000
10000000
,  // measure 25
10000000
00000000
01000000
00000000
00010000
00001000
00010000
00000000
,  // measure 26
00000100
00000000
00000010
00000000
00000001
00001000
00000001
00000000
,  // measure 27
00000100
00000000
00000010
00000000
00010000
00001000
01000000
00000000
,  // measure 28
00010000
00100000
01000000
10000000
01000000
00000000
00100000
00000000
,  // measure 29
00001000
00010000
00001000
00010000
00001000
00000000
00010000
00000000
,  // measure 30
00000100
00000000
00000100
00000000
00000010
00000001
00000100
00000000
,  // measure 31
00001000
00010000
00001000
00010000
00001000
00000000
00010000
00000000
,  // measure 32
00100000
00000000
00100000
00000000
10000000
01000000
00100000
00000000
,  // measure 33
00001000
00010000
00001000
00010000
00001000
00000000
00000010
00000000
,  // measure 34
00000001
00000100
00000010
00001000
,  // measure 35
00000100
00000000
00010000
00000000
00001000
00000000
01000000
00010000
,  // measure 36
00000000
02000000
03200000
02300000
,  // measure 37
00000000
00001000
00000000
03001000
,  // measure 38
00010000
00000000
00001000
01000000
00000000
01000000
00001000
00000000
,  // measure 39
00010000
00000000
00001000
01000000
00000000
01000000
00001000
00000000
,  // measure 40
00010000
01000000
10000000
00100000
,  // measure 41
10000000
01000000
00010000
00011000
,  // measure 42
00001000
00000000
00010000
00000100
00000000
00000100
00010000
00000000
,  // measure 43
00001000
00000000
00010000
00000100
00000000
00000100
00010000
00000000
,  // measure 44
00001000
00000100
00000001
00000010
,  // measure 45
00000001
00000100
00001000
00011000
,  // measure 46
00010000
00000000
00001000
00100000
00000000
00100000
00001000
00000000
,  // measure 47
01000000
00000000
00001000
00100000
00000000
00100000
00001000
00000000
,  // measure 48
00010000
00100000
10000000
01000000
,  // measure 49
10000000
00100000
00010000
00011000
,  // measure 50
00001000
00000000
00010000
00000010
00000000
00000010
00010000
00000000
,  // measure 51
00000100
00000000
00010000
00000010
00000000
00000010
00010000
00000000
,  // measure 52
00001000
00000010
00000001
00000100
,  // measure 53
00000001
00000010
00001000
00010000
,  // measure 54
00002000
00000000
02003000
00000000
,  // measure 55
03200000
00000000
20300000
00000000
,  // measure 56
30020000
00000000
00230000
00000000
,  // measure 57
00302000
00000000
00023000
00000000
,  // measure 58
00030200
00000000
00000320
00000000
,  // measure 59
00000032
00000000
00000203
00000000
,  // measure 60
00000320
00000000
00000000
00000000
,  // measure 61
00000030
00000000
00000000
00000000
,  // measure 62
00001000
00000000
00000100
00000000
,  // measure 63
00010000
00000000
00000000
00000000
00001000
00000000
00000000
00000000
01000000
00000000
00000000
01000000
00000000
00000000
01000000
00000000
,  // measure 64
00100000
10000000
01000000
00010000
00000000
01000000
00000000
10000000
,  // measure 65
00100000
10000000
01000000
00010000
00000000
01000000
00000000
10000000
,  // measure 66
01000000
00010000
00001000
00000010
,  // measure 67
00000100
00001000
00000001
00001000
00000100
00001000
00000001
00000000
,  // measure 68
00000010
00000001
00000100
00001000
00000000
00000100
00000000
00000001
,  // measure 69
00000010
00000001
00000100
00001000
00000000
00000100
00000000
00000001
,  // measure 70
00000100
00001000
00010000
00100000
,  // measure 71
01000000
00000000
00010000
00000000
10000000
00000000
00010000
00000000
00100000
00000000
00000000
00100000
00000000
00000000
00100000
00000000
,  // measure 72
01000000
10000000
00100000
00010000
00000000
00100000
00000000
10000000
,  // measure 73
01000000
10000000
00100000
00010000
00000000
00100000
00000000
10000000
,  // measure 74
01000000
00010000
00001000
00000100
,  // measure 75
00000001
00001000
00000010
00001000
00000001
00001000
00000010
00000000
,  // measure 76
00000100
00000001
00000010
00001000
00000000
00000010
00000000
00000001
,  // measure 77
00000100
00000001
00000010
00001000
00000000
00000010
00000000
00000001
,  // measure 78
00000100
00001000
00010000
01000000
,  // measure 79
10000000
00010000
01000000
00100000
10000000
01000000
00010000
00000000
,  // measure 80
00001000
00000010
00000001
00000100
00000000
00001000
00000000
00022000
,  // measure 81
00000000
00000000
00000000
00000000
,  // measure 82
00000000
00000000
00000000
00000000
00000000
00000000
00000000
00033000
;

//---------------dance-double - ----------------
#NOTES:
     dance-double:
     :
     Easy:
     6:
     0.303,0.315,0.079,0.016,0.000: // measure 1
00000000
00000000
00000000
00000000
,  // measure 2
00000000
00000000
00000000
00000000
,  // measure 3
00000000
00010000
00000000
10000000
,  // measure 4
00000000
01000000
00000000
00100000
,  // measure 5
00000000
00001000
00000000
00010000
,  // measure 6
00000000
00000000
00000100
00000000
00000000
00000010
00000010
00000000
,  // measure 7
00000000
00000001
00000000
00001000
,  // measure 8
00000000
00000100
00000000
00010000
,  // measure 9
00000000
00001000
00000000
01000000
,  // measure 10
00000000
01000000
00000000
01000000
,  // measure 11
00100000
10000000
00000000
10000000
,  // measure 12
00000000
10000000
00010000
10000000
,  // measure 13
01000000
00100000
00010000
00100000
,  // measure 14
01000000
10000000
00010000
01000000
,  // measure 15
00001000
00010000
00000100
00000010
,  // measure 16
00000001
00000100
00000010
00001000
,  // measure 17
00010000
01000000
00100000
10000000
,  // measure 18
00010000
00100000
00001000
00010000
,  // measure 19
00000100
00000010
00000001
00000100
,  // measure 20
00001000
00010000
00100000
10000000
,  // measure 21
00010000
01000000
00001000
00001000
,  // measure 22
00010000
00000100
00000010
00000010
,  // measure 23
00000001
00000100
00000010
00000010
,  // measure 24
00001000
00000100
00010000
00010000
,  // measure 25
00001000
01000000
00100000
01000000
,  // measure 26
00010000
00100000
10000000
00100000
,  // measure 27
00010000
00001000
00000100
00000010
,  // measure 28
00000001
00000100
00000010
00001000
,  // measure 29
00000100
00000100
00001100
00000000
,  // measure 30
00011000
00000000
00110000
00000000
,  // measure 31
00100000
00100000
01100000
00000000
,  // measure 32
11000000
00000000
10010000
00000000
,  // measure 33
00010000
00010000
01010000
00000000
,  // measure 34
01001000
00000000
00011000
00000000
,  // measure 35
00010100
00000000
00000100
00000000
,  // measure 36
00000010
00000001
00000100
00000020
,  // measure 37
00000000
00000000
00000000
00000030
,  // measure 38
00001000
00000100
00010000
00000010
,  // measure 39
00001000
00000100
00010000
00000010
,  // measure 40
00001000
00000100
00010000
00001000
,  // measure 41
00100000
00010000
01000000
00100000
,  // measure 42
01000000
00001000
00100000
00010000
,  // measure 43
01000000
00001000
00100000
00010000
,  // measure 44
01000000
00010000
00100000
00001000
,  // measure 45
00010000
00000100
00001000
00000010
,  // measure 46
00001000
00000100
00010000
00000010
,  // measure 47
00001000
00000100
00010000
00000010
,  // measure 48
00001000
00000100
00010000
00001000
,  // measure 49
00100000
00010000
01000000
00100000
,  // measure 50
01000000
00001000
00100000
00010000
,  // measure 51
01000000
00001000
00100000
00010000
,  // measure 52
01000000
00100000
10000000
01000000
,  // measure 53
00010000
00001000
00000010
00000001
,  // measure 54
00000100
00000000
00000000
00000000
,  // measure 55
00000010
00000000
00000000
00000000
,  // measure 56
00010000
00000000
00000000
00001000
,  // measure 57
00001000
00000000
01000000
00000000
,  // measure 58
00100000
00000000
00000000
10000000
,  // measure 59
10000000
00000000
00010000
00000000
,  // measure 60
00200000
00000000
00000000
00000000
,  // measure 61
00300000
00000000
00000000
00000000
,  // measure 62
00001000
00000000
00010000
00000000
,  // measure 63
00001000
00010000
00000100
00000010
,  // measure 64
00000001
00000100
00000010
00001000
,  // measure 65
00000001
00000100
00000010
00001000
,  // measure 66
00000100
00010000
00001000
01000000
,  // measure 67
00010000
00100000
00001000
00010000
,  // measure 68
00000010
00001000
00000001
00000100
,  // measure 69
00000010
00001000
00000001
00000100
,  // measure 70
00000010
00010000
00001000
00100000
,  // measure 71
00010000
01000000
00001000
00010000
,  // measure 72
00000100
00000010
00000001
00001000
,  // measure 73
00000100
00000010
00000001
00001000
,  // measure 74
00000010
00010000
00001000
00100000
,  // measure 75
00010000
01000000
00001000
00010000
,  // measure 76
00000100
00001000
00000001
00000010
,  // measure 77
00000100
00001000
00000001
00000010
,  // measure 78
00000100
00010000
00001000
01000000
,  // measure 79
00010000
00100000
01000000
10000000
,  // measure 80
00010000
00000000
00000000
01000000
00000000
00001000
00000000
00010000
;
