#TITLE:DRAMATIC SONG;
#SUBTITLE:;
#ARTIST:Toby Turner;
#TITLETRANSLIT:;
#SUBTITLETRANSLIT:;
#ARTISTTRANSLIT:;
#GENRE:;
#CREDIT:;
#MENUCOLOR:;
#METERTYPE:DDR;
#BANNER:DRAMATIC SONG.png;
#BACKGROUND:DRAMATIC SONG-bg.png;
#LYRICSPATH:;
#CDTITLE:cdtitle.png;
#MUSIC:DRAMATIC SONG.mp3;
#OFFSET:0.000;
#SAMPLESTART:8.725;
#SAMPLELENGTH:15.000;
#SELECTABLE:YES;
#LISTSORT:;
#DISPLAYBPM:110.000;
#BPMS:0.000=110.000,221.000=97.778,222.000=88.000,223.000=80.000,223.500=42.667;
#STOPS:;
#BGCHANGES:0.000=DRAMATIC SONG.avi=1.000=1=0=0,
99999=-nosongbg-=1.000=0=0=0 // don't automatically add -songbackground-
;
#ATTACKS:;

//---------------dance-single - ----------------
#NOTES:
     dance-single:
     :
     Hard:
     9:
     0.375,0.382,0.128,0.128,0.000:
0000
0000
0000
0000
,
0000
0000
0000
0000
,
0000
0000
0000
0000
,
0000
0000
0000
0000
,
1000
0001
0100
0000
0010
0000
0100
0000
,
0001
1000
0100
0000
0010
0100
0000
1000
,
0000
0000
0001
0100
0001
0000
1000
0000
,
0010
0000
0100
0001
1000
0000
0100
0000
,
0010
0001
0010
0000
0100
0000
1000
0010
,
0001
0010
1000
0000
0100
0000
0010
0001
,
0000
0100
0001
0000
1000
0000
0001
0100
,
0010
0100
0001
0000
1000
0100
0010
0000
,
0001
0100
1000
0000
0100
0001
1000
0100
,
0000
0000
0010
0010
0100
0100
1000
0000
,
0000
0101
1100
0101
,
0000
0100
0010
0000
0100
0001
1000
0100
,
0000
0000
0010
0000
0100
0100
1000
0001
,
0000
0000
0100
0000
0010
0100
0001
0000
,
1000
0000
0001
0000
0100
0010
1000
0001
,
0000
0000
0010
0010
0100
0100
1000
0001
,
0010
0100
0010
0000
0001
1000
0001
0000
,
0100
0010
0100
0010
1000
0100
0010
0000
,
0001
0000
0100
0001
1000
0100
0010
0000
,
0100
0000
1000
0001
1000
0001
0100
0220
,
0000
0330
0000
2002
0000
0000
0000
0000
,
0000
0000
0000
3003
0000
0000
1000
0100
,
0010
0100
1000
0001
0000
0100
0000
0220
,
0000
0330
0000
2002
0000
3003
0000
0000
,
0001
0000
0100
0001
1000
0000
0100
0100
,
0000
0000
0010
0000
0100
1000
0001
0000
,
0100
0000
0010
0000
0010
0100
0010
0100
,
0000
0001
1000
0001
1000
0010
0001
1000
,
0100
0100
0001
0001
1000
0100
0010
0000
,
0100
0100
1000
1000
0010
0100
0001
0000
,
0100
1000
0100
0000
0001
0010
0001
0000
,
1000
0100
1000
0000
0010
0001
0010
0100
,
0000
0001
0001
1000
0100
0000
0010
0100
,
0000
0000
1100
0000
0101
0001
0100
0000
,
0010
2100
3002
0203
,
0310
0000
0100
0000
0001
1000
0001
1000
,
0000
0100
0010
0100
1000
0000
1001
0000
,
0100
0000
0010
0000
1000
0010
0001
0000
,
0110
0000
0010
0010
0100
0100
0001
1000
,
0100
0010
0010
0100
1000
1000
0001
0100
,
0010
0010
0100
0100
0001
1000
0100
0010
,
0001
0000
1000
0010
0001
0020
0000
0130
,
0000
0001
0001
0000
1000
0100
0001
0100
,
1000
0010
0100
0001
1000
1000
0001
0001
,
0100
0010
0100
0001
0101
0000
2200
0000
,
3300
1000
0100
0000
0010
0100
1000
0001
,
0000
0000
0100
0001
0011
0000
2010
0000
,
3100
0010
0100
0010
0001
1000
0001
0100
,
0000
0010
0010
1000
0100
0010
0010
0001
,
0100
0000
0001
1000
0100
0010
0100
1000
,
0000
0001
0100
1000
0100
0010
1000
0100
,
0000
0010
0100
1000
0001
0100
0010
0200
,
0000
0300
0000
0000
0000
0000
0000
0000
;

//---------------dance-single - ----------------
#NOTES:
     dance-single:
     :
     Medium:
     6:
     0.261,0.292,0.056,0.008,0.000:
0000
0000
0000
0000
,
0000
0000
0000
0000
,
0000
0000
0000
0000
,
0000
0000
0000
0000
,
1000
0001
0100
0100
,
0010
0100
0001
0000
,
1000
0100
0010
0010
,
0100
1000
0001
0000
,
0100
0010
1000
0100
,
0010
0001
0100
0000
,
0001
1000
0100
0010
,
0100
1000
0001
0000
,
0100
0000
0100
0010
,
0100
0000
0001
1000
0001
1000
0001
0000
,
0000
0010
0100
1000
,
0001
0000
0100
0000
0010
0100
0001
0000
,
1000
0100
0010
0100
,
1000
0001
0100
0000
,
0010
0000
0100
0001
1000
0000
0100
0000
,
0010
0010
0100
0100
,
1000
0001
0100
0010
,
0100
0001
1000
0000
0100
0000
0010
0000
,
0100
0100
0001
0100
,
1000
0000
0010
0000
0100
0000
0001
0100
,
0000
0000
0000
0100
0000
0000
0000
0000
,
0000
0000
0000
0100
,
0100
0000
0001
1000
0000
0100
0000
0010
,
0000
0000
0000
0010
0000
0000
0000
0000
,
0000
0000
0100
0000
0001
0000
0100
0010
,
0000
0000
0100
0000
0010
0100
0010
0000
,
0000
0000
1000
0000
0100
0010
0001
1000
,
0000
0001
0010
0100
1000
0001
0010
0100
,
1000
0010
0100
0001
,
1000
0010
0100
0000
0001
0000
0010
0000
,
0100
1000
0001
0100
,
0010
0100
0001
0000
1000
0000
0100
0000
,
0010
0000
0100
0000
1000
0001
0100
0000
,
0001
0000
0100
0000
0010
0100
0001
0000
,
1000
0100
0001
0100
,
1000
0000
0010
0000
0100
0001
0100
0001
,
1000
0100
0010
0100
,
1000
0000
0001
0000
0010
0100
1000
0000
,
0100
0001
0100
1000
,
0010
0001
1000
0100
,
0001
1000
0100
0001
,
1000
0000
0010
0000
0001
0100
0000
0100
,
0000
0010
1000
0010
,
0100
0001
0100
0001
1000
0100
1000
0100
,
0010
0100
0010
1001
,
0100
0000
0100
0000
0010
0100
0010
0000
,
1000
0100
0011
1100
,
0001
0000
0100
0000
0010
0100
0010
0000
,
1000
0010
1010
0101
,
0100
0000
0001
0000
1000
0100
0010
0000
,
0001
1000
0110
1001
,
0100
0010
0001
0000
0010
0100
1000
0002
,
0000
0003
0000
0000
0000
0000
0000
0000
;

//---------------dance-single - ----------------
#NOTES:
     dance-single:
     :
     Easy:
     3:
     0.186,0.202,0.000,0.008,0.000:
0000
0000
0000
0000
,
0000
0000
0000
0000
,
0000
0000
0000
0000
,
0000
0000
0000
0000
,
1000
0001
0100
0000
,
0001
1000
0100
0000
,
0010
0001
0100
0000
,
0010
1000
0100
0000
,
0001
0100
1000
0000
,
0010
0100
1000
0000
,
0100
0001
0010
0000
,
0001
0100
1000
0100
,
0001
1000
0100
0000
,
0100
0010
0100
1000
,
0000
0001
0100
0001
,
0000
0000
0100
0000
0010
0100
0100
0000
,
0000
0100
0001
1000
,
0000
0100
1000
0001
,
0000
0010
0001
0100
,
0010
1000
0100
0010
,
0001
1000
0001
1000
,
0010
0100
0010
0100
,
0000
0001
0100
0010
,
0000
1000
0100
0010
,
0001
0000
1000
0000
,
0001
0000
0100
0100
,
0100
0000
0010
0000
,
1000
0000
0001
0001
,
0001
0000
1000
0000
,
0100
0010
0100
0000
,
1000
0001
0100
0000
,
0010
0000
0100
0000
0010
0010
0010
0000
,
0100
0000
0001
0000
,
1000
0100
0010
0000
,
0001
0000
0100
0000
,
0001
0010
0100
0000
,
1000
0000
0100
0000
,
0010
0001
0100
0000
,
1000
0100
0001
0000
,
1000
0100
0001
0000
,
0100
1000
0010
0000
,
0100
0001
0010
0000
,
0000
0001
0001
0001
,
1000
1000
0010
0010
,
0100
0001
1000
0100
,
1000
0001
0100
0010
,
0000
0100
0001
1000
,
0000
0100
1000
0001
,
0000
0010
0001
0100
,
0000
0010
1000
0100
,
0000
0010
0001
0100
,
0000
0100
0001
0010
,
0000
0100
1000
0010
,
0000
0001
0010
1000
,
0000
0100
0010
0001
,
0000
0000
1000
0000
0001
0000
0100
0200
,
0000
0300
0000
0000
0000
0000
0000
0000
;

//---------------dance-single - ----------------
#NOTES:
     dance-single:
     :
     Beginner:
     1:
     0.061,0.088,0.000,0.000,0.000:
0000
0000
0000
0000
,
0000
0000
0000
0000
,
0000
0000
0000
0000
,
0000
0000
0000
0000
,
0100
0000
0000
0000
,
0010
0000
0000
0000
,
0100
0000
0000
0000
,
1000
0000
0000
0000
,
0001
0000
0000
0000
,
0010
0000
0000
0000
,
0100
0000
0000
0000
,
1000
0000
0000
0000
,
0010
0000
0000
0000
,
0100
0000
0000
0000
,
1000
0000
0000
0000
,
0010
0000
0000
0000
,
0100
0000
0000
0000
,
0001
0000
0000
0000
,
0100
0000
0000
0000
,
0001
0000
0000
0000
,
0010
0000
0000
0000
,
0100
0000
0000
0000
,
0001
0000
0000
0000
,
0100
0000
0000
0000
,
0100
0000
0000
0000
,
0000
0000
0000
0000
,
0010
0000
0000
0000
,
0000
0000
0000
0000
,
0100
0000
0000
0000
,
0010
0000
0000
0000
,
1000
0000
0000
0000
,
0001
0000
0000
0000
,
0010
0000
0000
0000
,
0100
0000
0000
0000
,
1000
0000
0000
0000
,
0001
0000
0000
0000
,
0100
0000
0000
0000
,
0010
0000
0000
0000
,
1000
0000
0000
0000
,
0100
0000
0000
0000
,
0001
0000
0000
0000
,
0100
0000
0000
0000
,
0010
0000
0010
0000
,
0010
0000
0000
0000
,
0100
0000
0100
0000
,
0100
0000
0000
0000
,
0001
0000
0001
0000
,
0001
0000
0000
0000
,
1000
0000
0000
0000
,
0001
0000
0000
0000
,
0100
0000
0000
0000
,
1000
0000
0000
0000
,
0010
0000
0000
0000
,
0001
0000
0000
0000
,
1000
0000
0000
0000
,
0001
0000
0000
0000
;

//---------------dance-double - ----------------
#NOTES:
     dance-double:
     :
     Hard:
     9:
     0.342,0.337,0.008,0.024,0.000:
00000000
00000000
00000000
00000000
,
00000000
00000000
00000000
00000000
,
00000000
00000000
00000000
00000000
,
00000000
00000000
00000000
00000000
,
00001000
01000000
00010000
00000000
00100000
01000000
10000000
00000000
,
00010000
01000000
00001000
00010000
00000100
00001000
00000000
00000010
,
00000000
00000000
00000100
00000001
00000010
00000100
00001000
00000100
,
00000000
00010000
00001000
01000000
00100000
00010000
00001000
00100000
,
00000000
01000000
10000000
00000000
01000000
00100000
00001000
00000000
,
00010000
00000100
00000010
00000100
00001000
00000010
00000100
00000001
,
00000000
00000010
00000100
00000000
00001000
00000100
00010000
00000000
,
00001000
01000000
00100000
01000000
00010000
00100000
01000000
00000000
,
10000000
01000000
00010000
00000000
01000000
00100000
00001000
00010000
,
00000000
00000000
00001000
00001000
00010000
00010000
00000100
00000000
,
00000000
00000010
00000001
00001000
,
00000000
00000100
00010000
00000000
00001000
01000000
00100000
00000000
,
00000000
00000000
10000000
00000000
01000000
00100000
00001000
00100000
,
00000000
00000000
00001000
00000000
00010000
00000100
00000010
00000000
,
00000000
00000000
00000001
00000000
00000100
00001000
00010000
01000000
,
00000000
00000000
00100000
00001000
00010000
00000000
10000000
00000000
,
00010000
00001000
00000100
00000000
00000010
00001000
00000100
00000000
,
00010000
00001000
00010000
00001000
01000000
00010000
00100000
00000000
,
01000000
10000000
01000000
00000000
00100000
00010000
00100000
00000000
,
00001000
00010000
00001000
00000100
00000010
00001000
00000100
00000010
,
00000000
00000002
00000000
00000000
,
00000000
00000000
00000003
00000000
00000000
00000000
00001000
00000100
,
00010000
00000000
00001000
00100000
00000000
01000000
00000000
00010000
,
00000000
00000000
00000000
00002000
00000000
00000000
00003000
00000000
,
00010000
00000000
00001000
01000000
10000000
00000000
01000000
00001000
,
00000000
00000000
00010000
00000000
00000100
00000010
00000001
00000000
,
00000000
00000000
00001000
00000000
00000100
00010000
00000100
00010000
,
00000000
00001000
00100000
00000000
00010000
10000000
00010000
10000000
,
01000000
00010000
00001000
00000000
00000010
00000001
00000100
00000000
,
00001000
00010000
01000000
10000000
00100000
01000000
00001000
00000000
,
00010000
00000000
00001000
00010000
00000100
00000010
00000001
00000100
,
00000010
00001000
00000100
00010000
00001000
01000000
00010000
00100000
,
00000000
01000000
01000000
10000000
10000000
00000000
00010000
01000000
,
00000000
00000000
00001000
00000000
00010000
00000100
00000010
00000000
,
00000000
00000001
00001000
00001100
,
00000000
00000000
00000100
00000000
00010000
00001000
00100000
01000000
,
00000000
10000000
01000000
00100000
00010000
00000000
01000000
00000000
,
00000000
00000000
00001000
00000000
00010000
00000100
00000010
00000000
,
00000000
00000000
00000001
00000100
00001000
00000100
00000010
00001000
,
00000100
00010000
00010000
00001000
01000000
01000000
00010000
00100000
,
01000000
01000000
10000000
00100000
01000000
01000000
00010000
00100000
,
00001000
00000000
00010000
00000100
00000010
00000100
00000000
00001000
,
00000000
00000000
00000001
00000000
00000100
00000010
00001000
00000100
,
00010000
00001000
01000000
00100000
00010000
00001000
00000100
00000010
,
00000001
00000010
00001000
00000001
00000010
00000000
00001000
00000000
,
00000000
00010000
01000000
10000000
00010000
01000000
10000000
01000000
,
00000000
00000000
00100000
10000000
00010000
00000000
00100000
00000000
,
00001000
00010000
00001000
00000100
00001000
00010000
00001000
00000010
,
00000000
00000001
00000100
00000001
00000010
00000100
00001000
00000100
,
00010000
00000000
00001000
01000000
00010000
01000000
10000000
01000000
,
00000000
00100000
10000000
01000000
00010000
00001000
00010000
00000100
,
00000000
00000010
00000001
00000100
00001000
00010000
00100000
20000000
,
00000000
30000000
00000000
00000000
00000000
00000000
00000000
00000000
;

//---------------dance-double - ----------------
#NOTES:
     dance-double:
     :
     Medium:
     6:
     0.246,0.270,0.000,0.008,0.000: // measure 1
00000000
00000000
00000000
00000000
,  // measure 2
00000000
00000000
00000000
00000000
,  // measure 3
00000000
00000000
00000000
00000000
,  // measure 4
00000000
00000000
00000000
00000000
,  // measure 5
00000001
00000010
00000100
00001000
,  // measure 6
00000100
00010000
00001000
01000000
,  // measure 7
00100000
10000000
01000000
00010000
,  // measure 8
00001000
00000100
00000001
00001000
,  // measure 9
00000010
00000010
00010000
00010000
,  // measure 10
00001000
01000000
00100000
10000000
,  // measure 11
01000000
01000000
00100000
00100000
,  // measure 12
00001000
00010000
00000100
00000010
,  // measure 13
00000001
00001000
00000100
00000100
,  // measure 14
00010000
00001000
01000000
01000000
,  // measure 15
00000000
00100000
10000000
00100000
,  // measure 16
00000000
01000000
00001000
00010000
,  // measure 17
00000000
00000100
00000010
00000001
,  // measure 18
00000000
00001000
00000100
00010000
,  // measure 19
00000000
10000000
00010000
00100000
,  // measure 20
00000000
10000000
01000000
00010000
,  // measure 21
00001000
00000100
00000001
00000010
,  // measure 22
00001000
00010000
01000000
10000000
,  // measure 23
00000000
00010000
01000000
00001000
,  // measure 24
00100000
00000000
00010000
00000000
00001000
00000000
00000100
00000010
,  // measure 25
00000000
00000000
00000000
00000001
00000000
00000000
00000000
00000000
,  // measure 26
00000000
00000000
00000000
00000000
00000000
00000000
00001000
00000100
,  // measure 27
00010000
00000000
00001000
00000000
01000000
00000000
00100000
10000000
,  // measure 28
00000000
00000000
00000000
00010000
00000000
00000000
00000000
00000000
,  // measure 29
00000000
00000000
00100000
01000000
10000000
00000000
01000000
00000000
,  // measure 30
00010000
00001000
00000100
00000001
,  // measure 31
00000000
00000000
00000010
00000000
00000001
00000100
00000010
00000000
,  // measure 32
00001000
00000000
00000100
00000000
00010000
00001000
01000000
00000000
,  // measure 33
00100000
00000000
00100000
00000000
10000000
01000000
00010000
00000000
,  // measure 34
00001000
00000000
00001000
00000000
00000010
00000001
00000100
00000000
,  // measure 35
00000010
00000000
00000010
00000000
00001000
00000100
00010000
00000000
,  // measure 36
00001000
00000000
00001000
00000000
01000000
00010000
00100000
00000000
,  // measure 37
01000000
01000000
10000000
00010000
,  // measure 38
01000000
00000000
00001000
00000000
00010000
00000100
00010000
00000000
,  // measure 39
00000000
00000010
00001000
00000100
,  // measure 40
00001000
00000100
00010000
00000000
00001000
01000000
00100000
00000000
,  // measure 41
00000000
10000000
01000000
00000000
10000000
00000000
00010000
00000000
,  // measure 42
01000000
00000000
00001000
00000000
00010000
00000100
00000010
00000000
,  // measure 43
00000000
00000001
00000100
00000010
,  // measure 44
00001000
00000100
00010000
00000000
00001000
00000000
01000000
00010000
,  // measure 45
00100000
01000000
00100000
00001000
,  // measure 46
00010000
00000000
00000100
00000010
00000100
00001000
00000000
00000010
,  // measure 47
00000000
00000100
00001000
00000100
,  // measure 48
00000010
00000000
00010000
00000000
00001000
00000000
01000000
00010000
,  // measure 49
00100000
01000000
10000000
00000000
00010000
00000000
01000000
00000000
,  // measure 50
00001000
00000000
00010000
00000000
00000100
00000010
00000100
00000000
,  // measure 51
00010000
00001000
00000100
00000001
,  // measure 52
00000010
00000000
00001000
00000000
00010000
01000000
10000000
00000000
,  // measure 53
00010000
00000000
01000000
00000000
00001000
00010000
00001000
00000000
,  // measure 54
00010000
00000100
00000010
00000001
,  // measure 55
00000100
00000000
00000010
00000000
00001000
00000100
00010000
00001000
,  // measure 56
01000000
00000000
01000000
00000000
00010000
00100000
01000000
20000000
,  // measure 57
00000000
30000000
00000000
00000000
00000000
00000000
00000000
00000000
;

//---------------dance-double - ----------------
#NOTES:
     dance-double:
     :
     Easy:
     3:
     0.152,0.157,0.000,0.008,0.000: // measure 1
00000000
00000000
00000000
00000000
,  // measure 2
00000000
00000000
00000000
00000000
,  // measure 3
00000000
00000000
00000000
00000000
,  // measure 4
00000000
00000000
00000000
00000000
,  // measure 5
00010000
00000000
01000000
00000000
,  // measure 6
10000000
00100000
01000000
00000000
,  // measure 7
00001000
00000000
00010000
00000000
,  // measure 8
00000100
00000010
00000010
00000000
,  // measure 9
00000001
00000000
00001000
00000000
,  // measure 10
00010000
01000000
01000000
00000000
,  // measure 11
00010000
00000000
00100000
00000000
,  // measure 12
00001000
00010000
00000100
00000000
,  // measure 13
00001000
00001000
00000010
00000000
,  // measure 14
00000100
00000000
00001000
00001000
,  // measure 15
00010000
00000000
01000000
00000000
,  // measure 16
10000000
00000000
00010000
00000000
,  // measure 17
01000000
00000000
00001000
00000000
,  // measure 18
00010000
00010000
00000100
00000000
,  // measure 19
00001000
00000000
00000010
00000000
,  // measure 20
00000100
00000000
00000001
00000000
,  // measure 21
00001000
00001000
00000100
00000000
,  // measure 22
00010000
00010000
00001000
00000000
,  // measure 23
01000000
00000000
00010000
00000000
,  // measure 24
00100000
01000000
10000000
00010000
,  // measure 25
01000000
00000000
00000000
00000000
,  // measure 26
00010000
00000000
00001000
00000000
,  // measure 27
00000010
00000000
00000100
00000001
,  // measure 28
00000010
00000000
00000000
00000000
,  // measure 29
00000100
00000000
00010000
00000000
,  // measure 30
00001000
01000000
00010000
00000000
,  // measure 31
01000000
00000000
00100000
00000000
,  // measure 32
10000000
01000000
00010000
00000000
,  // measure 33
00001000
00000000
00000010
00000000
,  // measure 34
00000001
00000100
00000010
00000000
,  // measure 35
00000100
00000000
00000001
00000000
,  // measure 36
00000100
00001000
00010000
00000000
,  // measure 37
01000000
00000000
10000000
00000000
,  // measure 38
00000000
00010000
00010000
00010000
,  // measure 39
00000000
01000000
00000000
00001000
,  // measure 40
00000000
00010000
00000100
00000010
,  // measure 41
00000000
00000001
00000000
00001000
,  // measure 42
00000000
00000100
00010000
00001000
,  // measure 43
00000000
01000000
00000000
00010000
,  // measure 44
00000000
00100000
00000000
01000000
,  // measure 45
10000000
00000000
00010000
01000000
,  // measure 46
00001000
00000000
00010000
00000000
,  // measure 47
00000100
00000000
00000010
00000000
,  // measure 48
00000100
00001000
00000001
00000100
,  // measure 49
00001000
00000000
00010000
01000000
,  // measure 50
10000000
00000000
10000000
00100000
,  // measure 51
00010000
00000000
00001000
00000100
,  // measure 52
00000001
00000000
00000001
00000010
,  // measure 53
00000100
00000000
00001000
00000000
,  // measure 54
00000100
00000000
00010000
00001000
,  // measure 55
01000000
00000000
00100000
00000000
,  // measure 56
10000000
00000000
00010000
00000000
00100000
00000000
01000000
20000000
,  // measure 57
00000000
30000000
00000000
00000000
00000000
00000000
00000000
00000000
;
