#TITLE:亡國覚醒カタルシス;
#SUBTITLE:;
#ARTIST:ALI PROJECT;
#TITLETRANSLIT:Boukoku Kakusei Catharsis;
#SUBTITLETRANSLIT:;
#ARTISTTRANSLIT:;
#GENRE:;
#CREDIT:;
#MENUCOLOR:;
#METERTYPE:DDR;
#BANNER:Boukoku Kakusei Catharsis.png;
#BACKGROUND:Boukoku Kakusei Catharsis-bg.png;
#LYRICSPATH:;
#CDTITLE:cdtitle.png;
#MUSIC:Boukoku Kakusei Catharsis.mp3;
#OFFSET:-0.025;
#SAMPLESTART:25.839;
#SAMPLELENGTH:15.000;
#SELECTABLE:YES;
#LISTSORT:;
#BPMS:0.000=130.000;
#STOPS:;
#BGCHANGES:0.000=Boukoku Kakusei Catharsis.avi=1.000=1=1=0,
99999=-nosongbg-=1.000=0=0=0 // don't automatically add -songbackground-
;
#ATTACKS:;

//---------------dance-single - ----------------
#NOTES:
     dance-single:
     :
     Hard:
     12:
     0.526,0.553,0.196,0.286,0.177:
0000
0000
0000
0000
,
0000
0000
0000
0000
,
0000
0000
0000
0000
,
0000
0000
0000
0000
,
0001
0100
0001
0010
0001
1000
0100
0000
,
1000
0100
1000
0010
1000
0001
0100
0000
,
0020
0000
0000
0000
0130
0000
0001
0000
0010
0100
0010
0000
0001
0000
1000
0000
,
0020
0000
0000
1030
0100
0010
0001
0000
0000
1001
0000
0000
,
1000
0100
1000
0010
1000
0001
0100
0000
,
0001
0100
0001
0010
0001
1000
0100
0000
,
0020
0000
0000
0000
0130
0000
1000
0000
0010
0100
0010
0000
1000
0000
0001
0000
,
0020
0000
0000
0031
0100
0010
1000
0000
0000
1001
0000
0000
,
0001
0000
0000
0001
0100
0000
0000
0100
1000
0000
0000
1000
0100
0000
0000
0100
,
0001
0010
0001
0010
1000
0010
0001
1000
,
0010
0000
0010
0000
0100
0000
0001
0000
1000
0000
0100
0010
0100
0000
1000
0000
,
0010
0100
0010
1000
0002
0010
1003
0001
,
0010
0000
0010
0000
0100
0000
1000
0000
0001
0000
0100
0010
0100
0000
0001
1000
,
0001
0010
0100
1000
0001
1000
1001
0000
,
0010
0000
0010
0000
0100
0000
1000
0000
0001
0000
0100
0010
0100
0000
0001
0000
,
0010
0000
0100
0000
0010
0000
0001
1000
0002
0000
0000
0000
0013
0000
0100
0000
,
1000
0000
0010
0000
0100
0000
0001
0000
0110
0000
0000
0000
1001
0000
0000
0001
,
0100
0000
0010
0000
0100
0000
0001
1000
0200
0000
0000
0000
0300
0000
0000
0000
,
1000
0100
0010
0001
1000
0000
2002
0000
,
3003
0110
1010
0101
,
0001
1000
0010
0010
0000
0100
0001
0001
,
0000
1000
0100
0001
0000
0001
0100
1000
,
0001
0100
0010
0010
0000
1000
0001
0001
,
0000
0010
0100
1000
0000
0001
0100
1000
,
0000
0100
0001
0100
0000
0010
1000
0100
,
2000
0000
3010
0100
0002
0000
0013
0100
,
1100
0000
0010
0100
0101
0000
0001
1000
,
0100
0010
0001
0100
0010
0110
1001
0000
,
1000
0001
0010
0010
0000
0100
1000
1000
,
0000
0001
0100
1000
0000
1000
0100
0001
,
1000
0100
0010
0010
0000
0001
1000
1000
,
0000
0010
0100
0001
0000
1000
0100
0001
,
0000
0100
1000
0100
0000
0010
0001
0100
,
0002
0000
0013
0100
2000
0000
3010
0100
,
0101
0000
0010
0100
1100
0000
1000
0001
,
0100
0010
1000
0100
0010
0110
1001
0000
,
0101
0000
1000
0100
0020
0000
0030
0001
,
0100
0001
0010
0100
1000
0000
1100
0000
,
0101
0000
1000
0001
0200
0000
0300
0010
,
1000
0000
0000
1000
0000
0000
0100
0000
0000
0010
0000
0000
0001
0000
0000
0000
0000
0000
1000
0000
0010
0000
1000
0000
,
0001
0000
1001
0000
0001
0010
0100
1000
,
1001
0000
0110
0000
1000
0010
0100
0001
,
1000
0100
1000
0100
0010
0001
0010
0001
,
1000
0000
0001
0100
0001
0000
1000
0100
1000
0000
0001
0010
0001
0000
1000
0010
,
1000
0000
0010
0000
0010
0000
0100
0000
0001
0000
0010
0100
0010
0000
0100
1000
,
0100
1000
0001
0100
0020
1000
0130
0001
,
0010
0000
0100
0000
0100
0000
1000
0000
0001
0000
0100
0001
1000
0000
0100
1000
,
0001
0100
0010
0100
0002
1000
1000
1003
,
0001
0000
0010
0000
0010
0000
0100
0000
1000
0000
0010
0100
0010
0000
0100
0001
,
0100
0001
1000
0100
0020
0000
0031
1000
,
0001
0000
0100
0000
0100
0000
0010
0000
0110
0000
0000
0000
1001
0000
0000
0100
,
0010
0000
0001
0000
0010
0000
0100
2000
0002
0000
0000
0000
3003
0000
0000
0000
,
0001
0000
0100
0000
1000
0000
0100
0000
0001
0010
0000
0000
0100
0000
1000
0000
,
0001
0100
0001
0000
1000
0100
1000
0000
0100
0010
0000
0000
1001
0000
0000
0000
,
1000
0000
0100
0000
0001
0000
0100
0000
1000
0010
0000
0000
0100
0000
0001
0000
,
1000
0000
0001
0010
0100
0000
1000
0010
0200
0000
0000
0000
0000
0000
0000
0000
,
0320
0000
2030
0000
,
3002
0000
0023
0000
,
0230
0000
2300
0000
,
3002
0000
0000
0000
0000
0000
0000
0000
0203
0000
0000
0010
0000
0000
0000
0000
,
0320
0000
0000
1000
0000
0000
0000
0000
2030
0000
0000
0100
0000
0000
0000
0000
,
3200
0000
0000
0010
0000
0000
0000
0000
0320
0000
0000
0001
0000
0000
0000
0000
,
0032
0000
0000
1000
0000
0000
0000
0000
2003
0000
0000
0001
0000
0000
0000
0000
,
3002
0000
0000
0100
0000
0000
0000
0000
0203
0000
0000
0020
0000
0000
0000
0000
,
0000
0000
0000
0000
,
0000
0000
0000
0000
,
0330
0000
0000
0000
;

//---------------dance-single - ----------------
#NOTES:
     dance-single:
     :
     Medium:
     8:
     0.372,0.447,0.000,0.338,0.000:
0000
0000
0000
0000
,
0000
0000
0000
0000
,
0000
0000
0000
0000
,
0000
0000
0000
0000
,
1000
0100
1000
0000
1000
0100
1000
0000
,
0001
0100
0001
0000
0001
0100
0001
0000
,
1000
0000
0100
0010
0100
0000
1000
0000
,
0001
0000
0100
0010
0200
0000
0300
0000
,
0001
0010
0001
0000
0001
0010
0001
0000
,
1000
0010
1000
0000
1000
0010
1000
0000
,
0001
0000
1000
0100
1000
0000
0010
0000
,
0100
0000
0001
0010
0002
0000
0003
0000
,
2000
3200
0320
0032
,
1003
0010
0100
0001
1000
0010
0100
0001
,
1000
0000
1000
0000
0001
0100
0001
0000
,
1000
0100
0010
0001
2000
0000
3001
0000
,
1000
0000
0001
0000
1000
0100
1000
0000
,
0001
0100
0001
0000
2000
0000
3000
0000
,
0100
0000
0010
0000
0001
0100
0001
0000
,
1000
0100
1000
0000
0010
0000
0100
0000
,
0001
0010
0001
0000
0100
0000
0010
0000
,
1000
0100
1000
0000
0020
0000
0030
0000
,
1000
0100
0010
0001
0100
0000
0001
0000
,
0000
1000
0100
0010
,
0001
0100
0001
0100
,
0010
1000
0100
0000
0010
0001
0100
0000
,
0010
1000
0010
1000
,
0100
0010
0001
0000
0100
0010
1000
0000
,
0001
0010
0001
0010
,
0100
1000
0010
0000
0100
0001
0010
0000
,
0200
1300
0020
0031
,
0001
0100
0010
0000
2000
0000
3100
0000
,
1000
0001
0100
0000
0001
1000
0100
0000
,
0020
0031
0200
1300
,
0100
1000
0001
0000
0100
0001
1000
0000
,
0020
1030
0200
0301
,
1000
0100
1000
0000
0001
0100
0001
0010
,
0001
1000
0100
0010
,
0001
0100
1000
0010
,
0002
0023
2030
3200
,
0301
0000
1000
0100
0100
0000
0010
0000
,
0100
1000
0001
0100
0010
0000
0100
0000
,
0001
0000
1000
0100
0100
0000
0010
0000
,
0100
1000
0001
0100
0010
0000
0200
0000
,
0310
0100
0001
0020
,
0130
1000
0010
0200
,
0320
2030
3002
0203
,
0310
1000
0001
0100
0010
1000
0001
0100
,
0010
1000
0100
0000
0010
0000
0100
0000
,
1000
0010
0100
0001
,
0010
0001
0100
0000
0010
0000
1000
0000
,
0100
0010
0001
0100
0020
0000
0030
0000
,
0100
0001
0010
0000
0100
0000
1000
0000
,
0010
0000
0100
0001
0100
0000
0010
1000
,
0010
0000
0100
0000
0001
0000
0010
0100
,
1000
0010
1000
0100
,
0010
0001
0010
0000
0100
1000
0100
0000
,
0001
0100
0010
1000
0001
0010
0100
0000
,
1000
0100
0010
0000
0001
0100
0010
0000
,
1000
0001
1000
0001
0200
0000
0300
0000
,
0020
0030
2000
3000
,
0002
0003
0200
0300
,
0020
0030
2000
3000
,
0002
0003
0020
0000
,
0230
0000
2300
0000
,
3002
0000
0203
0000
,
2300
0000
3020
0000
,
0032
0000
2000
0000
,
0000
0000
0000
0000
,
0000
0000
0000
0000
,
3003
0000
0000
0000
;

//---------------dance-single - ----------------
#NOTES:
     dance-single:
     :
     Easy:
     6:
     0.299,0.342,0.023,0.203,0.000:
0000
0000
0000
0000
,
0000
0000
0000
0000
,
0000
0000
0000
0000
,
0000
0000
0000
0000
,
0001
0000
0100
0000
0010
0100
0010
0000
,
1000
0000
0100
0000
0010
0100
0010
0000
,
0001
0010
0100
1000
,
0001
0000
0100
0010
0020
0000
0030
0000
,
1000
0000
0100
0000
0010
0001
0010
0000
,
0001
0000
0100
0000
0010
1000
0010
0000
,
0100
0001
1000
0010
,
1000
0000
0100
0010
0020
0000
0030
0000
,
0001
0001
0100
0100
,
0010
0000
0010
0000
1000
0100
1000
0000
,
0001
0001
0100
0010
,
1000
0000
1000
0000
0100
0010
0100
0000
,
1000
1000
0010
0100
,
0001
0010
0001
0000
2000
0000
3000
0000
,
0001
0001
0100
0010
,
1000
0000
1000
0100
0010
0000
0001
0000
,
0100
0100
0001
0010
,
0100
0000
0100
1000
0002
0000
0003
0000
,
0110
0000
0000
1001
,
0000
0110
0100
0100
,
0001
0000
0001
0000
1000
0100
1000
0000
,
0001
1000
0100
0100
,
1000
0000
1000
0000
0001
0100
0001
0000
,
1000
0001
0100
0100
,
0010
0000
0010
0000
1000
0100
1000
0000
,
0010
0100
0001
0010
,
0200
0300
2000
3000
,
0002
0000
0003
1000
,
0001
0000
0001
0000
0010
0100
0010
0000
,
0001
1000
0100
0100
,
1000
0000
1000
0000
0010
0100
0010
0000
,
1000
0100
0010
0010
,
0001
0100
0001
0000
1000
0000
0100
0000
,
0020
0030
0002
0003
,
2000
3000
0020
0030
,
0200
0000
0000
0300
,
0001
0000
0001
1000
0001
0000
1000
0000
,
0010
0010
0100
0010
0020
0000
0030
0000
,
0100
0000
0001
1000
0001
0000
0010
0000
,
0100
0100
0010
0100
0100
0000
2000
0000
,
3001
0010
0100
2000
,
3001
0010
0100
2000
,
3001
0001
1000
1000
,
0010
0000
0100
0000
0001
0010
0100
0000
,
1000
1000
0100
0010
,
0001
0000
0001
0000
0100
0010
0100
0000
,
0001
0001
0010
0100
,
1000
0010
1000
0000
0002
0000
0003
0000
,
1000
1000
0100
0010
,
0001
0000
0001
0100
0010
0000
1000
0000
,
0100
0100
1000
0010
,
0100
0000
0100
0001
2000
0000
3000
0000
,
0010
0100
0001
0100
,
0010
1000
0100
0000
0010
0000
0100
0000
,
1000
0001
0100
0010
,
1000
0000
0001
0010
0100
0000
0000
0000
,
1000
0000
0001
0000
,
0100
0000
0010
0000
,
1000
0000
0001
0000
,
0010
0000
0200
0300
,
2000
3000
0002
0003
,
0200
0300
0020
0030
,
2000
3000
0002
0003
,
0200
0300
0020
0000
,
0000
0000
0000
0000
,
0000
0000
0000
0000
,
0030
0000
0000
0000
;

//---------------dance-single - ----------------
#NOTES:
     dance-single:
     :
     Beginner:
     1:
     0.092,0.132,0.000,0.008,0.000:
0000
0000
0000
0000
,
0000
0000
0000
0000
,
0000
0000
0000
0000
,
0000
0000
0000
0000
,
1000
0000
1000
0000
,
0001
0000
0001
0000
,
1000
0000
0000
0000
,
0001
0000
0000
0000
,
0100
0000
0100
0000
,
0010
0000
0010
0000
,
0100
0000
0000
0000
,
0010
0000
0000
0000
,
1000
0000
0000
0000
,
0100
0000
0100
0000
,
0100
0000
0000
0000
,
0010
0000
0000
0000
,
0001
0000
0000
0000
,
1000
0000
0000
0000
,
0010
0000
0000
0000
,
0100
0000
0000
0000
,
0001
0000
0000
0000
,
1000
0000
0000
0000
,
0100
0000
0000
0100
,
0000
0000
0100
0000
,
0100
0000
0000
0000
,
0001
0000
0001
0000
,
0001
0000
0000
0000
,
1000
0000
1000
0000
,
1000
0000
0000
0000
,
0100
0000
0100
0000
,
0100
0000
0000
0000
,
0010
0000
0010
0000
,
0010
0000
0000
0000
,
0001
0000
0001
0000
,
0001
0000
0000
0000
,
0100
0000
0100
0000
,
0100
0000
0000
0000
,
1000
0000
1000
0000
,
1000
0000
0000
0000
,
0100
0000
0100
0000
,
0100
0000
0000
0000
,
0010
0000
0000
0000
,
0100
0000
0000
0000
,
0001
0000
0000
0000
,
1000
0000
0000
0000
,
0100
0000
0000
0000
,
1000
0000
0000
0000
,
0001
0000
0001
0000
,
0001
0000
0000
0000
,
1000
0000
1000
0000
,
1000
0000
0000
0000
,
0100
0000
0100
0000
,
0100
0000
0000
0000
,
0010
0000
0010
0000
,
0010
0000
0000
0000
,
0001
0000
0001
0000
,
0001
0000
0000
0000
,
0100
0000
0100
0000
,
0100
0000
0000
0000
,
0010
0000
0010
0000
,
0000
0000
0100
0000
,
0000
0000
0001
0000
,
0000
0000
1000
0000
,
0000
0000
0100
0000
,
0000
0000
0010
0000
,
0000
0000
0001
0000
,
0000
0000
1000
0000
,
0000
0000
0200
0000
,
0000
0000
0000
0000
,
0000
0000
0000
0000
,
0300
0000
0000
0000
;

//---------------dance-double - ----------------
#NOTES:
     dance-double:
     :
     Hard:
     12:
     0.510,0.553,0.045,0.316,0.207:
00000000
00000000
00000000
00000000
,
00000000
00000000
00000000
00000000
,
00000000
00000000
00000000
00000000
,
00000000
00000000
00000000
00000000
,
00100000
00010000
01000000
00100000
10000000
01000000
00001000
00000000
,
00000100
00001000
00000010
00000100
00000001
00000010
00010000
00000000
,
00100000
00000000
00000000
00000000
00001000
00000000
00010000
00000000
00000100
00000010
00000100
00000000
00010000
00000000
00001000
00000000
,
01000000
00000000
00000000
00100000
10000000
00010000
00200000
00000000
00000000
00300000
00000000
00000000
,
00100000
00010000
01000000
00100000
10000000
01000000
00001000
00000000
,
00000100
00001000
00000010
00000100
00000001
00000010
00010000
00000000
,
00100000
00000000
00000000
00000000
00001000
00000000
00010000
00000000
00000010
00000100
00000010
00000000
00010000
00000000
00001000
00000000
,
01000000
00000000
00000000
00001000
00010000
00000100
00002000
00000000
00000000
00003010
00000000
00000000
,
00000010
00000000
00000000
00000010
00001000
00000000
00000000
00001000
00000100
00000000
00000000
00000100
00010000
00000000
00000000
00010000
,
00001000
00001000
01000000
01000000
00010000
00010000
00100000
00100000
,
00001000
00000000
00010000
00000000
00000100
00000000
00000010
00000000
00001000
00000000
00000010
00000001
00001000
00000000
00000010
00000000
,
00000100
00001000
00010000
00100000
20000000
01000000
30010000
10000000
,
00100000
00000000
10000000
00000000
01000000
00000000
00010000
00000000
01000000
00000000
00100000
00001000
00010000
00000000
00001000
00010000
,
00000100
00001000
00000010
00000100
00001000
00010000
00100000
00100000
,
10000000
00000000
01000000
00000000
00010000
00000000
01000000
00000000
00100000
00000000
00001000
01000000
00100000
00000000
01000000
00000000
,
00001000
00000000
00100000
00000000
00001000
00000000
00010000
00000100
00002000
00000000
00000000
00000000
00003010
00000000
00000100
00000000
,
00001000
00000000
00000100
00000000
00000001
00000000
00001000
00000000
00000200
00000000
00000000
00000000
00010300
00000000
00000000
00001000
,
00010000
00000000
01000000
00000000
10000000
00000000
00100000
01000000
00020000
00000000
00000000
00000000
00000000
00000000
00000000
00000000
,
10030000
01000000
00010000
00001000
00000010
00000000
00000022
00000000
,
00000033
00000101
00001100
00011000
,
00001000
00010000
01000000
01000000
00000000
00010000
00001000
00000100
,
00000000
00001000
00010000
00100000
00000000
00010000
00001000
00000010
,
00000000
00001000
00010000
01000000
00000000
10000000
00100000
00010000
,
00000000
00001000
00000010
00000001
00000000
00000100
00001000
00010000
,
00000000
00001000
00010000
00001000
00000000
00010000
01000000
10000000
,
00200000
00000000
10300000
01000000
00200000
00000000
00301000
00010000
,
00000200
00000000
00001300
00000001
00000020
00000000
00010030
00000010
,
00000001
00000100
00010000
00000100
00000010
00001000
00000100
00000000
,
00010000
00001000
00000100
00000100
00000000
00001000
00010000
01000000
,
00000000
00010000
00001000
00000010
00000000
00001000
00010000
00100000
,
00000000
00010000
00001000
00000100
00000000
00000001
00000010
00001000
,
00000000
00010000
00100000
10000000
00000000
01000000
00010000
00001000
,
00000000
00010000
00001000
00010000
00000000
00001000
00000100
00000001
,
00000020
00000000
00000031
00000100
00000020
00000000
00010030
00001000
,
02000000
00000000
03010000
10000000
00200000
00000000
00310000
00100000
,
10000000
01000000
10000000
01000000
00100000
01000000
00100000
00001000
00100000
00001000
00010000
00001000
,
00010000
00000000
00001000
00000100
00000110
00000000
00000010
00001000
,
00000100
00000100
00010000
00001000
00001000
00000000
01000000
00000000
,
00010000
00000000
00100000
01000000
01100000
00000000
00100000
00001000
,
00010000
00000000
00000000
00100000
00000000
00000000
10000000
00000000
00000000
01000000
00000000
00000000
00010000
00000000
00000000
00000000
00000000
00000000
00001000
00000000
00010000
00000000
00000100
00000000
,
00002000
00000000
00003020
00000000
00000130
00000001
00000010
00000100
,
00020000
00000000
00032000
00000000
01003000
00010000
00100000
01000000
,
10000000
00000000
00000000
10000000
01000000
00000000
00000000
01000000
00010000
00000000
00000000
00010000
00001000
00000000
00000000
00001000
,
00000100
00000100
00000010
00000010
00010000
00010000
00001000
00001000
,
00010000
00000000
00001000
00000000
01000000
00000000
00100000
00000000
00010000
00000000
00100000
10000000
00010000
00000000
00100000
00000000
,
01000000
00010000
00001000
00000010
00000002
00000100
00001003
00000001
,
00000010
00000000
00000001
00000000
00000100
00000000
00001000
00000000
00000100
00000000
00000010
00010000
00001000
00000000
00010000
00001000
,
01000000
00010000
00100000
01000000
00010000
00001000
00000010
00000010
,
00000001
00000000
00000100
00000000
00001000
00000000
00000100
00000000
00000010
00000000
00010000
00000100
00000010
00000000
00000100
00000000
,
00010000
00000000
00000010
00000000
00010000
00000000
00001000
01000000
00020000
00000000
00000000
00000000
00130000
00000000
01000000
00000000
,
00010000
00000000
01000000
00000000
10000000
00000000
00010000
00000000
02000000
00000000
00000000
00000000
03001000
00000000
00000000
00010000
,
00001000
00000000
00000100
00000000
00000001
00000000
00000010
00000100
00002000
00000000
00000000
00000000
00000000
00000000
00000000
00000000
,
00003001
00000000
00001000
00000000
00010000
00000000
10000000
00000000
01000000
00100000
00000000
00000000
00010000
00000000
01000000
00000000
,
00001000
00010000
00001000
00000000
00010000
00000100
00010000
00000000
00000100
00001000
00000000
00000000
00000010
00000000
00000000
00000000
,
00001000
00000000
00000001
00000000
00001000
00000000
00000100
00000000
00010000
00001000
00000000
00000000
01000000
00000000
00010000
00000000
,
00100000
00000000
01000000
10000000
01000000
00100000
01000000
10000000
02000000
00000000
00000000
00000000
00000000
00000000
00000000
00000000
,
03200000
00000000
00320000
00000000
,
00032000
00000000
00003200
00000000
,
00000320
00000000
00000032
00000000
,
00000203
00000000
00000000
00000000
00000000
00000000
00000000
00000000
00000320
00000000
00000000
00001000
00000000
00000000
00000000
00000000
,
00002030
00000000
00000000
00010000
00000000
00000000
00000000
00000000
00023000
00000000
00000000
01000000
00000000
00000000
00000000
00000000
,
02030000
00000000
00000000
00100000
00000000
00000000
00000000
00000000
03200000
00000000
00000000
10000000
00000000
00000000
00000000
00000000
,
20300000
00000000
00000000
01000000
00000000
00000000
00000000
00000000
32000000
00000000
00000000
00100000
00000000
00000000
00000000
00000000
,
03200000
00000000
00000000
00010000
00000000
00000000
00000000
00000000
00320000
00000000
00000000
00002000
00000000
00000000
00000000
00000000
,
00000000
00000000
00000000
00000000
,
00000000
00000000
00000000
00000000
,
00033000
00000000
00000000
00000000
;

//---------------dance-double - ----------------
#NOTES:
     dance-double:
     :
     Medium:
     9:
     0.390,0.395,0.008,0.180,0.000:
00000000
00000000
00000000
00000000
,
00000000
00000000
00000000
00000000
,
00000000
00000000
00000000
00000000
,
00000000
00000000
00000000
00000000
,
00010000
00000100
00001000
00000000
00000100
00010000
00001000
00000000
,
01000000
00001000
00010000
00000000
00001000
01000000
00010000
00000000
,
10000000
00000000
01000000
00010000
00001000
00010000
01000000
10000000
,
00100000
00000000
00010000
00001000
00000100
00000000
00000001
00000000
,
00000010
00000100
00001000
00000000
00000100
00010000
00001000
00000000
,
00010000
00001000
01000000
00000000
00100000
01000000
00010000
00000000
,
10000000
00000000
01000000
00010000
00001000
00010000
00001000
00000100
,
00000010
00000000
00000100
00000001
00000010
00000000
00000100
00000000
,
00001000
00000100
00001000
00000000
00000100
00010000
00000100
00000000
,
00010000
00001000
00100000
00010000
01000000
00100000
10000000
01000000
,
00100000
00010000
01000000
00000000
00010000
00000000
00100000
00001000
,
00010000
00001000
00000100
00000000
00000010
00000000
00001000
00000000
,
00000100
00000010
00000001
00000000
00000010
00000000
00000100
00010000
,
00001000
01000000
00010000
00100000
02000000
00000000
03000000
00000000
,
10000000
00100000
01000000
00000000
00010000
00000000
00100000
00001000
,
00010000
00001000
00000100
00000000
00000010
00000000
00001000
00000100
,
00000001
00000100
00000010
00000000
00000001
00000000
00000100
00000000
,
00001000
00010000
00100000
10000000
00020000
00000000
00030000
00000000
,
10000000
01000000
10000000
00100000
01000000
00000000
00010000
00000000
,
00000000
00100000
00001000
00011000
,
00010000
00000100
00001000
00000100
00000000
00001000
00000010
00001000
,
00000000
00000010
00000100
00000010
00000000
00000100
00000001
00000100
,
00000000
00000001
00000010
00000001
00000000
00000010
00000100
00000010
,
00000000
00000100
00010000
00000100
00000000
00010000
00001000
00010000
,
00000000
00001000
01000000
00001000
00000000
01000000
00010000
01000000
,
00100000
00000000
01000000
00100000
10000000
00000000
00100000
10000000
,
01000000
00000000
10000000
01000000
00100000
00000000
01000000
00100000
,
00002000
00000000
00000000
00003000
00000000
00001000
00010000
00000000
,
00001000
01000000
00010000
01000000
00000000
00010000
00100000
00010000
,
00000000
00100000
01000000
00100000
00000000
01000000
10000000
01000000
,
00000000
10000000
00100000
10000000
00000000
00100000
01000000
00100000
,
00000000
01000000
00001000
01000000
00000000
00001000
00010000
00001000
,
00000000
00010000
00000100
00010000
00000000
00000100
00001000
00000100
,
00000010
00000000
00000100
00000010
00000001
00000000
00000010
00000001
,
00000100
00000000
00000001
00000100
00000010
00000000
00000100
00000010
,
00020000
00000000
00000000
00030000
,
00001000
00000000
01000000
00100000
01000000
00000000
00001000
00010000
,
00001000
00000100
00000010
00000100
00000001
00000000
00000010
00000000
,
00000001
00000000
00000100
00000010
00001000
00000000
00000100
00010000
,
00001000
01000000
00010000
10000000
01000000
00000000
00200000
00000000
,
01300000
00000000
10000000
00000000
00010000
01000000
00001000
00010000
,
00000100
00000000
00010000
00000000
00000100
00010000
00001000
01000000
,
00010000
00000000
10000000
01000000
00100000
00000000
00010000
00000000
,
01000000
00001000
00010000
00000100
00001000
00000100
00010000
00001000
,
00100000
00010000
01000000
00000000
00010000
00000000
00100000
00001000
,
00010000
00001000
00000100
00000000
00000010
00000000
00001000
00000000
,
00000100
00000010
00000001
00000000
00000010
00000000
00000100
00010000
,
00001000
01000000
00010000
00100000
02000000
00000000
03000000
00000000
,
10000000
00100000
01000000
00000000
00010000
00000000
00100000
00001000
,
00010000
00001000
00000100
00000000
00000010
00000000
00001000
00000100
,
00000001
00000100
00000010
00000000
00000001
00000000
00000100
00000000
,
00001000
00010000
00100000
10000000
00020000
00000000
00030000
00000000
,
10000000
01000000
10000000
00000000
00010000
01000000
00010000
00000000
,
00100000
00001000
00010000
00000100
00001000
00000010
00000100
00000000
,
00000001
00000010
00000100
00000000
00001000
00000010
00000100
00000000
,
00000001
00000100
00001000
00010000
00200000
00000000
00300000
00000000
,
20000000
30000000
02000000
03000000
,
00020000
00030000
00002000
00003000
,
00000020
00000030
00000002
00000003
,
00000200
00000300
00002000
00000000
,
00023000
00000000
00230000
00000000
,
20300000
00000000
32000000
00000000
,
03020000
00000000
00032000
00000000
,
00003020
00000000
00000032
00000000
,
00000000
00000000
00000000
00000000
,
00000000
00000000
00000000
00000000
,
00000003
00000000
00000000
00000000
;

//---------------dance-double - ----------------
#NOTES:
     dance-double:
     :
     Easy:
     6:
     0.272,0.290,0.000,0.098,0.000: // measure 1
00000000
00000000
00000000
00000000
,  // measure 2
00000000
00000000
00000000
00000000
,  // measure 3
00000000
00000000
00000000
00000000
,  // measure 4
00000000
00000000
00000000
00000000
,  // measure 5
10000000
00000000
01000000
00000000
00010000
00001000
00010000
00000000
,  // measure 6
01000000
00000000
10000000
00000000
00010000
01000000
00010000
00000000
,  // measure 7
00100000
00001000
00010000
00000100
,  // measure 8
00001000
00000020
00000130
00000000
,  // measure 9
00000001
00000000
00000100
00000000
00001000
00010000
00001000
00000000
,  // measure 10
00000100
00000010
00001000
00000100
,  // measure 11
00010000
00001000
00100000
00010000
,  // measure 12
01000000
00200000
10300000
00000000
,  // measure 13
01000000
01000000
00100000
00100000
,  // measure 14
00001000
00001000
00010000
00010000
,  // measure 15
00000100
00001000
00000010
00000000
00000100
00000000
00000001
00000000
,  // measure 16
00000010
00000001
00000200
00001300
,  // measure 17
00010000
00100000
10000000
00010000
,  // measure 18
10000000
01000000
00100000
00000000
02000000
00000000
03000000
00000000
,  // measure 19
10000000
01000000
00010000
00001000
,  // measure 20
00010000
00000000
01000000
00000000
10000000
00000000
10000000
00010000
,  // measure 21
10000000
01000000
00010000
00001000
,  // measure 22
00000100
00000001
00000100
00000000
00000002
00000000
00000003
00000000
,  // measure 23
00000010
00000001
00000100
00001000
,  // measure 24
00000000
00010000
01000000
10000000
,  // measure 25
00100000
10000000
00010000
01000000
,  // measure 26
00001000
00010000
00000100
00001000
,  // measure 27
00000001
00000100
00000010
00001000
,  // measure 28
00000100
00010000
00001000
01000000
,  // measure 29
00010000
00100000
01000000
10000000
,  // measure 30
00010000
01000000
00001000
00010000
,  // measure 31
00000100
00001000
00000010
00000100
,  // measure 32
00000001
00000001
00000001
00000010
,  // measure 33
00000100
00001000
00000100
00010000
,  // measure 34
00001000
01000000
00010000
01000000
,  // measure 35
00100000
10000000
01000000
00100000
,  // measure 36
00010000
01000000
00001000
00010000
,  // measure 37
00000100
00001000
00000001
00000100
,  // measure 38
00001000
00010000
01000000
10000000
,  // measure 39
00010000
10000000
01000000
00010000
,  // measure 40
00001000
00000100
00000001
00000000
,  // measure 41
00000010
00000000
00000001
00000100
00000001
00000000
00001000
00000000
,  // measure 42
00000100
00010000
00001000
01000000
,  // measure 43
00010000
00000000
10000000
01000000
10000000
00000000
00100000
00000000
,  // measure 44
10000000
01000000
00010000
00001000
,  // measure 45
00000200
00000000
00000300
00000001
,  // measure 46
00000002
00000000
00000003
00000010
,  // measure 47
00000020
00000030
00000200
00000300
,  // measure 48
00010000
00010000
00001000
00001000
,  // measure 49
01000000
00010000
00100000
00000000
01000000
00000000
10000000
00000000
,  // measure 50
00100000
10000000
02000000
03010000
,  // measure 51
00001000
00000010
00000001
00001000
,  // measure 52
00000001
00000100
00000010
00000000
00000200
00000000
00000300
00000000
,  // measure 53
00000001
00000100
00001000
00010000
,  // measure 54
00001000
00000000
00000100
00000000
00000001
00000000
00000001
00001000
,  // measure 55
00000001
00000100
00001000
00010000
,  // measure 56
01000000
10000000
01000000
00000000
20000000
00000000
30000000
00000000
,  // measure 57
00100000
01000000
00100000
00000000
01000000
00000000
00010000
00000000
,  // measure 58
00100000
00001000
00010000
00000010
,  // measure 59
00000100
00000010
00000100
00000000
00000010
00000000
00001000
00000000
,  // measure 60
00000100
00010000
00001000
00000000
,  // measure 61
00010000
00000000
01000000
00000000
,  // measure 62
10000000
00000000
00100000
00000000
,  // measure 63
10000000
00000000
01000000
00000000
,  // measure 64
00010000
00000000
00001000
00000000
,  // measure 65
00000100
00000000
00000001
00000000
,  // measure 66
00000010
00000000
00000001
00000000
,  // measure 67
00000100
00000000
00001000
00000000
,  // measure 68
00010000
00000000
02000000
00000000
,  // measure 69
00000000
00000000
00000000
00000000
,  // measure 70
00000000
00000000
00000000
00000000
,  // measure 71
03000000
00000000
00000000
00000000
;
