#TITLE:新たな幕開け;
#SUBTITLE:;
#ARTIST:新井大樹;
#TITLETRANSLIT:Arata na makuake;
#SUBTITLETRANSLIT:;
#ARTISTTRANSLIT:Hiroki Arai;
#GENRE:;
#CREDIT:;
#MENUCOLOR:;
#METERTYPE:DDR;
#BANNER:Arata na makuake.png;
#BACKGROUND:Arata na makuake-bg.png;
#LYRICSPATH:;
#CDTITLE:cdtitle.png;
#MUSIC:Arata na makuake.mp3;
#OFFSET:-1.625;
#SAMPLESTART:68.805;
#SAMPLELENGTH:15.000;
#SELECTABLE:YES;
#LISTSORT:;
#BPMS:0.000=150.000;
#STOPS:;
#BGCHANGES:;
#ATTACKS:;

//---------------dance-single - ----------------
#NOTES:
     dance-single:
     :
     Hard:
     14:
     0.641,0.669,0.300,0.260,0.320:
0000
0000
0000
0000
,
0000
0000
0000
0000
,
0000
0000
0000
0000
,
0000
0000
0000
0000
,
0001
0100
0000
0000
0010
0000
0100
0000
0001
0000
0000
0000
0010
0000
0100
0000
,
1100
0000
0000
0000
0010
0000
0100
0000
1000
0000
0100
0000
0001
1000
0001
1000
,
0100
0000
1000
0010
0100
0000
0001
0010
,
0011
0000
0000
0000
0100
0000
0010
0000
0001
0000
0010
0000
1000
0001
1000
0001
,
0020
0000
0000
0000
0130
1000
0000
1000
0001
0000
0100
0000
0010
1000
0010
0000
,
1000
0000
0010
0000
0100
0001
0000
0001
1000
0000
0100
0000
0010
0001
0010
0001
,
0200
0000
0000
0000
0310
1000
0000
1000
0001
0000
0010
0000
0100
1000
0100
0000
,
1000
0000
0100
0000
0010
0001
0000
0001
1000
0000
0010
0000
0100
0001
0100
0000
,
0020
0000
0000
0000
0130
0001
0000
0001
1000
0000
0100
0000
0010
0001
0010
0000
,
0001
0000
0010
0000
0100
1000
0000
1000
0001
0000
0100
0000
0010
1000
0010
1000
,
0200
0000
0000
0000
0310
0001
0000
0001
1000
0000
0010
0000
0100
0001
0100
0000
,
0001
0000
0100
0000
0010
1000
0000
1000
0001
0000
0010
0000
0100
1000
0100
0000
,
0020
0000
0000
0000
,
0030
0000
0000
0000
0000
1000
0010
0001
,
0100
0000
0010
0100
0000
0001
0000
0110
,
0000
1000
0100
0010
0000
0001
0100
1000
,
0100
0000
0010
1000
0000
0001
0000
0110
,
0000
1000
0001
0010
0000
0100
1000
0100
,
0001
0000
0100
1000
0000
0010
0000
1001
,
0000
0100
0001
1000
0000
0100
0010
0100
,
0001
0000
0100
1000
0000
0010
0000
1001
,
0000
0001
0000
1000
0100
0000
0010
0000
0110
0000
0000
0000
1001
0000
0000
0000
,
1000
0100
1000
0000
0001
0000
1000
0100
1000
0000
0010
0000
0100
0000
0001
0000
,
0000
1000
0010
0100
0110
0000
1001
0000
,
0001
0100
0001
0000
1000
0000
0001
0100
0001
0000
0010
0000
0100
0000
1000
0000
,
0000
0001
0100
0020
0000
0000
2030
0000
,
3002
0000
0013
0200
0000
2300
0000
3002
,
0000
0103
0010
1000
0000
0001
0100
2000
,
0100
3100
0010
2000
0000
3200
0000
0320
,
0000
0031
0100
0001
1001
0100
0001
1000
,
1100
0000
0010
0011
0000
0001
0000
1001
,
0000
1000
0010
0100
0000
0100
0001
1000
,
1100
0000
0001
0101
0000
0010
0000
1001
,
0000
0100
0001
1000
0000
0100
0010
0100
,
1100
0000
0001
0101
0000
0010
0000
1001
,
0000
0100
0010
1000
0000
0100
0010
0100
,
1100
0000
0010
0011
0000
1001
0000
0110
,
0000
0010
0000
0100
0010
0000
1000
0000
1100
0000
0000
0000
0011
0000
0000
0000
,
1000
0100
0010
0100
1000
0000
0001
0100
0010
0000
0100
0000
0001
0000
1001
0000
,
0000
0010
0100
1000
1100
0000
0101
0000
,
0001
0100
0010
0100
0001
0000
1000
0100
0010
0000
0100
0000
1000
0000
1001
0000
,
0000
0010
0100
2000
0000
0000
3200
0000
,
0302
0000
0013
0200
0000
2300
0000
3002
,
0000
0013
0100
0001
0000
0100
1000
0001
,
0100
0100
1000
0020
0000
0230
0000
0301
,
0000
1000
0001
1000
0011
0000
1100
0000
,
0001
0100
0010
1000
0001
0000
1000
0100
0010
0000
0001
0000
1000
0000
1001
0000
,
0000
0010
0100
1000
1200
0000
0001
0000
,
1300
0010
0100
0001
1000
0000
0001
0010
0100
0000
1000
0000
0010
0000
0110
0000
,
0000
0100
0001
0201
0000
0000
1000
0000
,
0320
0000
1030
0200
0000
0320
0000
2030
,
0000
3010
0001
0100
0000
0010
1000
0001
,
0100
0100
1000
0020
0000
0001
0000
2030
,
0000
0100
0100
0000
3001
0000
1001
0000
,
0001
0000
0000
0010
0000
0000
0100
0000
0000
1000
0000
0000
0001
0000
0100
0000
,
0010
0000
0000
1000
0000
0000
0010
0000
0000
0100
0000
0000
0001
0000
1000
0000
,
0100
0000
0000
0001
0000
0000
0100
0000
0000
1000
0000
0000
0010
0000
0100
0000
,
1000
0000
0000
0100
0000
0000
0010
0000
0000
0001
0000
0000
0010
0000
1000
0000
,
0001
0000
0000
0010
0000
0000
0100
0000
0000
1000
0000
0000
0001
0000
0100
0000
,
0010
0000
0000
0001
0000
0000
0010
0000
0000
1000
0000
0000
0100
0000
0010
0000
,
0001
0000
0000
0010
0000
0000
0010
0000
0000
1000
0000
0000
0100
0000
0100
0000
,
0001
0000
0000
0100
0000
0000
0100
0000
0000
1000
0000
0000
0010
0000
0010
0000
,
0001
0000
0100
0000
0001
0000
0100
0000
1000
0000
0100
0000
0001
0100
0001
0000
,
0010
0000
1000
0000
0010
0000
1000
0000
0010
0000
0001
0000
0100
0001
0100
0000
,
0010
0000
1000
0000
0010
0000
1000
0000
0001
0000
0010
0000
0001
0010
0001
0000
,
0100
0000
0001
0000
0100
0000
1000
0000
0100
0000
0001
0000
0010
0001
0010
0000
,
0100
0000
0100
0000
0001
0000
0100
0000
0010
0000
1000
0000
0001
0010
0001
0010
,
0100
0000
0100
0000
1000
0000
0100
0000
0010
0000
0001
0000
0010
1000
0010
1000
,
0100
0000
0100
0000
1000
0000
0100
0000
0010
0000
0100
0000
0001
0010
0001
0010
,
0100
0000
0100
0000
0001
0000
0010
0000
1000
0000
0001
0000
0100
1000
0001
0100
,
0020
0000
0000
0000
0000
0000
0000
0000
0000
0000
0000
0000
0000
0000
0000
0030
;

//---------------dance-double - ----------------
#NOTES:
     dance-double:
     :
     Hard:
     14:
     0.619,0.730,0.073,0.170,0.434:
00000000
00000000
00000000
00000000
,
00000000
00000000
00000000
00000000
,
00000000
00000000
00000000
00000000
,
00000000
00000000
00000000
00000000
,
00010000
01000000
00000000
00000000
10000000
00000000
01000000
00000000
00001000
00000000
00000000
00000000
00010000
00000000
00000100
00000000
,
00000010
00000000
00000001
00000100
00000010
00001000
00000100
00000010
,
00000011
00000000
00000001
00001000
00000100
00000000
00010000
01000000
,
10000000
00000000
00100000
01000000
00001000
00100000
00010000
01000000
,
00100000
00000000
10000000
00000000
00010000
01000000
00000000
01000000
00001000
00000000
00010000
00000000
00000100
00000010
00000000
00000010
,
00001000
00000000
00000010
00000000
00000001
00000100
00000000
00000100
00000010
00000000
00001000
00000000
00000100
00010000
00000100
00010000
,
00000100
00000000
00000010
00000000
00000001
00000100
00000000
00000100
00001000
00000000
00010000
00000000
00100000
10000000
00000000
10000000
,
00010000
00000000
00100000
00000000
00001000
01000000
00000000
01000000
00001000
00000000
00010000
00000000
00000100
00000010
00000100
00000000
,
00000010
00000000
00000001
00000000
00001000
00000100
00000000
00000100
00010000
00000000
00001000
00000000
01000000
00100000
00000000
00100000
,
00010000
00000000
00100000
00000000
10000000
01000000
00000000
01000000
00100000
00000000
00010000
00000000
01000000
00001000
01000000
00001000
,
01000000
00000000
00100000
00000000
10000000
01000000
00000000
01000000
00010000
00000000
00001000
00000000
00000010
00000001
00000000
00000001
,
00001000
00000000
00000010
00000000
00010000
00000100
00000000
00000100
00010000
00000000
00001000
00000000
01000000
00100000
01000000
00000000
,
00200000
00000000
00000000
00000000
,
00300000
00000000
00000000
00000000
00000000
10000000
01000000
00010000
,
00001000
00000000
00000010
00000001
00000000
00001000
00000000
00000010
,
00000000
00010000
00000100
00001000
00000000
01000000
10000000
00100000
,
01000000
00000000
00010000
00100000
00000000
00001000
00000000
00000100
,
00000000
00000010
00010000
00000100
00000000
00001000
01000000
00100000
,
00001000
00000000
00000010
00000100
00000000
00010000
00000000
00001000
,
00000000
01000000
10000000
00010000
00000000
00100000
10000000
00010000
,
00100000
00000000
00001000
00010000
00000000
00000100
00000000
00000010
,
00000001
00001000
00000000
00000001
00001000
00000000
00000010
00000000
00020000
00000000
00000000
00000000
00032000
00000000
00000000
00000000
,
01003000
00100000
01000000
00000000
00001000
00000000
00100000
01000000
00100000
00000000
00001000
00000000
01000000
00000000
00100000
00000000
,
00000000
10000000
01000000
00010000
00001000
00000000
00010000
00000000
,
00000100
00000010
00000100
00000000
00010000
00000000
00000010
00000100
00000010
00000000
00010000
00000000
00000100
00000000
00000010
00000000
,
00000000
00000001
00000100
00002000
00000000
00000000
00023000
00000000
,
01030000
00000000
10000000
00200000
00000000
02300000
00000000
03002000
,
00000000
00013000
00000100
00000010
00000000
00000001
00001000
00000100
,
00010000
00010000
00001000
01000000
00000000
00100000
00000000
01100000
,
00000000
10000000
01000000
00000000
00010000
00001000
00000100
00000010
,
00010000
00000000
00001000
01000000
00000000
00100000
00000000
10100000
,
00000000
10000000
01000000
00010000
00000000
00001000
00000010
00000001
,
00000100
00000000
00000010
00010000
00000000
00001000
00000000
01001000
,
00000000
01000000
00100000
10000000
00000000
01000000
00010000
00000100
,
00010000
00000000
00000010
00001000
00000000
00100000
00000000
10100000
,
00000000
10000000
00010000
01000000
00000000
00001000
00010000
00000100
,
00000010
00000000
00000001
00000100
00000000
00000010
00000000
00001010
,
00001000
00000100
00000000
00001000
00000100
00000000
00010000
00000000
00002000
00000000
00000000
00000000
00023000
00000000
00000000
00000000
,
00031000
00000100
00000010
00000100
00001000
00000000
00000100
00000001
00000010
00000000
00001000
00000000
00010000
00000000
01000000
00000000
,
00000000
10000000
00010000
01000000
00001000
00000000
00011000
00000000
,
00010000
01000000
00100000
01000000
00010000
00000000
01000000
10000000
00100000
00000000
00010000
00000000
00001000
00000000
00000100
00000000
,
00000000
00000001
00000010
00000200
00010000
00010300
00001000
01000000
,
00200000
10000000
01300000
00020000
00000000
10030000
01000000
00010000
,
00001000
00000100
00000001
00000100
00000000
00000010
00001000
00000100
,
00010000
00000000
00001000
01000000
00000000
00100000
00000000
10000000
,
00010000
01000000
00000000
00100000
10000000
00000000
01000000
00000000
00200000
00000000
00000000
00000000
00320000
00000000
00000000
00000000
,
10030000
01000000
00100000
00001000
00010000
00000000
00000100
00000010
00000001
00000000
00000100
00000000
00000010
00000000
00001000
00000000
,
00000000
00000100
00010000
00000100
00000010
00000000
00000011
00000000
,
00000001
00000100
00000010
00010000
00001000
00000000
01000000
00100000
10000000
00000000
01000000
00000000
00100000
00000000
00010000
00000000
,
00000000
01000000
00001000
02000000
00010000
03010000
00100000
00001000
,
00020000
00000100
00031000
00200000
00000000
00301000
00000010
00000001
,
00000100
00000010
00001000
00000100
00000000
00010000
00001000
01000000
,
00100000
00100000
10000000
01000000
00000000
00100000
00000000
20020000
,
00000000
00000000
00000000
30030000
,
10000000
00000000
00000000
01000000
00000000
00000000
00010000
00000000
00000000
00000000
00001000
00000000
00000000
00000000
00000010
00000000
,
00000000
00000001
00000000
00000100
00000000
00001000
00000000
00100000
,
00010000
00000000
00000000
01000000
00000000
00000000
00001000
00000000
00000000
00010000
00000000
00000000
00000010
00000000
00001000
00000000
,
00000000
00000100
00000000
00010000
00000000
00001000
00000000
01000000
,
00100000
00000000
00000000
10000000
00000000
00000000
00100000
00000000
00000000
00010000
00000000
00000000
00000010
00000000
00001000
00000000
,
00000000
00000100
00000000
00000000
00000010
00000000
00000100
00000000
00000000
00010000
00000000
00000000
00001000
00000000
01000000
00000000
,
00100000
00000000
00000000
10000000
00000000
00000000
00010000
00000000
00000000
00001000
00000000
00000000
00000100
00000000
00000010
00000000
,
00000001
00000000
00000000
00001000
00000000
00000000
00000100
00000000
00000000
00010000
00000000
00000000
00001000
01000000
00010000
00000000
,
10000000
01000000
00000000
01000000
00100000
00000000
00100000
00001000
00000000
00001000
00010000
00000000
00010000
00000100
00000010
00000000
,
00000001
00000100
00000000
00000100
00000010
00000000
00000010
00010000
00000000
00010000
00001000
00000000
00001000
01000000
00100000
00000000
,
10000000
00010000
00000000
00010000
00100000
00000000
00100000
00001000
00000000
00001000
00010000
00000000
00010000
00000100
00000010
00000000
,
00000001
00000100
00000000
00000100
00001000
00000000
00001000
00010000
00000000
00010000
00100000
00000000
00100000
10000000
00010000
00100000
,
01000000
10000000
00000000
00010000
01000000
00000000
00001000
00100000
00000000
00001000
00010000
00000000
00000010
00001000
00000001
00000000
,
00000010
00000100
00000000
00001000
00000100
00000000
00010000
00001000
00000000
00100000
00010000
00000000
01000000
00100000
10000000
00000000
,
00010000
01000000
00000000
00001000
00100000
00000000
00001000
00010000
00000000
00000010
00010000
00000000
00000010
00001000
00000100
00000000
,
00000010
00000001
00000000
00000100
00001000
00000000
00010000
00100000
00000000
10000000
01000000
00000000
00100000
00001000
00010000
00000100
,
00000020
00000000
00000000
00000000
00000000
00000000
00000000
00000000
00000000
00000000
00000000
00000000
00000000
00000000
00000000
00000030
;

//---------------dance-single - ----------------
#NOTES:
     dance-single:
     :
     Medium:
     10:
     0.469,0.517,0.073,0.114,0.016:
0000
0000
0000
0000
,
0000
0000
0000
0000
,
0000
0000
0000
0000
,
0000
0000
0000
0000
,
1100
0000
0001
0001
0100
0000
0010
0100
,
0001
0000
0010
0010
0100
0000
1000
0100
,
0010
0000
0001
0001
0100
0000
0010
0100
,
0001
0000
0010
0010
0100
0000
1000
0001
,
0200
0010
1000
0310
,
0100
0001
0010
0100
1000
0010
1000
0100
,
0020
0001
0100
0031
,
0100
0010
1000
0010
0100
0001
0010
0100
,
2000
0100
0010
3100
,
1000
0001
0100
0001
1000
0100
0010
0001
,
0020
0001
1000
0031
,
1000
0100
0010
0001
0100
0010
1000
0001
,
0110
0000
0000
0000
,
0000
0000
0000
0000
0000
0010
1000
0010
,
0100
0000
0001
1000
0000
0100
0000
0010
,
0000
0001
0100
0001
0000
1000
0100
1000
,
0010
0000
0100
0001
0000
0010
0000
0100
,
0000
1000
0100
0010
0000
0001
0100
1000
,
0100
0000
0001
0010
0000
0100
0000
1000
,
0000
0001
0100
0010
0000
0100
0001
1000
,
0100
0000
0010
0100
0000
1000
0000
0002
,
0000
0003
0110
1001
,
0010
1000
0100
0010
0001
0100
0010
0100
,
0000
0001
0010
0100
1000
0000
0001
0000
,
0010
0001
0100
0010
1000
0100
0010
0100
,
0000
1000
0010
0200
0000
0000
0301
0000
,
1000
0000
0001
0100
0000
0010
0000
0100
,
0000
0001
0010
0100
0000
1000
0100
0010
,
0001
0001
0010
0100
0000
1000
0000
0002
,
0000
0000
0000
0000
0003
0100
0001
1000
,
0100
0000
0010
0100
0000
1000
0000
0001
,
0000
0100
0010
1000
0000
0100
0010
0001
,
0100
0000
1000
0100
0000
0010
0000
1000
,
0000
0100
0010
0001
0000
0100
0010
1000
,
0100
0000
0001
0100
0000
0010
0000
0001
,
0000
0100
0010
1000
0000
0010
0100
1000
,
0100
0001
1000
0100
0000
0010
0000
0002
,
0000
0003
0110
1001
,
0010
1000
0100
0010
0001
0100
0010
0100
,
0000
0001
0010
0100
1000
0000
0001
0000
,
0010
0001
0100
0010
1000
0100
0010
0100
,
0000
1000
0010
0200
0000
0000
0301
0000
,
1000
0000
0001
0100
0000
0010
0000
0100
,
0000
0001
0010
0100
0000
1000
0100
0010
,
0001
0001
0010
0100
0000
1000
0000
0002
,
0000
0003
0110
1001
,
0001
0010
1000
0001
0100
1000
0001
1000
,
0000
0100
0001
1000
0010
0000
0100
0000
,
0001
0100
1000
0001
0010
1000
0001
1000
,
0000
0010
0001
2000
0000
0000
3100
0000
,
0010
0000
0100
1000
0000
0001
0000
1000
,
0000
0100
0001
1000
0000
0010
1000
0001
,
0100
0100
0001
1000
0000
0010
0000
0200
,
0000
0000
0000
0300
,
0010
0000
0000
0100
0000
0000
0001
0000
0000
0000
1000
0000
0000
0000
0100
0000
,
0000
0010
0000
0100
0000
1000
0000
0001
,
0100
0000
0000
0010
0000
0000
0100
0000
0000
0000
0001
0000
0000
0000
1000
0000
,
0000
0001
0000
0010
0000
0100
0000
1000
,
0001
0000
0000
0010
0000
0000
0100
0000
0000
0000
1000
0000
0000
0000
0010
0000
,
0000
0100
0000
0001
0000
1000
0000
0100
,
0010
0000
0000
0100
0000
0000
1000
0000
0000
0000
0001
0000
0000
0000
0100
0000
,
0000
0010
0000
0100
0000
0001
1000
0000
,
0001
0100
0001
0100
0010
0100
0001
0000
,
1000
0100
1000
0100
0010
0100
1000
0000
,
0001
0010
0001
0010
0100
0010
0001
0000
,
1000
0010
1000
0010
0100
0010
1000
0000
,
0001
0100
0001
0100
1000
0100
0001
0000
,
1000
0100
1000
0100
0001
0100
1000
0000
,
0001
0010
0001
0010
1000
0010
0001
0000
,
1000
0010
1000
0010
0001
0010
1000
0001
,
2002
0000
0000
0000
0000
0000
0000
0000
0000
0000
0000
0000
0000
0000
0000
3003
;

//---------------dance-single - ----------------
#NOTES:
     dance-single:
     :
     Easy:
     7:
     0.366,0.395,0.008,0.089,0.000:
0000
0000
0000
0000
,
0000
0000
0000
0000
,
0000
0000
0000
0000
,
0000
0000
0000
0000
,
0001
1000
0001
0001
,
0010
0000
0100
0000
1000
0001
0100
0000
,
0010
0100
0001
0001
,
1000
0000
0100
0000
0010
0100
1000
0000
,
0002
0000
0103
0000
0001
0100
0001
0000
,
2000
0000
3100
0000
1000
0100
1000
0000
,
0010
1000
0100
0000
0010
0001
0100
0000
,
0010
0000
0100
0000
0001
1000
0001
0000
,
0010
0000
0100
0000
1000
0001
0100
0000
,
0001
0000
1000
0000
0100
0010
0001
0000
,
0100
0000
0010
0000
1000
0001
0100
0000
,
0010
0100
0001
0000
0010
0100
1000
0000
,
2002
0000
0000
0000
,
3003
0000
0000
0000
,
0010
0000
0100
0001
0000
0100
0000
0010
,
0000
0100
0001
0000
1000
0000
0100
0000
,
0010
0000
0100
1000
0000
0001
0000
1000
,
0000
0100
0010
0000
0100
0000
1000
0000
,
0001
0000
0100
0010
0000
0100
0000
0001
,
0000
0100
0010
0000
0100
0000
0001
0000
,
1000
0000
0100
0010
0000
0100
0000
1000
,
0000
0100
0010
0000
0002
0000
2003
0000
,
3010
0100
0010
0100
0010
0000
0100
0000
,
0001
1000
0100
0010
,
0100
0010
0100
0010
0100
0000
0010
0000
,
0001
1000
0001
1000
,
0010
0000
1000
0100
0000
1000
0000
0001
,
0000
0100
0000
0001
0000
1000
0100
0000
,
0010
0000
0001
0100
0000
0010
0000
0100
,
0000
0001
1000
0000
0100
0000
0010
0000
,
0001
0000
0100
0010
0000
0100
0000
0001
,
0000
1000
0100
0000
0010
0000
0100
0000
,
1000
0000
0001
0100
0000
0010
0000
0100
,
0000
0001
0010
0000
0100
0000
1000
0000
,
0100
0000
0010
0001
0000
1000
0000
0100
,
0000
0010
0001
0000
0100
0000
1000
0000
,
0100
0000
0010
1000
0000
0100
0000
0001
,
0000
0100
0010
0000
0002
0000
2003
0000
,
3001
0100
0001
1000
0100
0000
1000
0000
,
0001
0100
0010
0100
,
0001
0010
0001
1000
0010
0000
1000
0000
,
0001
0010
0100
1000
,
0001
0000
0100
0010
0000
0100
0000
0001
,
0000
1000
0100
0000
0010
0000
0100
0000
,
1000
0000
0001
0100
0000
0001
0000
0010
,
0000
0100
1000
0000
0020
0000
0230
0000
,
0301
0010
0001
1000
0100
0000
0010
0001
,
0000
0010
0100
0000
1000
0000
0001
0000
,
0100
0010
1000
0010
0100
0000
0001
0010
,
0000
0100
1000
0000
0001
0000
0100
0000
,
0010
0000
1000
0100
0000
0001
0000
0100
,
0000
0010
1000
0000
0010
0000
0001
0000
,
0100
0000
0010
1000
0000
0010
0000
0100
,
0000
0001
1000
0000
0100
0000
0010
0000
,
0001
0000
0000
0100
0000
0000
0000
0010
,
0000
0000
0000
0100
0000
0000
0000
0000
,
0001
0000
0000
1000
0000
0000
0000
0100
,
0000
0000
0000
0000
,
0100
0000
0000
0010
0000
0000
0000
0001
,
0000
0000
0000
1000
0000
0000
0000
0000
,
0100
0000
0000
1000
0000
0000
0000
0001
,
0000
0000
0000
0000
,
0100
0001
0010
1000
,
0100
0001
0010
1000
,
0100
1000
0010
0001
,
0100
1000
0010
0001
,
0100
0001
0100
0000
0001
0010
0001
0000
,
0010
1000
0010
0000
1000
0100
1000
0000
,
0100
0001
0100
0000
0001
0010
0001
0000
,
0010
1000
0010
0000
1000
0100
1000
0000
,
0200
0000
0000
0000
0000
0000
0000
0000
0000
0000
0000
0000
0000
0000
0000
0300
;

//---------------dance-single - ----------------
#NOTES:
     dance-single:
     :
     Beginner:
     2:
     0.101,0.182,0.000,0.016,0.000:
0000
0000
0000
0000
,
0000
0000
0000
0000
,
0000
0000
0000
0000
,
0000
0000
0000
0000
,
0100
0000
0000
0000
,
0100
0000
0100
0000
,
0100
0000
0000
0000
,
0001
0000
0001
0000
,
0001
0000
0000
0000
,
0010
0000
0000
0000
,
0100
0000
0000
0000
,
1000
0000
0000
0001
,
0001
0000
0000
0000
,
0100
0000
0000
0000
,
0010
0000
0000
0000
,
1000
0000
0000
0100
,
0200
0000
0000
0000
,
0300
0000
0000
0000
,
0010
0000
0000
0000
,
0000
0000
0000
0000
,
0100
0000
0000
0000
,
0000
0000
0000
0000
,
1000
0000
0000
0000
,
0000
0000
0000
0000
,
0001
0000
0000
0000
,
0000
0000
1000
1000
,
1000
0000
1000
0000
,
1000
0000
0000
0000
,
0001
0000
0001
0000
,
0001
0000
0000
0000
,
0010
0000
0010
0000
,
0010
0000
0000
0000
,
0100
0000
0100
0000
,
0100
0000
0000
0000
,
0001
0000
0000
0000
,
0000
0000
0000
0000
,
1000
0000
0000
0000
,
0000
0000
0000
0000
,
0010
0000
0000
0000
,
0000
0000
0000
0000
,
0100
0000
0000
0000
,
0000
0000
0010
0010
,
0010
0000
0010
0000
,
0010
0000
0000
0000
,
0100
0000
0100
0000
,
0100
0000
0000
0000
,
0001
0000
0001
0000
,
0001
0000
0000
0000
,
1000
0000
1000
0000
,
1000
0000
0100
0100
,
0100
0000
0100
0000
,
0100
0000
0000
0000
,
0010
0000
0010
0000
,
0010
0000
0000
0000
,
0001
0000
0001
0000
,
0001
0000
0000
0000
,
0100
0000
0100
0000
,
0100
0000
0000
0000
,
0010
0000
0000
0000
,
0000
0000
0000
0000
,
0100
0000
0000
0000
,
0000
0000
0000
0000
,
0001
0000
0000
0000
,
0000
0000
0000
0000
,
1000
0000
0000
0000
,
0000
0000
0000
0000
,
0100
0000
0100
0000
,
0100
0000
0000
0000
,
0010
0000
0010
0000
,
0010
0000
0000
0000
,
0001
0000
0001
0000
,
0001
0000
0000
0000
,
1000
0000
1000
0000
,
1000
0000
1000
0000
,
2000
0000
0000
0000
0000
0000
0000
0000
0000
0000
0000
0000
0000
0000
0000
3000
;

//---------------dance-double - ----------------
#NOTES:
     dance-double:
     :
     Medium:
     10:
     0.530,0.547,0.122,0.430,0.032: // measure 1
00000000
00000000
00000000
00000000
,  // measure 2
00000000
00000000
00000000
00000000
,  // measure 3
00000000
00000000
00000000
00000000
,  // measure 4
00000000
00000000
00000000
00000000
,  // measure 5
00011000
00000000
00010000
01000000
10000000
00000000
10000000
00100000
,  // measure 6
00010000
00000000
00001000
00000100
00000001
00000100
00000010
00001000
,  // measure 7
00000100
00000000
00010000
00000100
00001000
00000000
00000010
00010000
,  // measure 8
00001000
00000000
01000000
00010000
00100000
01000000
10000000
00000000
,  // measure 9
00100000
00000000
00000000
00000000
10000000
01000000
00000000
01000000
10000000
00000000
00010000
00000000
02000000
00000000
00000000
00000000
,  // measure 10
03001000
00010000
00000100
00001000
00000010
00000100
00000002
00000000
,  // measure 11
00000013
00000000
00000000
00000000
00000001
00000100
00000000
00000100
00000001
00000000
00001000
00000000
00000200
00000000
00000000
00000000
,  // measure 12
00010300
00001000
01000000
00010000
00100000
01000000
20000000
00000000
,  // measure 13
31000000
00000000
00000000
00000000
10000000
00100000
00000000
00100000
10000000
00000000
00010000
00000000
00200000
00000000
00000000
00000000
,  // measure 14
00301000
00010000
00000010
00001000
00000100
00000010
00000002
00000000
,  // measure 15
00000103
00000000
00000000
00000000
00000001
00000010
00000000
00000010
00000001
00000000
00001000
00000000
00000020
00000000
00000000
00000000
,  // measure 16
00010030
00001000
00100000
00010000
01000000
00100000
20000000
00000000
,  // measure 17
32000000
03000000
02000000
03000000
,  // measure 18
02000000
00000000
03000000
00000000
00000000
10000000
01000000
00100000
,  // measure 19
01000000
00000000
10000000
00010000
00000000
01000000
00000000
00001000
,  // measure 20
00000000
00010000
00000100
00001000
00000000
00000010
00000100
00000001
,  // measure 21
00000010
00000000
00000100
00001000
00000000
00000100
00000000
00010000
,  // measure 22
00000000
00001000
01000000
00010000
00000000
10000000
01000000
00100000
,  // measure 23
00010000
00000000
01000000
00001000
00000000
00010000
00000000
00000100
,  // measure 24
00000000
00001000
00000010
00000100
00000000
00000001
00000010
00000100
,  // measure 25
00001000
00000000
00000100
00010000
00000000
00001000
00000000
01000000
,  // measure 26
00000000
00010000
10000000
01000000
00200000
00000000
02300000
00000000
,  // measure 27
13000000
01000000
00010000
00001000
00000100
00000001
00001000
00000100
,  // measure 28
00000000
00010000
00001000
00010000
00000200
00000000
00002300
00000000
,  // measure 29
00003001
00000100
00001000
00010000
01000000
10000000
00010000
01000000
,  // measure 30
00000000
00001000
00010000
00002000
00000000
00000000
00013000
00000000
,  // measure 31
00002000
00000000
00013000
00000200
00000000
00002300
00000000
00003020
,  // measure 32
00000000
00000130
00000001
00000010
00000000
00000100
00001000
00000001
,  // measure 33
00000100
00000100
00000010
00000200
00000000
00000302
00000000
00002003
,  // measure 34
00000000
00000000
00000000
00003000
00000000
00000001
00000100
00001000
,  // measure 35
00010000
00000000
01000000
10000000
00000000
01000000
00000000
00010000
,  // measure 36
00000000
00001000
00000100
00000001
00000000
00000001
00000010
00001000
,  // measure 37
00010000
00000000
00100000
10000000
00000000
00100000
00000000
00010000
,  // measure 38
00000000
00100000
10000000
00010000
00000000
10000000
01000000
00010000
,  // measure 39
00001000
00000000
00000100
00000001
00000000
00000100
00000000
00001000
,  // measure 40
00000000
00010000
01000000
10000000
00000000
10000000
00100000
00010000
,  // measure 41
00001000
00000000
00000010
00000001
00000000
00000010
00000000
00000100
,  // measure 42
00000000
00001000
00000001
00001000
00000020
00000000
00000230
00000000
,  // measure 43
00000301
00000100
00001000
00010000
01000000
10000000
00010000
01000000
,  // measure 44
00000000
00001000
00010000
01000000
00200000
00000000
00320000
00000000
,  // measure 45
10030000
01000000
00010000
00001000
00000100
00000001
00001000
00000100
,  // measure 46
00000000
00010000
00001000
00020000
00000000
00000000
00031000
00000000
,  // measure 47
02000000
00000000
03010000
00200000
00000000
02300000
00000000
23000000
,  // measure 48
00000000
30010000
01000000
00001000
00000000
00010000
00000010
00001000
,  // measure 49
00000200
00000000
00010300
00002000
00000000
02003000
00000000
03020000
,  // measure 50
00000000
01030000
00100000
00100000
02000000
00000000
03020000
00000000
,  // measure 51
10030000
00100000
00010000
00001000
00000010
00000001
00001000
00000010
,  // measure 52
00000000
00010000
00001000
00000010
00000200
00000000
00002300
00000000
,  // measure 53
00003001
00000010
00001000
00010000
00100000
10000000
00010000
00100000
,  // measure 54
00000000
00001000
00010000
00002000
00000000
00000000
00013000
00000000
,  // measure 55
00000020
00000000
00001030
00000200
00000000
00000320
00000000
00000032
,  // measure 56
00000000
00001003
00000010
00010000
00000000
00001000
01000000
00010000
,  // measure 57
00200000
00000000
00301000
00020000
00000000
00030020
00000000
00002030
,  // measure 58
00000000
00003010
00000100
00000100
00000020
00000000
00002030
00000000
,  // measure 59
00003001
00000000
00000000
00000101
00000000
00000000
00000000
00001100
,  // measure 60
00000000
00000000
00000000
00011000
00000000
00000000
00000000
00000000
,  // measure 61
01001000
00000000
00000000
01100000
00000000
00000000
00000000
10100000
,  // measure 62
00000000
00000000
00000000
00000000
,  // measure 63
11000000
00000000
00000000
01010000
00000000
00000000
00000000
00011000
,  // measure 64
00000000
00000000
00000000
00001100
00000000
00000000
00000000
00000000
,  // measure 65
00000011
00000000
00000000
00000110
00000000
00000000
00000000
00011000
,  // measure 66
00000000
00000000
00000000
00000000
,  // measure 67
00001000
00010000
01000000
10000000
01000000
00010000
00001000
00001000
,  // measure 68
00010000
00001000
00000100
00000001
00000100
00001000
00010000
00010000
,  // measure 69
00001000
00010000
00100000
10000000
00100000
00010000
00001000
00001000
,  // measure 70
00010000
00001000
00000010
00000001
00000010
00001000
00010000
00010000
,  // measure 71
00001000
00010000
01000000
10000000
00100000
00010000
00001000
00001000
,  // measure 72
00010000
00001000
00000100
00000001
00000010
00001000
00010000
00010000
,  // measure 73
00001000
00010000
00100000
10000000
01000000
00010000
00001000
00001000
,  // measure 74
00010000
00001000
00000010
00000001
00000100
00001000
00010000
00010000
,  // measure 75
00022000
00000000
00000000
00000000
00000000
00000000
00000000
00000000
00000000
00000000
00000000
00000000
00000000
00000000
00000000
00033000
;

//---------------dance-double - ----------------
#NOTES:
     dance-double:
     :
     Easy:
     7:
     0.325,0.304,0.000,0.016,0.000: // measure 1
00000000
00000000
00000000
00000000
,  // measure 2
00000000
00000000
00000000
00000000
,  // measure 3
00000000
00000000
00000000
00000000
,  // measure 4
00000000
00000000
00000000
00000000
,  // measure 5
10000000
10000000
01000000
01000000
,  // measure 6
00010000
00000000
00010000
00000000
00001000
00010000
00001000
00000000
,  // measure 7
00000100
00000100
00000001
00000001
,  // measure 8
00001000
00000000
00001000
00000000
00000100
00010000
00000100
00000000
,  // measure 9
00010000
00000000
00001000
00000000
01000000
00010000
10000000
00000000
,  // measure 10
01000000
00010000
00001000
00010000
,  // measure 11
00001000
00000000
00000100
00000000
00000001
00001000
00000100
00000000
,  // measure 12
00010000
00001000
00010000
00001000
,  // measure 13
01000000
00000000
00010000
00000000
00100000
01000000
10000000
00000000
,  // measure 14
01000000
00010000
00001000
00000010
,  // measure 15
00000001
00000000
00000100
00000000
00000010
00000100
00000001
00000000
,  // measure 16
00000100
00001000
00010000
00100000
,  // measure 17
20000000
00000000
00000000
00000000
,  // measure 18
30000000
00000000
00000000
00000000
00000000
00010000
10000000
00010000
,  // measure 19
10000000
01000000
00100000
00010000
,  // measure 20
01000000
00001000
00010000
00000000
00000100
00000000
00001000
00000000
,  // measure 21
00000001
00000100
00000010
00001000
,  // measure 22
00000100
00010000
00001000
00000000
01000000
00000000
00010000
00000000
,  // measure 23
10000000
01000000
00010000
00001000
,  // measure 24
00010000
00000100
00001000
00000000
00000010
00000000
00000100
00000000
,  // measure 25
00000001
00000010
00000100
00010000
,  // measure 26
00001000
00000000
01000000
00010000
10000000
00000000
00010000
00000000
,  // measure 27
10000000
01000000
10000000
00000000
01000000
00000000
00010000
00000000
,  // measure 28
00001000
00000100
00000001
00001000
,  // measure 29
00000001
00000100
00000001
00000000
00000100
00000000
00001000
00000000
,  // measure 30
00010000
01000000
10000000
00010000
,  // measure 31
10000000
01000000
00010000
00001000
,  // measure 32
00000010
00000001
00001000
00000000
00000010
00000000
00001000
00000000
,  // measure 33
00000001
00000010
00001000
00010000
,  // measure 34
00100000
00000000
10000000
00010000
10000000
00000000
01000000
00000000
,  // measure 35
10000000
01000000
00100000
00010000
,  // measure 36
01000000
00001000
00010000
00000000
,  // measure 37
00000100
00001000
00000010
00000100
,  // measure 38
00000001
00000010
00000100
00000000
,  // measure 39
00000010
00000001
00000100
00000010
,  // measure 40
00010000
00001000
01000000
00000000
,  // measure 41
00010000
10000000
01000000
00010000
,  // measure 42
00001000
00000010
00000001
00001000
,  // measure 43
00000001
00001000
00000001
00000000
00000100
00000000
00001000
00000000
,  // measure 44
00010000
00100000
10000000
00010000
,  // measure 45
10000000
00010000
10000000
00000000
01000000
00000000
00010000
00000000
,  // measure 46
00001000
00000010
00000001
00001000
,  // measure 47
00000001
00000100
00001000
00010000
,  // measure 48
01000000
10000000
00010000
00000000
01000000
00000000
00100000
00000000
,  // measure 49
10000000
01000000
00010000
00001000
,  // measure 50
00000100
00000000
00000001
00001000
00000001
00000000
00000100
00000000
,  // measure 51
00000001
00001000
00000001
00000000
00000010
00000000
00001000
00000000
,  // measure 52
00010000
01000000
10000000
00010000
,  // measure 53
10000000
00010000
10000000
00000000
00100000
00000000
00010000
00000000
,  // measure 54
00001000
00000100
00000001
00001000
,  // measure 55
00000001
00000000
00000100
00001000
00000000
00010000
00000000
00100000
,  // measure 56
00000000
10000000
00010000
00000000
00100000
00000000
01000000
00000000
,  // measure 57
10000000
01000000
00010000
00001000
,  // measure 58
00000100
00000000
00000001
00001000
00000001
00000000
00000010
00000000
,  // measure 59
00000001
00000000
00000000
00000100
00000000
00000000
00000000
00001000
,  // measure 60
00000000
00000000
00000000
00010000
00000000
00000000
00000000
00000000
,  // measure 61
00100000
00000000
00000000
10000000
00000000
00000000
00000000
01000000
,  // measure 62
00000000
00000000
00000000
00000000
,  // measure 63
00010000
00000000
00000000
00001000
00000000
00000000
00000000
00000010
,  // measure 64
00000000
00000000
00000000
00000001
00000000
00000000
00000000
00000000
,  // measure 65
00000100
00000000
00000000
00001000
00000000
00000000
00000000
00010000
,  // measure 66
00000000
00000000
00000000
00000000
,  // measure 67
00001000
00010000
01000000
10000000
,  // measure 68
00100000
00010000
00001000
00000100
,  // measure 69
00000001
00000010
00001000
00010000
,  // measure 70
01000000
10000000
00100000
00010000
,  // measure 71
00001000
00000100
00000001
00000010
,  // measure 72
00001000
00010000
01000000
10000000
,  // measure 73
00100000
00010000
00001000
00000100
,  // measure 74
00000001
00000010
00001000
00010000
,  // measure 75
02000000
00000000
00000000
00000000
00000000
00000000
00000000
00000000
00000000
00000000
00000000
00000000
00000000
00000000
00000000
03000000
;
