#TITLE:夕焼け ~Fading Day~;
#SUBTITLE:;
#ARTIST:JAKAZiD;
#TITLETRANSLIT:Afterglow ~Fading Day~;
#SUBTITLETRANSLIT:;
#ARTISTTRANSLIT:;
#GENRE:;
#CREDIT:;
#MENUCOLOR:;
#METERTYPE:DDR;
#BANNER:Afterglow ~Fading Day~.png;
#BACKGROUND:Afterglow ~Fading Day~-bg.png;
#LYRICSPATH:;
#CDTITLE:cdtitle.png;
#MUSIC:Afterglow ~Fading Day~.mp3;
#OFFSET:-0.428;
#SAMPLESTART:79.049;
#SAMPLELENGTH:12.000;
#SELECTABLE:YES;
#LISTSORT:;
#BPMS:0.000=174.000,68.000=87.000,84.000=174.000;
#STOPS:112.000=0.690
;
#BGCHANGES:;
#ATTACKS:;

//---------------dance-single - ----------------
#NOTES:
     dance-single:
     :
     Hard:
     13:
     0.688,0.722,0.335,0.215,0.228:
0000
0000
0000
0000
,
0000
0000
0000
0000
,
0000
0000
0000
0000
,
0000
0000
0000
0000
,
0000
0000
0000
0000
,
0001
0000
0100
0000
0001
0000
0100
0000
0010
0000
0000
0100
0000
0000
0010
0000
,
1000
0000
0100
0000
1000
0000
0100
0000
0010
0000
0000
0001
0000
0000
0100
0000
,
0010
0000
1000
0000
0010
0000
1000
0000
0100
0000
0000
0010
0000
0000
0001
0000
,
1000
0010
0100
0100
0001
0001
1001
0000
,
0110
0200
0000
0301
1000
1000
0100
0010
,
0001
2000
0000
3010
0100
1000
0100
0001
,
0010
0200
0000
0310
0001
0001
1000
0010
,
0100
0002
0000
0103
1000
0100
0010
0001
,
0010
1000
1100
0000
0010
0001
0101
0000
,
0100
0010
1010
0000
0100
0010
0011
0000
,
1001
0001
0101
0100
0110
0010
1010
1000
,
2002
0000
3003
0100
,
0001
0000
0000
0001
0000
0000
0001
0000
0100
0000
0000
0100
0000
0000
0100
0000
,
1000
0000
0000
1000
0000
0000
1000
0000
0010
0000
0000
0010
0000
0010
0000
0000
,
0001
0000
0000
0001
0000
0000
0001
0000
0010
0000
0000
0010
0000
0000
0010
0000
,
1000
0000
0000
1000
0000
0000
1000
0000
0100
0000
0000
0100
0000
0100
0000
0000
,
0001
0000
1000
0100
0010
0000
0100
0000
,
1000
0010
0100
1000
0100
0001
0010
0000
,
0001
0000
0100
0010
0100
0000
0001
0000
,
1000
0100
0001
0100
1000
0010
0100
0000
,
0101
0000
0001
0010
1000
0010
0001
0000
,
1001
0000
1000
0010
0001
0010
1000
0000
,
0110
1000
0001
0000
0110
0001
1000
0000
,
2002
3003
0000
0000
0000
0000
0000
0000
0000
0000
0000
0000
0000
0000
0000
0000
0010
0000
0000
0000
0000
0000
0000
0000
0000
0000
0000
0000
0000
0000
0000
0000
0100
0000
0000
0000
0000
0000
0000
0000
0001
0000
0000
0000
0000
0000
0000
0000
1000
0000
0000
0000
0000
0000
0000
0000
0000
0000
0000
0000
0000
0000
0000
0000
,
0100
0000
0000
0100
0000
0000
0100
0000
0010
0000
0001
0000
0100
0000
0000
0000
,
0010
0000
0000
0010
0000
0000
0010
0000
1000
0000
0001
0000
0100
0000
0000
0000
,
0001
0000
0000
0001
0000
0000
0001
0000
1000
0000
0100
0000
0001
0000
0100
0000
,
0010
0000
0000
0010
0000
0000
0010
0000
0001
0000
1000
0000
0010
0000
0000
0000
,
0100
0000
0001
0100
0000
0001
0100
0000
0001
0000
1000
0000
0100
0000
0000
0000
,
0010
0000
0100
0010
0000
0100
0010
0000
0100
0000
1000
0000
0001
0000
0000
0000
,
1000
0000
0010
1000
0000
0010
1000
0000
0010
0000
0100
0000
0001
0000
0010
0000
,
0100
0000
1000
0010
0000
0100
0001
0000
1000
0000
0100
0000
0010
0000
0001
0000
,
0100
0000
0010
0100
0000
0001
1000
0000
0010
0000
1000
0000
0100
0000
0010
0000
,
0100
0000
1000
0001
0000
0100
0010
0000
0100
0000
0001
0000
1000
0000
0100
0000
,
0010
0000
0100
1000
0000
0001
0100
0000
0010
0000
1000
0000
0010
0000
0001
0000
,
0010
0000
1000
0100
0000
0001
0100
0000
1000
0100
1000
0000
0001
0000
0100
0000
,
0010
0000
1000
0100
0000
0010
0100
0000
1000
0001
1000
0000
0001
0000
0100
0000
,
0010
0000
0100
0001
0000
0010
0001
0000
0010
0100
0010
0000
0001
0000
1000
0000
,
0010
0000
0100
0001
0000
0100
0010
0000
0000
0000
0101
0000
0000
1100
0000
0000
,
1010
0000
0000
0011
0000
0000
1001
0000
0120
0000
0000
0000
1000
0000
0000
0000
,
0130
0001
0000
1000
0200
0000
0310
0100
,
1000
0001
0100
1000
0200
0000
0010
0000
,
0301
0100
0000
1000
0200
0000
0301
1000
,
0100
0010
0100
1000
0002
0000
0010
0000
,
0103
0010
0000
1000
0200
0000
1300
0010
,
0100
0001
0010
0100
2000
0000
0010
0000
,
3100
0010
0000
0001
0100
1000
0100
0001
,
1000
0100
0010
0010
0210
0000
1000
0000
,
0010
0310
0010
0001
0100
1000
0100
0001
,
0100
0010
1000
0100
0020
0000
0001
0000
,
0100
0130
0100
1000
0100
0001
0100
1000
,
0100
0010
0001
0100
1001
0000
0100
0010
,
0011
0000
0100
0010
1010
0000
0010
0100
,
0101
0000
0010
0100
1100
0001
1000
0001
,
0100
0000
0010
0000
0100
0000
0010
0000
1000
0000
0100
0000
0010
0000
0000
0001
,
0000
1001
0200
0320
1030
0100
1000
0001
,
0200
0000
0310
0010
1000
0001
0010
0100
,
1000
0001
0100
0001
1000
0100
0010
0100
,
2000
0000
3010
0010
0100
0001
0010
0100
,
1000
0100
0001
0100
1000
0010
0100
0001
,
0020
0000
0130
0100
1000
0100
0001
0100
,
1000
0010
0100
0001
0010
0100
1000
0001
,
0200
0000
0310
0010
1000
0001
0010
0100
,
1000
0001
0100
0010
1000
0100
0010
0100
,
1000
0100
0000
0100
0010
0000
0001
0000
0100
0000
0010
0000
0100
0000
0001
0000
,
0010
0100
0000
0100
1000
0000
0001
0000
0100
0000
0001
0000
0010
0000
0001
0000
,
1000
0010
0000
0010
0100
0000
0001
0000
1000
0000
0100
0000
0010
0000
0001
0000
,
0100
0010
0000
0010
1000
0000
0001
0000
0010
0000
0100
0000
1000
0000
0100
0000
,
0011
0000
1100
0000
0001
0100
0010
1000
,
0101
0000
1010
0000
1001
0001
0011
0010
,
0110
0100
1100
1000
2002
0000
0000
0000
,
3003
0000
1001
0000
;

//---------------dance-single - ----------------
#NOTES:
     dance-single:
     :
     Medium:
     10:
     0.481,0.493,0.069,0.197,0.052:
0000
0000
0000
0000
,
0000
0000
0000
0000
,
0000
0000
0000
0000
,
0000
0000
0000
0000
,
0000
0000
0000
0000
,
0001
0100
0001
0100
,
0010
1000
0010
1000
,
0001
0010
0001
0010
,
0100
0000
1000
0000
0100
1000
0001
0000
,
0100
0001
0000
1000
0000
0001
0000
0100
,
0010
0100
0000
0001
0000
1000
0000
0100
,
0010
0100
0000
1000
0000
0001
0000
1000
,
0100
1000
0000
0001
0000
0100
0000
0010
,
0200
0301
0002
1003
,
2000
3100
0200
0310
,
0001
1000
1001
1001
,
0220
0000
0330
0100
,
0010
0000
0000
1000
0000
0000
0100
0000
1000
0000
0000
0100
0000
0000
0001
0000
,
0100
0000
0000
0001
0000
0000
0010
0000
0001
0000
0000
0010
0000
1000
0000
0000
,
0010
0000
0000
0001
0000
0000
0100
0000
0001
0000
0000
0100
0000
0000
1000
0000
,
0100
0000
0000
1000
0000
0000
0010
0000
1000
0000
0000
0010
0000
0001
0000
0000
,
0010
1000
0001
1000
,
0010
0100
0001
0000
,
1000
0100
0010
0100
,
1000
0001
0100
0000
,
0001
0000
0100
0000
0001
0100
0000
0001
,
0100
0000
0010
0000
1000
0100
0000
1000
,
0100
0000
0010
0000
0100
1000
0001
0000
,
0200
0300
0000
0000
0000
0000
0000
0000
0010
0000
0000
0000
0000
0000
0000
0000
1000
0000
0000
0000
0000
0000
0000
0000
0100
0000
0000
0000
0000
0000
0000
0000
,
1000
0100
0010
0000
0001
0000
0100
0000
,
0001
0100
0010
0000
1000
0000
0010
0000
,
1000
0010
0100
0000
0001
0000
0010
0000
,
0001
0010
0100
0000
1000
0100
0010
0000
,
0010
0100
1000
0000
0001
0100
0010
0000
,
0010
0100
0001
0000
1000
0010
0100
0000
,
0100
0010
1000
0000
0001
0010
0100
0000
,
0100
0010
0001
0000
1000
0001
1000
0001
,
0100
0000
0100
0000
0010
1000
0010
1000
,
0100
0000
0100
0000
0010
0001
0010
0001
,
0100
0000
0100
0000
0001
1000
0001
1000
,
0100
0000
0100
0000
1000
0100
0010
0001
,
0100
0010
0100
0000
0010
0100
0010
0100
,
0001
1000
0001
0000
1000
0100
0010
0001
,
0010
0000
0100
0000
1000
0000
0000
0000
0000
0000
0010
0000
0000
1000
0000
0000
,
0001
0000
0000
0100
0000
0000
0010
0000
2000
0000
0000
0000
3010
0000
0000
0000
,
2000
3001
2000
3100
,
2000
3001
0002
0013
,
0002
1003
0002
0103
,
0002
1003
0010
1000
,
0001
0100
0000
0000
0001
0000
1000
0000
,
0100
0010
0100
1000
,
0001
0010
0000
0000
0100
0000
1000
0000
,
0001
1000
0100
0000
0010
0000
0100
1000
,
0001
1000
0100
0000
0010
0000
0001
1000
,
0100
1000
0001
0000
0100
0010
1000
0000
,
0100
0010
0001
0000
1000
0000
0001
0000
,
0110
0000
1001
0000
0001
0100
1000
0100
,
0001
0000
0001
0000
1000
0100
0001
0100
,
1000
1000
0001
0100
,
0010
1000
0100
0010
0001
0000
0100
0000
,
0010
0000
0220
0330
1000
0000
0001
0000
,
1000
0100
1000
0001
0100
0000
0001
0000
,
1000
0001
0100
0010
,
0100
0001
0100
0010
1000
0000
0100
0000
,
0010
0001
0010
0100
,
1000
0001
1000
0100
0010
0000
0001
0100
,
0010
1000
0001
0010
,
0001
0100
0001
0010
0100
0000
1000
0100
,
0010
0000
0001
0000
1000
0010
1000
0100
,
2000
0010
0100
0001
,
0100
0000
3010
0000
0001
0010
0001
0100
,
0002
0010
0100
1000
,
0100
0000
0013
0000
0001
0200
0010
0000
,
0001
0000
0310
0000
1000
0200
0010
0000
,
1000
0000
0310
0000
0001
0100
0001
0100
,
1000
0100
1000
0100
0001
0000
1000
0000
,
0220
0330
1001
0000
;

//---------------dance-single - ----------------
#NOTES:
     dance-single:
     :
     Easy:
     5:
     0.253,0.296,0.000,0.026,0.000:
0000
0000
0000
0000
,
0000
0000
0000
0000
,
0000
0000
0000
0000
,
0000
0000
0000
0000
,
0000
0000
0000
0000
,
0000
0001
0000
0001
,
0000
1000
0000
1000
,
0000
0010
0000
0010
,
0000
0100
0001
1000
,
0000
0001
0000
0100
,
0000
0010
0000
1000
,
0000
0100
0000
0001
,
0000
0100
0000
1000
,
0001
0000
0100
0000
,
1000
0000
0100
0000
,
0001
1000
0001
1000
,
0020
0000
0030
0000
,
1000
0000
0000
1000
0100
0000
0000
0100
,
0001
0000
0000
0001
0010
0000
0000
0010
,
1000
0000
0000
1000
0010
0000
0000
0010
,
0001
0000
0000
0001
0100
0000
0000
0100
,
1000
0100
0000
0010
,
0000
0001
0000
1000
,
0000
0010
0000
0100
,
0000
0001
0000
1000
,
0001
0000
1000
0000
,
0001
0000
1000
0000
,
0100
0000
0100
0000
,
0100
0000
1000
0000
,
0001
0000
0100
0010
,
1000
0000
0001
0000
,
0010
0000
0100
1000
,
0001
0000
0100
0000
,
0001
0000
0010
0100
,
1000
0000
0001
0000
,
1000
0000
0010
0100
,
0001
1000
0100
0000
,
0010
0000
0100
1000
,
0001
0000
0100
0000
,
0010
0000
0100
0001
,
1000
0000
0100
0000
,
0010
0000
0100
1000
,
0001
0000
0010
0000
,
0001
0000
0100
0010
,
1000
0010
0100
0100
,
0001
0001
0100
0001
,
0100
0000
0010
0010
,
1000
1000
0010
1000
,
0010
0000
1000
1000
,
0100
0100
1000
0100
,
1000
0000
0001
0001
,
0010
0010
0001
0010
,
0001
0000
1000
0100
,
0001
0000
0001
0100
,
1000
0000
0001
0100
,
1000
0000
1000
0100
,
0001
0000
1000
0010
,
0001
0000
0001
0010
,
1000
0000
0001
0010
,
1000
0000
1000
0010
,
0001
2000
3001
0100
,
0001
0000
1000
0100
,
1000
0000
0001
0010
,
0001
0000
1000
0010
,
1000
0000
0001
0010
,
0100
0000
1000
0010
,
0100
0000
0001
0100
,
0010
0000
1000
0100
,
0010
0000
0001
0100
,
0001
1000
0100
0010
,
0100
0000
1000
0100
,
0010
0100
1000
0001
,
0100
0000
0010
0100
,
0001
0000
0010
0100
,
1000
0000
0010
0010
,
0010
0010
0020
0000
,
0030
0000
0100
0000
;

//---------------dance-single - ----------------
#NOTES:
     dance-single:
     :
     Beginner:
     3:
     0.129,0.164,0.000,0.017,0.000:
0000
0000
0000
0000
,
0000
0000
0000
0000
,
0000
0000
0000
0000
,
0000
0000
0000
0000
,
0000
0000
0000
0000
,
0000
0001
0000
0000
,
0000
1000
0000
0000
,
0000
0010
0000
0000
,
0000
0100
0000
0100
,
0000
0100
0000
0000
,
0000
0001
0000
0000
,
0000
1000
0000
0000
,
0000
0100
0000
0000
,
0100
0000
0100
0000
,
1000
0000
1000
0000
,
0001
0000
0001
0000
,
0200
0000
0300
0000
,
0010
0000
0000
0000
,
0100
0000
0000
0000
,
0001
0000
0000
0000
,
1000
0000
0000
0000
,
0100
0000
0000
0000
,
0100
0000
0000
0000
,
0001
0000
0001
0000
,
0001
0000
0000
0000
,
1000
0000
0000
0000
,
1000
0000
0000
0000
,
0100
0000
0100
0000
,
0100
0000
0100
0000
,
0000
0000
1000
0000
,
0000
0000
0001
0000
,
0000
0000
0100
0100
,
0100
0000
0010
0000
,
0000
0000
1000
0000
,
0000
0000
0001
0000
,
0000
0000
0010
0010
,
0010
0000
0001
0000
,
0001
0000
0001
0000
,
0000
0000
1000
0000
,
1000
0000
1000
0000
,
0000
0000
0100
0000
,
0100
0000
0100
0000
,
0000
0000
0010
0000
,
0010
0000
0010
0000
,
0000
0000
0100
0000
,
0000
0000
1000
0000
,
0000
0000
0001
0000
,
0000
0000
0100
0100
,
0100
0000
0100
0000
,
0000
0000
0001
0000
,
0000
0000
1000
0000
,
0000
0000
0100
0100
,
0100
0000
0100
0000
,
0100
0000
1000
0000
,
1000
0000
0001
0000
,
0001
0000
0100
0000
,
0100
0000
0001
0000
,
0000
0000
1000
0000
,
0000
0000
0100
0100
,
0100
0000
0100
0000
,
0000
0000
0010
0000
,
0000
0000
0001
0000
,
0000
0000
1000
0000
,
0000
0000
0010
0000
,
0010
0000
0010
0000
,
0000
0000
0100
0000
,
0000
0000
0001
0000
,
0000
0000
1000
0000
,
1000
0000
1000
0000
,
0000
0000
0100
0000
,
0000
0000
0010
0000
,
0000
0000
0001
0001
,
0001
0000
0001
0000
,
0000
0000
1000
0000
,
0000
0000
0001
0001
,
0001
0000
0200
0000
,
0300
0000
1000
0000
;

//---------------dance-double - ----------------
#NOTES:
     dance-double:
     :
     Hard:
     13:
     0.629,0.624,0.446,0.052,0.107:
00000000
00000000
00000000
00000000
,
00000000
00000000
00000000
00000000
,
00000000
00000000
00000000
00000000
,
00000000
00000000
00000000
00000000
,
00000000
00000000
00000000
00000000
,
00011000
00010000
00000000
01000000
00000000
10000000
00000000
00100000
,
00000000
00010000
00000000
00001000
00000000
00000100
00000000
00000001
,
00000000
00000010
00000000
00001000
00000000
00010000
00000000
01000000
,
00000000
10000000
00010000
01000000
00010000
00100000
00001000
00000000
,
00011000
00000000
00001100
00000000
00000100
00000001
00000010
00000000
,
00001100
00000000
00011000
00000000
00010000
01000000
10000000
00000000
,
10100000
00000000
01010000
00000000
10000000
01000000
00010000
00000000
,
00011000
00000000
00001010
00000000
00000010
00000001
00000100
00000000
,
00000001
00000100
00001000
00000000
00000100
00000010
00010000
00000000
,
00001000
01000000
00100000
00000000
10000000
01000000
00010000
00000000
,
00001000
00010000
01000000
00010000
00001000
00000010
00000001
00000100
,
00001000
00010000
00011000
00001000
,
00010000
00000000
00000000
01000000
00000000
00000000
10000000
00000000
01000000
00000000
00000000
00010000
00000000
00000000
00000100
00000000
,
00001000
00000000
00000000
00000001
00000000
00000000
00000100
00000000
00001000
00000000
00000000
00010000
00000000
00100000
00000000
00000000
,
00010000
00000000
00000000
01000000
00000000
00000000
10000000
00000000
00010000
00000000
00000000
01000000
00000000
00000000
00001000
00000000
,
00010000
00000000
00000000
00001000
00000000
00000000
00000100
00000000
00000001
00000000
00000000
00000010
00000000
00000100
00000000
00000000
,
00001100
00000000
00000100
00010000
00001000
00000000
00001000
01000000
,
00100000
01000000
00001000
00000000
00010000
01000000
10000000
01000000
,
00010000
00000000
00001000
00000010
00000100
00000000
00001000
00000001
,
00000100
00001000
01000000
00010000
00100000
01000000
10000000
00010000
,
10010000
00000000
11000000
00000000
00010000
01000000
00001000
00000000
,
01001000
00000000
00011000
00000000
00010000
00000100
00001000
00000000
,
00001100
00000000
00001000
01000000
00010000
01000000
10000000
00010000
,
10000000
00000000
00001001
00000000
00000001
00000100
00001000
00000000
,
00010000
00001000
00010000
01000000
10000000
00100000
00010000
00000000
,
00001000
00010000
00001000
00000100
00000001
00000010
00001000
00000000
,
00010000
00001000
00010000
01000000
10000000
01000000
00010000
00000000
,
00001000
00000000
00010000
00000100
00000000
00001000
00000010
00000000
00000100
00000000
00001000
00000000
00010000
00000000
00000000
00000000
,
00100000
10000000
01000000
00010000
00001000
00000010
00000001
00000000
,
00000100
00001000
00010000
00001000
00000100
00000001
00000010
00000000
,
00001000
00010000
01000000
10000000
01000000
00010000
00000100
00000000
,
00001000
00000000
00000010
00010000
00000000
00001000
00100000
00000000
00010000
00000000
10000000
00000000
01000000
00000000
00010000
00000000
,
00001000
00000000
00000000
00001000
00000000
00000000
00001000
00000000
01000000
00000000
10000000
00000000
01000000
00000000
00001000
00000000
,
00010000
00000000
00000000
00010000
00000000
00000000
00010000
00000000
00000010
00000000
00001000
00000000
00000100
00000000
00000010
00000000
,
00000001
00000000
00000000
00000001
00000000
00000000
00000001
00000000
00000100
00000000
00010000
00000000
01000000
00000000
00100000
00000000
,
10000000
00000000
00000000
10000000
00000000
00000000
10000000
00000000
00010000
00000000
01000000
00000000
10000000
00000000
01000000
00000000
,
00010000
01000000
10000000
01000000
00001000
00000100
00001000
01000000
,
00001000
00000100
00001000
01000000
00001000
00000100
00000001
00000100
,
00001000
00000000
00000100
00000000
00000001
00000000
00000100
00000000
00000000
00000000
00001000
00000000
00000000
00010000
00000000
00000000
,
00100000
00000000
00000000
10000000
00000000
00000000
00010000
00000000
00110000
00000000
00000000
00000000
11000000
00000000
00000000
00000000
,
00110000
00000000
11000000
00000000
10000000
01000000
00010000
00001000
,
00000010
00000001
00000100
00000000
00000101
00000000
00001010
00000000
,
00000101
00000000
00001010
00000000
00000001
00000100
00001000
00010000
,
00100000
10000000
01000000
00100000
01100000
00000000
10010000
00000000
,
01100000
00000000
10010000
00000000
10000000
01000000
00010000
00000100
,
00001000
00000010
00000100
00000001
00001001
00000000
00000110
00000000
,
00001001
00000000
00000110
00000000
00000010
00001000
00000100
01000000
,
00010000
00100000
01000000
10000000
10010000
00000000
00011000
00000000
,
00001001
00000000
00011000
00000000
10000000
01000000
00010000
00001000
,
00000001
00000100
00001000
00000001
00001001
00000000
00011000
00000000
,
10010000
00000000
00011000
00000000
00000001
00000100
00001000
00010000
,
10000000
01000000
00010000
10000000
10010000
00000000
10000000
01000000
,
00010000
00000000
00000000
00001000
00000000
00000000
01000000
00000000
00000000
00000000
00001000
00000000
00010000
00000000
00000100
00000000
,
00000010
00000000
00000001
00002000
00000000
00000200
00000000
00000000
,
00000000
00000000
00003300
00000000
00001000
00000100
00010000
01000000
,
00001000
00000100
00000020
00000032
00000103
00001000
00001000
00010000
,
00010000
00100000
00100000
10000000
01000000
00010000
00010000
00001000
,
00010000
01000000
10000000
00000000
00010000
01000000
00001000
00001000
,
00010000
00010000
00000100
00001000
00000010
00000100
00000001
00000001
,
00001000
00001000
00000100
00000000
00010000
00001000
00010000
01000000
,
01000000
00010000
00001000
00010000
00000010
00000100
00001000
00010000
,
00010000
00100000
10000000
00000000
00010000
01000000
00001000
00010000
,
00000100
00000100
00000010
00000010
00000001
00000100
00001000
00010000
,
00100000
10000000
10010000
00000000
10000000
00010000
01000000
00001000
,
00010000
00000100
00010000
00000000
00000010
00000000
00000100
00000000
00000001
00000000
00001000
00000000
00000100
00000000
00010000
00000000
,
00001000
01000000
00001000
00000000
00100000
00000000
01000000
00000000
10000000
00000000
00010000
00000000
00100000
00000000
00001000
00000000
,
00010000
00000010
00010000
00000000
00000100
00000000
00000010
00000000
00000001
00000000
00001000
00000000
00000010
00000000
00010000
00000000
,
00001000
00100000
00001000
00000000
01000000
00000000
00100000
00000000
10100000
00000000
00000000
00000000
00110000
00000000
00000000
00000000
,
00011000
00001010
00000011
00000101
,
00001100
00000000
00011000
00000000
00001000
00010000
01000000
10000000
,
00100000
00010000
00001000
00000100
00000020
00000000
00000030
00000000
,
00200000
00300000
00011000
00000000
;

//---------------dance-double - ----------------
#NOTES:
     dance-double:
     :
     Medium:
     10:
     0.468,0.460,0.034,0.052,0.052:
00000000
00000000
00000000
00000000
,
00000000
00000000
00000000
00000000
,
00000000
00000000
00000000
00000000
,
00000000
00000000
00000000
00000000
,
00000000
00000000
00000000
00000000
,
00010000
00000000
01000000
00000000
00010000
01000000
10000000
00000000
,
00100000
00000000
00010000
00000000
00100000
00010000
00001000
00000000
,
00000100
00000000
00000001
00000000
00000100
00000001
00000010
00000000
,
00000100
00020000
00032000
02003000
,
03100000
00000000
00100000
00000000
01000000
00010000
00100000
00000000
,
00001000
00000000
00001000
00000000
00010000
00000100
00001000
00000000
,
00000010
00000000
00000010
00000000
00001000
00000100
00010000
00000000
,
00001000
00000000
00001000
00000000
01000000
00010000
10000000
00000000
,
01000000
00100000
00100000
00001000
,
00001000
00010000
00010000
00000100
,
00000010
00000001
00000100
00000000
00000010
00010000
00001000
00000000
,
01000000
00010000
20000000
31000000
,
00100000
00000000
00000000
00100000
00000000
00000000
00100000
00000000
00001000
00000000
00000000
00001000
00000000
00000000
00001000
00000000
,
00010000
00000000
00000000
00010000
00000000
00000000
00010000
00000000
00001000
00000000
00000000
00001000
00000000
00001000
00000000
00000000
,
00000001
00000000
00000000
00000001
00000000
00000000
00000001
00000000
00000100
00000000
00000000
00000100
00000000
00000000
00000100
00000000
,
00010000
00000000
00000000
00010000
00000000
00000000
00010000
00000000
00001000
00000000
00000000
00001000
00000000
00001000
00000000
00000000
,
01000000
00000000
00010000
00000000
00100000
01000000
00000000
00000000
,
10000000
01000000
00010000
00001000
,
00000010
00000000
00000001
00000000
00000100
00000010
00000000
00000000
,
00001000
00000100
00000000
00000010
00000000
00000001
00000100
00000000
,
00000010
00010000
00001000
00100000
,
00010000
01000000
00001000
00010000
,
00000100
00000010
00000001
00000000
00001000
00000100
00010000
00000000
,
00001000
00000000
01000000
00000000
00010000
10000000
01000000
00000000
,
01000000
00000000
00100000
00000000
00010000
01000000
00001000
00000000
,
00001000
00000000
00010000
00000000
00000010
00001000
00000100
00000000
,
00000010
00000000
00000010
00000000
00000001
00000100
00000010
00000000
,
00001000
00000000
00001000
00000000
00000100
00010000
00001000
00000000
,
01000000
00000000
01000000
00000000
00010000
00100000
01000000
00000000
,
10000000
00000000
10000000
00000000
01000000
00100000
00010000
00000000
,
01000000
00000000
01000000
00000000
00001000
00010000
00001000
00010000
,
00000100
00000000
00000100
00000000
00000010
00000001
00000100
00000000
,
00000010
00000000
00001010
00000000
00001000
00000100
00010000
00000000
,
00001000
00000000
01001000
00000000
01000000
00010000
00100000
00000000
,
01000000
00000000
11000000
00000000
10000000
00010000
01000000
00000000
,
00001000
00010000
00001000
00000100
00000010
00001000
00000100
00000000
,
00000100
00010000
00000010
00000000
00010000
00001000
00100000
00000000
,
00100000
00010000
01000000
00000000
00100000
10000000
01000000
00000000
,
00010000
00000000
00001000
00000000
01000000
00000000
00000000
00000000
01000000
00000000
00010000
00000000
00000000
01000000
00000000
00000000
,
00001000
00000000
00000000
00010000
00000000
00000000
00000100
00000000
00000010
00000000
00000000
00000000
00000001
00000000
00000000
00000000
,
00001000
00000100
00000000
00010000
00001000
00000000
01000000
00000000
,
10000000
01000000
00010000
00100000
,
01000000
00010000
00000000
00001000
00000001
00000000
00000100
00000000
,
00001000
00000010
00000000
00010000
00001000
00000000
01000000
00000000
,
00100000
10000000
00000000
00010000
00100000
00000000
00001000
00000000
,
00010000
00000100
00000000
00000010
00000100
00000000
00001000
00000000
,
00000001
00000100
00000000
00000010
00001000
00000100
00000000
00001000
,
00000100
00010000
00001000
00000000
01000000
00000000
00010000
00100000
,
01000000
00100000
00010000
00000000
01000000
00000000
00001000
00010000
,
00100000
00010000
00001000
00000000
00010000
00000000
00000100
00000010
,
00000001
00000010
00000100
00000000
00001000
00000000
00000010
00000100
,
00001000
00000100
00000001
00001000
00000100
00000000
00010000
00000000
,
10000000
00010000
00001000
01000000
,
00100000
10000000
01000000
00010000
,
00001000
00000000
00000100
00000000
00000001
00000010
00001000
00010000
,
01000000
10000000
00010000
00000000
10000000
01000000
10000000
01000000
,
00100000
00000000
00100000
00000000
00010000
01000000
00010000
01000000
,
00001000
00000000
00001000
00000000
00010000
00001000
00010000
00001000
,
00000010
00000000
00000010
00000000
00000001
00000100
00000001
00000100
,
00000010
00000000
00000010
00000000
00001000
00000100
00001000
00000100
,
00010000
00000000
00010000
00000000
00001000
01000000
00001000
01000000
,
00100000
00000000
00100000
00000000
10000000
01000000
10000000
01000000
,
00010000
00000000
00010000
00000000
00001000
01000000
00001000
01000000
,
00100000
00000000
00100000
00000000
00010000
00001000
00000100
00000000
,
00000001
00000000
00000010
00000000
00001000
00010000
01000000
00000000
,
10000000
00000000
00100000
00000000
00010000
00001000
00000100
00000000
,
00000001
00000000
00000010
00000000
00001000
00010000
01000000
00000000
,
10000000
00100000
00010000
00100000
,
10000000
01000000
00010000
00001000
,
00000010
00000000
00000001
00000000
00000001
00000100
00001000
00010000
,
01000000
10000000
01000000
00010000
00002000
00000000
00000000
00000000
,
00020000
00033000
00011000
00000000
;

//---------------dance-double - ----------------
#NOTES:
     dance-double:
     :
     Easy:
     6:
     0.280,0.296,0.009,0.000,0.000: // measure 1
00000000
00000000
00000000
00000000
,  // measure 2
00000000
00000000
00000000
00000000
,  // measure 3
00000000
00000000
00000000
00000000
,  // measure 4
00000000
00000000
00000000
00000000
,  // measure 5
00000000
00000000
00000000
00000000
,  // measure 6
00010000
01000000
10000000
01000000
,  // measure 7
00010000
00001000
00000100
00000000
,  // measure 8
00000001
00001000
00000100
00010000
,  // measure 9
00001000
01000000
00010000
00000000
,  // measure 10
10000000
01000000
00100000
00000000
,  // measure 11
00100000
00001000
00010000
00000000
,  // measure 12
00010000
00000100
00001000
00000000
,  // measure 13
00001000
00000010
00000100
00000000
,  // measure 14
00000100
00000000
00000001
00000000
,  // measure 15
00001000
00000000
00000100
00000000
,  // measure 16
00010000
00001000
00100000
00010000
,  // measure 17
01000000
00000000
00100000
00000000
,  // measure 18
01000000
00000000
00000000
01000000
00010000
00000000
00000000
00010000
,  // measure 19
00100000
00000000
00000000
00100000
00001000
00000000
00000000
00001000
,  // measure 20
00010000
00000000
00000000
00010000
00000100
00000000
00000000
00000100
,  // measure 21
00001000
00000000
00000000
00001000
00000001
00000000
00000000
00000001
,  // measure 22
00000100
00000000
00000100
00000000
,  // measure 23
00000010
00001000
00000100
00010000
,  // measure 24
00001000
00000000
00001000
00000000
,  // measure 25
00100000
00010000
00100000
01000000
,  // measure 26
10000000
00000000
10000000
01000000
,  // measure 27
00010000
00000000
00001000
00010000
,  // measure 28
00001000
00000100
00000001
00001000
,  // measure 29
00000001
00000000
00001000
00000100
,  // measure 30
00010000
00000000
00010000
00001000
,  // measure 31
01000000
00000000
01000000
00010000
,  // measure 32
00100000
00000000
00100000
01000000
,  // measure 33
10000000
00000000
10000000
01000000
,  // measure 34
00010000
00000000
00010000
00001000
,  // measure 35
00010000
00000000
00010000
00001000
,  // measure 36
00000100
00000000
00000100
00000001
,  // measure 37
00000010
00000000
00000010
00000001
,  // measure 38
00000100
00000000
00000100
00000010
,  // measure 39
00001000
00000000
00001000
00000100
,  // measure 40
00010000
00000000
00010000
00001000
,  // measure 41
00100000
00000000
00100000
01000000
,  // measure 42
10000000
00000000
10000000
00100000
,  // measure 43
01000000
00000000
01000000
00001000
,  // measure 44
00010000
00000000
00010000
00001000
,  // measure 45
00100000
00000000
00001000
00001000
,  // measure 46
00010000
00010000
00000100
00000100
,  // measure 47
00001000
00000000
00000010
00000010
,  // measure 48
00000100
00000100
00000001
00000001
,  // measure 49
00001000
00000000
00000100
00000100
,  // measure 50
00010000
00010000
00001000
00001000
,  // measure 51
01000000
00000000
00010000
00010000
,  // measure 52
10000000
10000000
00100000
00100000
,  // measure 53
01000000
00000000
00010000
01000000
,  // measure 54
10000000
01000000
00010000
00000000
,  // measure 55
01000000
00000000
00001000
00010000
,  // measure 56
00000100
00010000
00001000
00000000
,  // measure 57
00010000
00000000
00000100
00000010
,  // measure 58
00000001
00000010
00000100
00000000
,  // measure 59
00001000
00000000
00000010
00000010
,  // measure 60
00010000
00010000
00001000
01000000
,  // measure 61
00100000
10000000
01000000
00100000
,  // measure 62
01000000
00000000
10000000
00010000
,  // measure 63
10000000
00000000
00010000
01000000
,  // measure 64
00010000
00000000
01000000
00001000
,  // measure 65
01000000
00000000
00001000
00010000
,  // measure 66
00001000
00000000
00010000
00000100
,  // measure 67
00010000
00000000
00000100
00000010
,  // measure 68
00000100
00000000
00000010
00000001
,  // measure 69
00000010
00000000
00000001
00000100
,  // measure 70
00000010
00000000
00000100
00000010
,  // measure 71
00001000
00000000
00000010
00001000
,  // measure 72
00000100
00000000
00001000
00000100
,  // measure 73
00010000
00000000
00000100
00010000
,  // measure 74
00001000
00000000
00010000
00001000
,  // measure 75
01000000
00000000
00001000
01000000
,  // measure 76
00010000
00100000
01000000
00000000
,  // measure 77
00100000
00001000
00011000
00000000
;
