#TITLE:moonlife;
#SUBTITLE:;
#ARTIST:azu;
#TITLETRANSLIT:;
#SUBTITLETRANSLIT:;
#ARTISTTRANSLIT:;
#GENRE:;
#CREDIT:;
#MENUCOLOR:;
#METERTYPE:DDR;
#BANNER:moonlife.png;
#BACKGROUND:moonlife-bg.png;
#LYRICSPATH:;
#CDTITLE:cdtitle.png;
#MUSIC:moonlife.mp3;
#OFFSET:-0.025;
#SAMPLESTART:50.225;
#SAMPLELENGTH:15.000;
#SELECTABLE:YES;
#LISTSORT:;
#BPMS:0.000=172.000;
#STOPS:;
#BGCHANGES:;
#ATTACKS:;

//---------------dance-single - ----------------
#NOTES:
     dance-single:
     :
     Hard:
     13:
     0.627,0.628,0.386,0.331,0.285:
0000
0000
0000
0000
,
0000
0000
0000
0000
,
0000
0000
0000
0000
,
0000
0000
0000
0000
,
0010
0000
0101
0000
0000
1000
1100
0000
,
0100
0000
1010
0000
0000
0001
0011
0000
,
0010
0000
1100
0000
0000
0001
0101
0000
,
1000
0000
0011
0000
0000
0100
1100
0000
,
0010
0000
0101
0000
0001
1000
1100
0000
,
0010
0000
1100
0000
0010
0100
0101
0000
,
1000
0000
0011
0000
0010
0100
1001
0000
,
0010
0000
0010
0000
0010
0000
0010
0000
0010
0000
0010
0000
0010
0000
0010
0100
,
0010
0000
1000
0000
0001
0000
0000
0010
0000
0000
0010
0000
0100
0000
0000
0000
,
1000
0000
0010
0000
0100
0000
0000
0001
0010
0000
0001
0000
0010
0000
0000
0010
,
0100
0000
1000
0000
0001
0000
0000
0010
0000
0000
0010
0000
1000
0000
0000
0000
,
0010
0000
0001
0000
0100
0000
0000
0010
0100
0000
0010
0000
1000
0000
0000
0001
,
0010
0000
0000
0000
0001
0000
0000
0100
0000
0000
0100
0000
0010
0000
0000
0000
,
1000
0000
0100
0000
0010
0000
0000
0001
0100
0000
0001
0000
0010
0000
0000
0100
,
1000
0000
0010
0000
0100
0000
0000
1000
0000
0000
1000
0000
0100
0000
0000
0000
,
0010
0000
0010
0000
0010
0000
0010
0000
0010
1000
0010
0000
0010
0100
0010
0000
,
2000
0100
3200
0010
,
0320
0001
0032
0100
,
0203
0000
0010
0010
,
0320
1000
2030
0001
,
3002
0000
0010
0010
,
0023
0100
0230
1000
,
2300
0010
3020
0001
,
0032
0100
0203
1000
,
2300
0010
3020
0100
,
0230
0001
0302
0010
,
0023
0000
0000
0000
0100
0000
0230
2300
,
3002
0000
0100
0203
,
0320
1000
2030
0100
,
3200
0010
0320
0001
,
0032
0100
0100
0100
,
0103
0000
0000
0100
0010
0000
1000
0000
0100
0010
0000
0100
1000
0000
0001
0100
,
0010
0000
0000
1000
0100
0000
0000
1000
0010
0000
0100
0000
0001
0000
0001
0000
,
0010
0000
0000
0100
1000
0000
0000
0010
1000
0000
0010
0000
0100
0000
0100
0000
,
0001
0000
0000
0010
0001
0000
0000
0100
0001
0000
0010
0000
0100
0000
0100
0000
,
1000
0000
0000
0010
1000
0000
0000
0100
1000
0000
0010
0000
0100
0000
0100
0000
,
0001
0000
0000
1000
0100
0000
0000
0001
0100
0000
1000
0000
0010
0000
0100
0000
,
0001
0000
0000
0010
1000
0000
0000
0010
0001
0000
0100
0000
0010
0000
1000
0000
,
0001
0000
0000
0100
1000
0000
0000
0100
0001
0000
0010
0000
0100
0000
1000
0000
,
0010
0000
1000
0000
0100
0000
0010
0000
0001
0000
0001
0000
0010
0100
0000
0100
,
0010
0000
0000
0001
0100
0000
0000
0001
0010
0000
0100
0000
1000
0000
1000
0000
,
0010
0000
0000
0100
0001
0000
0000
0010
0001
0000
0010
0000
0100
0000
1000
0100
,
1000
0000
0000
0010
1000
0000
0000
0100
1000
0000
0010
0000
0100
0000
0100
0000
,
0001
0000
0000
0010
0001
0000
0000
0100
0001
0000
0010
0000
0100
0000
1000
0100
,
1000
0000
0000
0001
0100
0000
0000
1000
0100
0000
0001
0000
0010
0000
0100
0000
,
1000
0000
0000
0010
0001
0000
0000
0010
1000
0000
0100
0000
0010
0000
0001
1000
,
0001
0000
0000
0100
1000
0000
0000
0100
0001
0000
0010
0000
0100
0000
1000
0000
,
0010
1000
0010
1000
0010
1000
0010
1000
,
0001
0000
0010
0100
1001
0000
0010
0100
,
0001
0110
1100
1001
,
0001
0000
0000
0010
0000
0000
0100
0000
1001
0000
0000
0000
0010
0000
0100
0000
,
1000
0000
0000
0000
0110
0000
0000
0000
0101
0000
0001
0000
1000
0010
1000
0010
,
1000
0000
0100
1000
0011
0000
0001
0100
,
0010
1010
0110
0101
,
0001
0000
0000
1000
0000
0000
0100
0000
0011
0000
0000
0000
1000
0000
0010
0000
,
0100
0000
0000
0000
0011
0000
0000
0000
0110
0000
0100
0000
1000
0010
1000
0010
,
1000
0000
0001
0010
1100
0000
0001
0100
,
0010
1100
0101
1001
,
0010
0000
0000
0100
0000
0000
0001
0000
1010
0000
0000
0000
0001
0000
0010
0000
,
0100
0000
0000
0000
1100
0000
0000
0000
0101
0000
0001
0000
0100
0010
0100
0010
,
0100
0000
0010
1000
1001
0000
0001
0010
,
0100
1010
0011
1001
,
0100
0000
0000
0010
0000
0000
1000
0000
0101
0000
0000
0000
0001
0000
0010
0000
,
0100
0000
0000
0000
1100
0000
0000
0000
0101
0000
0100
0000
0010
1000
0001
1000
,
0002
0000
0000
0000
,
0023
0000
0000
0000
,
0230
0000
0000
0000
,
2300
0000
0000
0000
,
3002
0000
0000
0000
,
0203
0000
0000
0000
,
0320
0000
0000
0000
,
2030
0000
0000
0000
,
3000
0000
0000
0000
;

//---------------dance-single - ----------------
#NOTES:
     dance-single:
     :
     Medium:
     10:
     0.503,0.628,0.276,0.331,0.028: // measure 1
0000
0000
0000
0000
,  // measure 2
0000
0000
0000
0000
,  // measure 3
0000
0000
0000
0000
,  // measure 4
0000
0000
0000
0000
,  // measure 5
1000
1000
1000
1000
,  // measure 6
0100
0100
0100
0100
,  // measure 7
0001
0001
0001
0001
,  // measure 8
0010
0010
0010
0010
,  // measure 9
1000
1000
0100
0100
,  // measure 10
0001
0001
0010
0010
,  // measure 11
1000
0100
0010
0001
,  // measure 12
0100
0010
0100
0010
0100
0010
0100
0000
,  // measure 13
0001
0000
1000
0000
0100
0000
0000
0100
0000
0000
0100
0000
1000
0000
0000
0000
,  // measure 14
0010
0101
0010
1100
,  // measure 15
0001
0000
0100
0000
0010
0000
0000
0010
0000
0000
0010
0000
1000
0000
0000
0000
,  // measure 16
0001
1100
1000
0101
,  // measure 17
1000
0000
0010
0000
0100
0000
0000
0100
0000
0000
0100
0000
0001
0000
0000
0000
,  // measure 18
0010
1100
0010
0101
,  // measure 19
0001
0000
1000
0000
0100
0000
0000
0100
0000
0000
0100
0000
0010
0000
0000
0000
,  // measure 20
0001
1000
0001
1000
0020
0130
0002
1003
,  // measure 21
0120
0000
2030
0000
,  // measure 22
3200
0000
0320
0000
,  // measure 23
0032
0000
0000
0000
,  // measure 24
0203
0000
0320
0000
,  // measure 25
2030
0000
0000
0000
,  // measure 26
3200
0000
0302
0000
,  // measure 27
0023
0000
0032
0000
,  // measure 28
0203
0000
0000
0300
,  // measure 29
2000
0000
3020
0000
,  // measure 30
0230
0000
0302
0000
,  // measure 31
0023
0000
0000
0000
0000
0000
0130
1000
,  // measure 32
0002
0000
0003
0010
,  // measure 33
0020
0000
2030
0000
,  // measure 34
3200
0000
2300
0000
,  // measure 35
3020
0000
0000
0000
,  // measure 36
0032
1000
1000
1003
,  // measure 37
0001
0100
0010
0000
0001
0100
0110
0000
,  // measure 38
1000
0100
0010
0000
1000
0100
0110
0000
,  // measure 39
0001
1000
0100
0000
0001
1000
1100
0000
,  // measure 40
1000
0001
0100
0000
1000
0001
0101
0000
,  // measure 41
0010
1000
0100
0000
0010
1000
1100
0000
,  // measure 42
0010
0001
0100
0000
0010
0001
0101
0000
,  // measure 43
0001
0100
1000
0000
0001
0100
1100
0000
,  // measure 44
1000
0100
0001
0000
1000
0100
0101
0000
,  // measure 45
1000
0100
0010
0100
1000
0010
0100
0000
,  // measure 46
0001
0100
0010
0000
0001
0100
1010
0000
,  // measure 47
1000
0001
0100
0010
0100
0001
0010
0000
,  // measure 48
0100
1000
0010
0000
0100
1000
0011
0000
,  // measure 49
1000
0001
0100
0010
1000
0100
0001
0000
,  // measure 50
1000
0010
0001
0000
1000
0010
0101
0000
,  // measure 51
0010
1000
0001
0010
0100
1000
0100
0000
,  // measure 52
2000
0001
0000
0001
0000
0001
0000
3001
,  // measure 53
0100
0000
0010
1000
1001
0000
0010
0100
,  // measure 54
1000
0001
1000
0100
0010
0000
1001
0000
,  // measure 55
0001
0000
0010
1000
1100
0000
0010
0001
,  // measure 56
0100
0010
0100
0001
0010
0000
1100
0000
,  // measure 57
0001
0000
0100
0010
1010
0000
0001
0100
,  // measure 58
1000
0001
1000
0100
0001
0000
1000
0010
,  // measure 59
0110
0000
0000
0100
0000
0000
0100
0000
0001
0000
0000
0000
0010
0000
0100
0000
,  // measure 60
0001
1000
0001
0100
0010
0000
0001
1000
,  // measure 61
0100
0000
0010
0001
1001
0000
0010
0100
,  // measure 62
0001
1000
0001
0100
0010
0000
1001
0000
,  // measure 63
1000
0000
0010
0001
0101
0000
0010
1000
,  // measure 64
0100
0010
0100
1000
0010
0000
0101
0000
,  // measure 65
1000
0000
0100
0010
0011
0000
1000
0100
,  // measure 66
0001
1000
0001
0100
1000
0000
0001
0010
,  // measure 67
0110
0000
0000
0100
0000
0000
0100
0000
1000
0000
0000
0000
0010
0000
0100
0000
,  // measure 68
1000
0001
1000
0100
0010
0000
1000
0001
,  // measure 69
0200
0000
0000
0000
,  // measure 70
0320
0000
0000
0000
,  // measure 71
2030
0000
0000
0000
,  // measure 72
3200
0000
0000
0000
,  // measure 73
0302
0000
0000
0000
,  // measure 74
0023
0000
0000
0000
,  // measure 75
0230
0000
0000
0000
,  // measure 76
2300
0000
0000
0000
,  // measure 77
3000
0000
0000
0000
;

//---------------dance-single - ----------------
#NOTES:
     dance-single:
     :
     Easy:
     8:
     0.358,0.417,0.129,0.147,0.000: // measure 1
0000
0000
0000
0000
,  // measure 2
0000
0000
0000
0000
,  // measure 3
0000
0000
0000
0000
,  // measure 4
0000
0000
0000
0000
,  // measure 5
1000
0100
0000
0100
,  // measure 6
0010
0001
0000
0001
,  // measure 7
0100
0010
0000
0010
,  // measure 8
1000
0100
0000
0100
,  // measure 9
0010
0001
0010
0100
,  // measure 10
1000
0010
0100
0001
,  // measure 11
0010
0010
0100
0100
,  // measure 12
1000
0001
1000
0000
0001
1000
0001
0000
,  // measure 13
0010
0000
0100
0000
1000
0010
0100
0000
,  // measure 14
0001
0000
0100
0000
0001
0010
0100
0000
,  // measure 15
1000
0000
0100
0000
0010
0001
0100
0000
,  // measure 16
0010
0000
1000
0000
0010
0100
0001
0000
,  // measure 17
0010
0000
0100
0000
0010
0001
1000
0000
,  // measure 18
0010
0000
0100
0000
0001
0010
0100
0000
,  // measure 19
1000
0000
0010
0000
0100
0001
0010
0000
,  // measure 20
0100
0010
0100
0000
0100
0010
0100
0000
,  // measure 21
0100
0000
1000
0000
,  // measure 22
0010
0000
0100
0000
,  // measure 23
0002
0000
0003
0000
,  // measure 24
0010
0000
0100
0000
,  // measure 25
2000
0000
3000
0000
,  // measure 26
0100
0000
0010
0000
,  // measure 27
0001
0000
1000
0000
,  // measure 28
0002
0000
0003
0000
,  // measure 29
0100
0000
0010
0000
,  // measure 30
1000
0000
0100
0000
,  // measure 31
0020
0000
0000
0000
0030
0000
0001
1000
,  // measure 32
0002
0000
0003
0010
,  // measure 33
0010
0000
0100
0000
,  // measure 34
1000
0000
0100
0000
,  // measure 35
0020
0000
0030
0000
,  // measure 36
2002
0000
3003
0000
,  // measure 37
1000
0000
0100
0000
0010
0100
1000
0000
,  // measure 38
0010
0100
0001
0000
0010
0000
0110
0000
,  // measure 39
1000
0000
0001
0000
0100
0010
1000
0000
,  // measure 40
0100
0010
0001
0000
0100
0000
0110
0000
,  // measure 41
0001
0000
1000
0000
0100
0010
1000
0000
,  // measure 42
0010
0001
0100
0000
0010
0000
0110
0000
,  // measure 43
1000
0001
0100
0000
0001
1000
0100
0000
,  // measure 44
0010
0001
0100
1000
,  // measure 45
0010
0000
0001
0000
0100
0010
1000
0000
,  // measure 46
0100
0010
0100
0000
1000
0010
0100
0000
,  // measure 47
0001
0000
0100
0000
0010
1000
0001
0000
,  // measure 48
0010
0100
0001
0000
0100
1000
0001
0000
,  // measure 49
0100
0000
0010
0000
1000
0100
0001
0000
,  // measure 50
0100
1000
0010
0000
0100
0001
1000
0000
,  // measure 51
0100
0000
0010
0000
0001
0100
0010
0000
,  // measure 52
1000
1000
1000
1000
,  // measure 53
0001
0000
1001
0000
,  // measure 54
0001
0100
1000
0000
0100
0000
0010
0000
,  // measure 55
1000
0000
1001
0000
,  // measure 56
0001
0000
0110
0000
,  // measure 57
1000
0100
0010
0000
,  // measure 58
0001
0100
0010
0100
0001
0000
0000
0000
,  // measure 59
1000
0001
1001
0000
,  // measure 60
1000
0100
0010
0000
0110
0000
0000
0000
,  // measure 61
0001
0000
1001
0000
,  // measure 62
1000
0010
0110
0000
,  // measure 63
1000
0010
0100
0010
1000
0000
0000
0000
,  // measure 64
0100
0010
0110
0000
,  // measure 65
1000
0000
1001
0000
,  // measure 66
0001
0100
0010
0000
1000
0000
0000
0000
,  // measure 67
0100
0010
0001
0010
0100
0000
0000
0000
,  // measure 68
1000
0001
1001
1000
,  // measure 69
0200
0000
0000
0300
,  // measure 70
0020
0000
0000
0030
,  // measure 71
0002
0000
0000
0003
,  // measure 72
2000
0000
0000
3000
,  // measure 73
0020
0000
0000
0030
,  // measure 74
0200
0000
0000
0300
,  // measure 75
0002
0000
0000
0003
,  // measure 76
2000
0000
0000
3000
;
