#TITLE:ユミル;
#SUBTITLE:;
#ARTIST:MYTHOLOGIA by MLREC.;
#TITLETRANSLIT:Ymir;
#SUBTITLETRANSLIT:;
#ARTISTTRANSLIT:;
#GENRE:;
#CREDIT:;
#MENUCOLOR:;
#METERTYPE:DDR;
#BANNER:Ymir.png;
#BACKGROUND:Ymir-bg.png;
#LYRICSPATH:;
#CDTITLE:cdtitle.png;
#MUSIC:Ymir.mp3;
#OFFSET:-0.025;
#SAMPLESTART:83.070;
#SAMPLELENGTH:15.000;
#SELECTABLE:YES;
#LISTSORT:;
#BPMS:0.000=164.000;
#STOPS:;
#BGCHANGES:;
#ATTACKS:;

//---------------dance-single - ----------------
#NOTES:
     dance-single:
     :
     Hard:
     12:
     0.601,0.733,0.255,0.411,0.280:
0000
0000
0000
0000
,
0000
0000
0000
0000
,
0000
0000
0000
0000
,
0000
0000
0000
0000
,
0000
0000
0000
0000
,
0000
0000
0000
0000
,
0000
0000
0000
0000
,
0000
0000
0000
0000
,
0000
0000
0000
0000
,
2100
3010
0102
0013
,
0100
0000
1000
0000
0001
0000
0100
0010
,
2000
0000
3001
0010
0100
0000
1000
0000
,
0002
0013
0100
1000
,
0102
1000
0100
1003
,
0010
0100
0001
0010
,
2100
0010
3002
1000
,
0023
0100
0032
0100
,
1003
0000
0000
1100
0000
0000
0100
0000
0010
0000
0001
0000
0100
0000
0000
0000
,
0010
0100
0010
0100
0001
0010
0100
1000
,
0001
0100
0010
0100
0001
0010
0100
0000
,
1000
0100
0001
0100
1000
0010
0100
0001
,
0010
0000
0000
0110
0000
0000
0100
0000
1000
0000
0010
0000
0100
0000
0000
0000
,
0001
0010
0001
0100
0010
1000
0100
0000
,
0010
0100
1000
0001
0100
1000
0100
0001
,
1000
0010
1000
0001
0010
0001
1000
0100
0010
0002
0000
0000
,
1003
0000
0000
1010
0000
0000
0010
0000
0100
0000
0010
0000
1000
0000
0000
0000
,
0100
0001
0100
1000
0010
0100
0001
0000
,
0010
1000
0010
0001
0100
0010
1000
0100
,
0001
0100
1000
0010
0100
0001
1000
0010
,
0100
0000
0000
0101
0000
0000
0001
0000
1000
0000
0100
0000
0010
0000
0000
0000
,
0100
1000
0100
1000
0001
0100
0010
0000
,
0001
0010
1000
0010
0100
0001
1000
0100
,
0010
0000
0000
0000
0010
0000
0001
0000
0000
0000
0001
0000
1000
0000
0000
0000
1000
0000
0010
0000
0000
0100
0000
0000
,
0001
0000
0000
0001
0000
0000
1000
0000
0000
1000
0000
0000
0100
0000
0010
0000
,
0100
0000
0000
0100
0000
0000
1000
0000
0000
1000
0000
0000
0010
0000
0100
0000
,
0001
0000
0000
0001
0000
0000
0010
0000
0000
0010
0000
0000
0100
0000
1000
0000
,
0010
0000
0000
0010
0000
0000
0100
0000
0000
0100
0000
0000
0001
0000
1000
0000
,
0100
0000
0000
1100
0000
0000
1000
0000
0000
1001
0000
0000
0001
0000
0100
0000
,
0010
0000
0000
0110
0000
0000
0100
0000
0000
0101
0000
0000
0001
0000
0010
0000
,
0100
0000
0000
1100
0000
0000
1000
0000
0000
1010
0000
0000
0010
0000
0100
0000
,
0002
0000
0000
0000
0000
0000
0000
0003
,
1000
0000
0000
0100
0000
0000
0010
0000
0000
0100
0000
0100
1000
0000
0001
0000
,
0100
0000
0000
0010
0000
0000
0100
0000
0000
0001
0000
0001
0010
0000
0100
0000
,
1000
0000
0000
0001
0000
0000
0100
0000
0000
0010
0000
0010
1000
0000
0100
0000
,
0010
0000
0000
0100
0000
0000
1000
0000
0000
0001
0000
0001
0100
0000
0010
0000
,
0100
0000
0001
0000
0100
0000
0001
0010
0000
0010
0001
0000
0100
0000
0010
0000
,
1000
0000
0100
0000
0010
0000
0100
1000
0000
1000
0001
0000
0100
0000
0010
0000
,
0100
0000
0001
0000
0010
0000
0100
1000
0000
1000
0001
0000
0100
0000
0001
0000
,
0010
0000
0100
0000
1000
0000
0010
0100
0000
0100
0001
0000
0010
0000
0100
0000
,
2000
0010
3001
0200
0010
0301
0020
0000
,
0032
0010
1003
0020
0100
1030
0200
0000
,
2300
0100
3001
0020
0100
0031
0200
0300
,
2002
0000
0000
0000
0000
0000
3003
0000
1000
0001
1000
0000
0100
0000
0010
0000
,
0002
1000
0103
0020
0100
1030
0200
0000
,
2300
0001
3010
0200
0010
0301
0020
0030
,
0011
0000
1000
1100
0000
0001
0101
0000
,
1001
0001
0010
0100
1000
0000
0001
0000
,
2100
0000
3001
0100
0020
0000
1030
0001
,
0020
0000
0130
0001
0100
0010
0100
1000
,
0020
0000
0130
0001
1000
0100
0010
0001
,
1002
0000
0100
0000
0103
0000
0010
1000
,
0200
0000
0310
0001
0200
0000
1300
0100
,
0002
0000
0013
0100
2000
0000
3001
0100
,
0010
1000
0010
1000
0001
0010
0001
0010
,
0100
1000
0000
0001
0000
0000
0100
0001
0000
1000
0000
0000
0010
1000
0000
0001
,
0020
0000
0200
0030
,
2000
0000
3300
0001
,
0200
0000
0310
1000
,
2002
0000
3003
0010
,
0020
0000
0000
0000
,
0130
0000
0000
0010
,
0020
0000
2000
0030
,
0002
3000
0020
0003
,
0130
0000
0000
0101
0000
0000
0010
0000
0000
1010
0000
0000
0100
0000
0001
0000
,
0010
0000
0000
1100
0000
0000
0010
0000
0000
0101
0000
0000
1000
0000
0010
0000
,
0100
0000
0000
0011
0000
0000
0100
0000
0000
1010
0000
0000
0001
0000
1000
0000
,
0100
0000
0000
1001
0000
0000
0010
0000
0000
1100
0000
0000
0001
0000
0100
0000
,
0010
0000
0000
0100
0001
0000
1000
0000
0001
0010
0000
0000
0100
0000
1000
0000
,
0001
0000
0000
0100
0010
0000
0001
0000
0010
1000
0000
0000
0100
0000
0010
0000
,
0001
0000
0000
0010
0100
0000
0001
0000
0100
1000
0000
0000
0010
0000
0100
0000
,
2002
0000
0000
0000
,
3003
0000
0000
0000
;

//---------------dance-single - ----------------
#NOTES:
     dance-single:
     :
     Medium:
     9:
     0.455,0.567,0.239,0.403,0.058: // measure 1
0000
0000
0000
0000
,  // measure 2
0000
0000
0000
0000
,  // measure 3
0000
0000
0000
0000
,  // measure 4
0000
0000
0000
0000
,  // measure 5
0000
0000
0000
0000
,  // measure 6
0000
0000
0000
0000
,  // measure 7
0000
0000
0000
0000
,  // measure 8
0000
0000
0000
0000
,  // measure 9
0000
0000
0000
0000
,  // measure 10
2000
3100
0002
0013
,  // measure 11
0100
1000
0010
0001
,  // measure 12
0200
1300
0020
0031
,  // measure 13
0200
1000
0001
1300
,  // measure 14
0100
0001
0100
0000
0001
0010
0001
0000
,  // measure 15
0010
1000
0010
0000
1000
0100
1000
0000
,  // measure 16
0220
0330
2002
3003
,  // measure 17
2200
3300
0022
0033
,  // measure 18
1000
0100
0010
0001
1000
0100
0010
0000
,  // measure 19
0001
0010
0100
1000
0001
0010
0100
0000
,  // measure 20
1000
0010
0100
0001
1000
0010
0100
0000
,  // measure 21
0001
0100
0010
1000
0001
0100
0010
1000
,  // measure 22
0100
0010
0100
1000
0010
0100
0001
0000
,  // measure 23
0100
0010
0100
0001
1000
0010
0100
0000
,  // measure 24
0100
1000
0010
0100
0010
1000
0100
0000
,  // measure 25
0020
0000
0000
0032
0000
0000
1003
0001
1000
0001
0000
0000
,  // measure 26
0100
0010
1000
0000
1000
0010
0100
0000
,  // measure 27
0001
0010
0100
0000
0100
0010
0001
0000
,  // measure 28
1000
0001
0010
0000
0010
0001
1000
0000
,  // measure 29
0010
0100
1000
0001
1000
0100
0010
0000
,  // measure 30
1000
0100
0010
0000
0001
0010
0100
0000
,  // measure 31
1000
0010
0100
0000
0001
0100
0010
0000
,  // measure 32
1000
0100
0010
0001
0100
0010
1000
0100
,  // measure 33
0010
1001
0100
1001
,  // measure 34
0010
0000
0000
0110
0000
0000
0000
0000
0000
0000
0000
0000
0100
0000
0000
0000
,  // measure 35
0001
0000
0000
0101
0000
0000
0000
0000
0000
0000
0000
0000
1000
0000
0000
0000
,  // measure 36
0100
0000
0000
1100
0000
0000
0000
0000
0000
0000
0000
0000
0001
0000
0000
0000
,  // measure 37
0010
0011
0000
0000
0000
0000
1000
0000
,  // measure 38
0010
1010
0000
0000
0000
0000
0100
0000
,  // measure 39
0010
0000
0000
0110
0000
0000
0000
0000
0000
0000
0000
0000
0001
0000
0000
0000
,  // measure 40
1000
0000
0000
1001
0000
0000
0001
0000
0000
0000
0000
0000
0020
0000
0000
0000
,  // measure 41
0230
0000
0000
0300
,  // measure 42
1000
0000
0100
0000
0001
0100
1000
0000
,  // measure 43
0001
0000
0010
0000
1000
0010
0001
0000
,  // measure 44
1000
0000
0010
0000
0001
0010
1000
0000
,  // measure 45
0001
0000
0100
0000
1000
0100
0001
0000
,  // measure 46
1000
0000
0010
0000
0001
0010
0100
0000
,  // measure 47
1000
0000
0100
0000
0001
0010
1000
0000
,  // measure 48
0001
0000
0100
0000
1000
0010
0001
0000
,  // measure 49
1000
0000
0100
0000
0001
0010
1000
0000
,  // measure 50
0020
0000
0000
0032
0000
0000
0103
0000
,  // measure 51
0020
0000
0000
2030
0000
0000
3100
0000
,  // measure 52
0020
0000
0000
0032
0000
0000
0103
0000
,  // measure 53
2002
0000
3003
0000
1000
0100
0001
0100
,  // measure 54
1000
0000
1000
0010
0000
0010
0100
0000
,  // measure 55
0001
0000
0001
0010
0000
0010
0100
0000
,  // measure 56
1100
0000
0000
0110
0000
0000
0011
0000
,  // measure 57
1001
0100
0010
0001
2000
0000
3001
0000
,  // measure 58
0102
0013
2100
3010
,  // measure 59
0002
0000
1003
0000
0100
0010
0001
0000
,  // measure 60
2000
3100
0002
0013
,  // measure 61
2002
0000
3003
1000
,  // measure 62
0200
1300
0020
0031
,  // measure 63
0002
0103
2000
3010
,  // measure 64
0100
0001
0010
0100
1000
0010
0100
0001
,  // measure 65
1000
0000
0000
0100
0000
0000
0010
0000
0000
0001
0000
0000
1000
0000
0010
0000
,  // measure 66
0200
0000
0302
0000
,  // measure 67
2003
0000
3000
0001
,  // measure 68
0020
0030
0100
1000
,  // measure 69
0002
0000
0003
1000
,  // measure 70
2000
0000
3000
0000
,  // measure 71
1001
0000
0000
0001
,  // measure 72
0002
0000
0023
0000
,  // measure 73
0230
0000
2300
0000
,  // measure 74
3010
0000
0000
0110
0000
0000
0000
0000
0000
0000
0000
0000
0100
0000
0000
0000
,  // measure 75
1000
0000
0000
1100
0000
0000
0000
0000
0000
0000
0000
0000
0001
0000
0000
0000
,  // measure 76
0100
0000
0000
0101
0000
0000
0000
0000
0000
0000
0000
0000
1000
0000
0000
0000
,  // measure 77
0010
1010
0000
0000
0000
0000
0001
0000
,  // measure 78
0010
0011
0000
0000
0000
0000
0100
0000
,  // measure 79
0010
0000
0000
0110
0000
0000
0000
0000
0000
0000
0000
0000
1000
0000
0000
0000
,  // measure 80
0001
0000
0000
1001
0000
0000
1000
0000
0000
0000
0000
0000
0020
0000
0000
0000
,  // measure 81
0230
0000
0000
0000
,  // measure 82
0300
0000
0000
0000
;

//---------------dance-single - ----------------
#NOTES:
     dance-single:
     :
     Easy:
     6:
     0.329,0.400,0.091,0.148,0.000: // measure 1
0000
0000
0000
0000
,  // measure 2
0000
0000
0000
0000
,  // measure 3
0000
0000
0000
0000
,  // measure 4
0000
0000
0000
0000
,  // measure 5
0000
0000
0000
0000
,  // measure 6
0000
0000
0000
0000
,  // measure 7
0000
0000
0000
0000
,  // measure 8
0000
0000
0000
0000
,  // measure 9
0000
0000
0000
0000
,  // measure 10
1000
0100
0010
0001
,  // measure 11
2002
0000
3003
0000
,  // measure 12
0001
0100
0010
1000
,  // measure 13
2002
0000
3003
0100
,  // measure 14
0200
0000
0300
0000
,  // measure 15
0001
0010
0100
0010
,  // measure 16
0020
0000
0032
0000
,  // measure 17
2003
0000
3020
0000
,  // measure 18
0130
0000
0001
0000
0010
0100
0010
0000
,  // measure 19
0001
0100
0001
0000
1000
0100
1000
0000
,  // measure 20
0010
0000
0100
0000
0001
0010
0100
0000
,  // measure 21
1000
0010
0100
0001
,  // measure 22
0010
0000
0100
0000
1000
0010
1000
0000
,  // measure 23
0001
0010
0001
0000
0100
0000
0010
0000
,  // measure 24
1000
0100
0010
0000
0001
0000
0100
0000
,  // measure 25
0110
0110
1001
0000
,  // measure 26
1000
0100
0010
0000
0001
0000
0100
0000
,  // measure 27
0010
1000
0001
0100
,  // measure 28
1000
0100
0010
0000
1000
0000
0100
0000
,  // measure 29
0010
0001
0100
0001
,  // measure 30
0010
0000
0010
0000
0100
1000
0100
0000
,  // measure 31
0010
0000
0001
0000
0100
0010
0100
0000
,  // measure 32
0001
0000
1000
0000
0100
0010
0001
0000
,  // measure 33
1000
0001
1001
0000
,  // measure 34
1000
0000
0000
0100
0000
0000
0010
0000
,  // measure 35
0001
0000
0000
0100
0000
0000
0010
0000
,  // measure 36
1000
0000
0000
0100
0000
0000
0001
0000
,  // measure 37
1000
0000
0000
0010
0000
0000
0001
0000
,  // measure 38
1000
0000
0000
0010
0000
0000
0001
0000
,  // measure 39
1000
0000
0000
0100
0000
0000
0001
0000
,  // measure 40
1000
0000
0000
0100
0000
0000
0010
0000
,  // measure 41
2002
0000
3003
0000
,  // measure 42
1000
0100
0010
0100
,  // measure 43
1000
0100
0001
0100
,  // measure 44
1000
0100
0010
0100
,  // measure 45
1000
0100
0010
0010
,  // measure 46
0001
0100
0010
0100
,  // measure 47
0001
0100
1000
0100
,  // measure 48
0001
0100
0010
0100
,  // measure 49
0001
0100
0010
0010
,  // measure 50
1000
0001
0100
0100
,  // measure 51
0001
1000
0100
0100
,  // measure 52
1000
0001
0010
0010
,  // measure 53
0110
0000
0100
0100
,  // measure 54
1000
0000
0010
0000
0100
0010
0100
0000
,  // measure 55
0001
0000
0010
0000
0100
0010
0100
0000
,  // measure 56
1000
0001
0100
0010
,  // measure 57
2002
0000
3003
0000
,  // measure 58
0001
0010
1000
0010
,  // measure 59
0001
0000
0100
0010
1000
0000
0100
0000
,  // measure 60
0010
0001
0100
1000
,  // measure 61
0010
0000
0100
0000
0001
1000
0001
0000
,  // measure 62
0010
0100
1000
0010
,  // measure 63
0100
0001
0010
1000
,  // measure 64
0100
0001
0010
0100
,  // measure 65
1000
0000
0001
0100
0000
0100
0001
0000
,  // measure 66
1000
0000
0100
0000
,  // measure 67
0020
0000
0030
0001
,  // measure 68
0001
0000
0100
0010
,  // measure 69
2000
0000
3000
0100
,  // measure 70
0200
0000
0300
0000
,  // measure 71
1001
0000
0000
0100
,  // measure 72
0100
0000
0010
0000
,  // measure 73
0001
0000
1000
0000
,  // measure 74
0001
0000
0000
0100
0000
0000
0010
0000
,  // measure 75
1000
0000
0000
0100
0000
0000
0010
0000
,  // measure 76
0001
0000
0000
0100
0000
0000
1000
0000
,  // measure 77
0001
0000
0000
0010
0000
0000
1000
0000
,  // measure 78
0001
0000
0000
0010
0000
0000
1000
0000
,  // measure 79
0001
0000
0000
0100
0000
0000
1000
0000
,  // measure 80
0001
0000
0000
0100
0000
0000
0010
0000
,  // measure 81
2002
0000
0000
0000
,  // measure 82
3003
0000
0000
0000
;
