#TITLE:Trench;
#SUBTITLE:;
#ARTIST:Ryu☆;
#TITLETRANSLIT:;
#SUBTITLETRANSLIT:;
#ARTISTTRANSLIT:Ryu*;
#GENRE:;
#CREDIT:;
#MENUCOLOR:;
#METERTYPE:DDR;
#BANNER:Trench.png;
#BACKGROUND:Trench-bg.png;
#LYRICSPATH:;
#CDTITLE:cdtitle.png;
#MUSIC:Trench.mp3;
#OFFSET:-0.025;
#SAMPLESTART:54.871;
#SAMPLELENGTH:15.000;
#SELECTABLE:YES;
#LISTSORT:;
#BPMS:0.000=175.000;
#STOPS:;
#BGCHANGES:;
#ATTACKS:;

//---------------dance-single - ----------------
#NOTES:
     dance-single:
     :
     Hard:
     15:
     0.787,0.843,0.173,0.173,0.501:
0000
0000
0000
0000
,
0000
0000
0000
0000
,
0000
0000
0000
0000
,
0000
0000
0000
0000
,
1001
0001
0100
0100
,
0010
0010
1000
1000
,
0100
0010
0100
0010
,
0001
0000
1000
0000
0001
1000
0000
1000
,
0100
0000
0100
0000
0100
0010
0100
0000
,
0010
0000
0010
0000
0010
0001
0010
0000
,
0001
0000
0001
0000
0001
0100
0001
0000
,
0100
0000
0100
0000
0100
1000
0100
0000
,
1000
1000
0010
0010
,
0001
0001
0100
0010
,
1000
0100
1000
0100
0010
0001
0010
0001
,
1000
0010
0100
0001
0100
0010
1000
0001
,
0010
0100
0010
0100
0010
0001
1000
1000
,
0010
0100
0010
0100
0010
1000
0100
0100
,
0010
0001
0010
0001
1000
0010
0100
0100
,
0001
0010
0100
1000
0100
0010
0001
0001
,
1001
1000
0100
0010
0100
1000
0010
0010
,
0100
0001
0010
0001
0100
0010
1000
1000
,
0100
0001
0100
1000
0010
0100
0001
0001
,
1000
0000
0010
0000
0001
0000
0010
0000
1000
0001
1000
0001
1000
0001
1000
0001
,
0010
0100
1000
0100
0001
0100
0010
0010
,
0001
0100
1000
0100
0010
0100
0001
0001
,
0010
0100
1000
0100
0001
0100
1000
1000
,
0010
0100
1000
0100
0001
0100
0010
0010
,
1001
0000
0000
0000
0100
0000
0000
0000
0010
1000
0010
1000
0010
1000
0010
1000
,
0001
0000
0000
0000
0010
0000
0000
0000
0100
1000
0100
1000
0100
1000
0100
1000
,
0010
0100
0010
0100
0001
1000
0001
1000
,
0001
0010
0001
0010
0100
1000
0100
1000
0010
0100
0010
0100
0010
0100
0010
0100
,
0001
0000
0000
0001
0000
0000
1000
0000
0000
1000
0000
0000
0010
0000
0010
0000
,
0100
0000
0000
0100
0000
0000
0010
0000
0000
0010
0000
0000
1000
0000
1000
0000
,
0100
0000
0000
0100
0000
0000
0010
0000
0000
0010
0000
0000
0001
0000
0001
0000
,
1000
0000
0000
1000
0000
0000
0001
0000
0000
0001
0000
0000
0100
0000
0100
0000
,
0110
0000
0000
1000
0100
0000
0010
0000
0100
1000
0000
0000
0010
0000
0010
0000
,
0110
0000
0000
0001
0010
0000
0100
0000
0010
0001
0000
0000
0100
0000
0100
0000
,
0110
0000
0000
1000
0001
0000
0100
0000
0001
1000
0000
0000
0100
0000
0100
0000
,
0010
0000
0001
0000
0010
0000
0001
0000
1000
0001
1000
0001
0020
0000
0000
0000
,
0130
0000
1000
0000
0100
0000
1000
0000
0010
0000
0100
0000
0010
1000
0010
0000
,
0100
0000
0001
0000
0100
0000
0001
0000
0010
0000
0100
0000
0010
0001
0010
0000
,
0100
0000
1000
0000
0100
0000
1000
0000
0010
0000
0100
0000
0001
1000
0001
0000
,
0010
0000
0100
0000
1000
0000
0100
0000
0010
0000
0001
0000
1000
0001
1000
0000
,
0010
0000
0100
0001
0100
0000
0010
0000
1000
0000
0100
0000
0010
0001
0010
0000
,
0100
0000
1000
0001
1000
0000
0001
0000
0010
0000
0100
0000
1000
0001
1000
0000
,
0010
0000
0100
0001
0100
0000
0010
0000
1000
0000
0100
0000
0010
0001
0010
0000
,
0100
0000
1000
0001
1000
0000
0001
0000
0100
0010
0100
0010
0100
0010
0100
0010
,
1000
0000
0001
0100
0010
0000
0100
0000
0001
0000
1000
0000
0010
0100
0001
0000
,
1000
0000
0100
0010
0001
0000
0010
0000
0100
0000
1000
0000
0001
0100
0010
0000
,
1000
0000
0100
0010
0001
0000
0010
0000
0100
0000
1000
0000
0001
0100
0010
0000
,
0100
0000
0001
1000
0100
0000
0010
0000
0100
0000
1000
0000
0001
0100
0010
0000
,
2001
0000
0000
0000
3100
0000
0000
0000
0001
1000
0001
1000
0001
1000
0001
1000
,
0020
0000
0000
0000
1030
0000
0000
0000
0100
0010
0100
0010
0100
0010
0100
0010
,
0001
0100
0001
0100
0010
1000
0010
1000
,
0001
0010
0001
0010
0100
1000
0100
1000
0001
0100
0010
1000
0002
0000
0000
0000
,
1003
0000
0100
0000
1100
0000
0000
0000
0001
0100
0010
0000
0010
0100
0001
0000
,
1000
0100
0020
0001
0130
1000
1001
0000
,
0001
0000
0100
0000
0000
0100
0000
0001
0200
0000
0310
0000
2000
0000
3001
1000
,
0100
0000
0000
0000
2001
0000
0000
0000
3001
0000
0100
0010
0100
0000
0000
0000
,
0010
0000
1000
0000
0000
1000
0000
0001
0200
0000
0310
0000
2000
0000
3100
0000
,
0010
0001
0010
0001
0010
0000
0100
0000
1000
0000
0001
0000
1001
0000
0000
0000
,
0010
0000
0100
0000
0000
0100
0000
0000
0100
0001
1000
0000
2000
0000
0100
0000
,
3001
0000
1000
0000
1100
0000
0000
0000
0001
0100
0001
0100
0001
0100
0001
0100
,
0010
0000
0100
0000
0101
0000
0000
0000
1000
0100
0010
0000
0220
0000
0330
0000
,
0001
0100
0001
0100
0020
0000
1000
0000
0130
0000
0001
0000
1002
0000
0000
0000
,
1003
0000
0100
0000
1100
0000
0000
0000
0200
0000
0310
0000
0002
0000
1003
0001
,
0100
0000
0000
0000
1002
0000
0000
0000
1003
0000
0100
0010
0100
0000
0100
0000
,
1000
0000
0001
0000
0101
0000
0000
0000
1000
0100
0010
0100
1000
0100
0010
0100
,
1000
0000
0010
0000
0110
0000
0000
0000
0001
0100
0010
0100
0001
0100
0010
0100
,
0001
0001
0010
0010
0100
0100
1000
1000
,
0001
0010
0001
0010
0100
1000
0100
1000
0001
0100
0010
1000
0010
0100
0001
0010
,
0200
0000
0000
0000
,
0000
0000
0000
0000
,
0300
0000
0000
0000
;

//---------------dance-single - ----------------
#NOTES:
     dance-single:
     :
     Medium:
     12:
     0.605,0.640,0.073,0.055,0.191: // measure 1
0000
0000
0000
0000
,  // measure 2
0000
0000
0000
0000
,  // measure 3
0000
0000
0000
0000
,  // measure 4
0000
0000
0000
0000
,  // measure 5
1000
1000
0100
0100
,  // measure 6
0010
0010
0001
0001
,  // measure 7
1000
1000
0010
0010
,  // measure 8
0100
0100
0001
0001
,  // measure 9
1000
0100
1000
0010
,  // measure 10
0100
0001
0100
0010
,  // measure 11
1000
0100
0001
0100
,  // measure 12
1000
0010
0001
0010
,  // measure 13
1000
0100
0001
0100
,  // measure 14
0010
1000
0010
0001
,  // measure 15
0100
0001
0100
0000
0010
1000
0010
0000
,  // measure 16
1000
0100
0010
0001
0010
0100
1000
0001
,  // measure 17
0010
0100
1000
0000
1000
0100
0010
0000
,  // measure 18
0001
1000
0100
0010
0100
1000
0001
0000
,  // measure 19
0100
0010
1000
0000
1000
0010
0100
0000
,  // measure 20
0001
1000
0100
0010
0100
1000
0001
0000
,  // measure 21
0010
0100
0001
0000
0001
0100
0010
0000
,  // measure 22
0001
0100
1000
0100
0010
1000
0100
0000
,  // measure 23
0010
0001
1000
0000
1000
0001
0010
0000
,  // measure 24
0100
0000
1000
0000
0001
0000
0100
0000
0010
0100
0010
0000
0100
0010
0100
0000
,  // measure 25
0001
1000
0001
1000
0010
0100
0010
0000
,  // measure 26
1000
0001
1000
0001
0010
0100
0010
0000
,  // measure 27
0001
0100
0001
0100
0010
1000
0100
0000
,  // measure 28
1000
0100
1000
0100
0010
0001
0100
0000
,  // measure 29
1001
0000
0000
0000
0100
0000
0000
0000
0010
1000
0010
0000
0100
0001
0100
0000
,  // measure 30
0001
0000
0000
0000
1000
0000
0000
0000
0100
1000
0100
0000
0010
0001
0010
0000
,  // measure 31
0001
1000
0001
0000
1000
0001
1000
0000
,  // measure 32
1000
0100
0010
0001
1000
0100
0010
0001
,  // measure 33
0100
0000
0000
0100
0000
0000
0100
0000
0001
0000
1000
0000
0100
0000
0000
0000
,  // measure 34
0010
0000
0000
0010
0000
0000
0010
0000
0100
0000
1000
0000
0001
0000
0000
0000
,  // measure 35
0100
0000
0000
0100
0000
0000
0100
0000
0001
0000
0010
0000
0100
0000
0000
0000
,  // measure 36
0010
0000
0000
0010
0000
0000
0010
0000
0100
0000
1000
0000
0001
0000
0000
0000
,  // measure 37
1000
0000
0000
1000
0000
0000
1000
0000
0010
0000
0100
0000
0001
0000
0000
0000
,  // measure 38
0001
0000
0000
0001
0000
0000
0001
0000
0010
0000
0100
0000
1000
0000
0000
0000
,  // measure 39
1000
0000
0000
1000
0000
0000
1000
0000
0010
0000
0100
0000
0001
0000
0010
0000
,  // measure 40
0100
0100
1000
1000
0001
0100
1001
0000
,  // measure 41
0010
0000
0000
0100
0000
0000
0010
0000
1000
0000
0001
0000
0010
0000
0100
0000
,  // measure 42
1000
0000
0000
0100
0000
0000
1000
0000
0010
0000
0100
0000
0001
0000
0010
0000
,  // measure 43
0001
0000
0000
0100
0000
0000
0010
0000
0100
0000
0001
0000
1000
0000
0100
0000
,  // measure 44
0010
0000
0000
0100
0000
0000
1000
0000
0010
0000
0100
0000
0001
0000
0010
0000
,  // measure 45
0100
0000
0000
1000
0000
0000
0100
0000
0010
0000
0100
0000
1000
0000
0010
0000
,  // measure 46
0100
0000
0000
0001
0000
0000
0010
0000
0001
0000
0100
0000
0010
0000
1000
0000
,  // measure 47
0100
0000
0000
0010
0000
0000
0100
0000
1000
0000
0001
0000
0100
0000
0010
0000
,  // measure 48
0100
0000
0000
0001
0000
0000
1000
0000
0001
0010
0100
1000
0001
0010
0100
1000
,  // measure 49
0001
0000
0000
0100
0000
0000
0001
0000
1000
0000
0100
0000
1000
0000
0010
0000
,  // measure 50
0100
0000
0000
0001
0000
0000
1000
0000
0100
0000
0010
0000
0100
0000
1000
0000
,  // measure 51
0001
0000
0000
0100
0000
0000
1000
0000
0100
0000
0010
0000
1000
0000
0100
0000
,  // measure 52
0010
0000
0000
0100
0000
0000
0001
0000
0100
0000
1000
0000
0010
0000
0100
0000
,  // measure 53
0001
0000
0000
1000
0000
0000
0100
0000
0010
0000
0010
0000
0010
0000
0010
0000
,  // measure 54
0001
0000
0000
1000
0000
0000
0010
0000
0100
0000
0100
0000
0100
0000
0100
0000
,  // measure 55
0001
1000
0001
1000
0010
0100
0010
0100
,  // measure 56
0001
0010
0100
1000
0001
0010
1001
0000
,  // measure 57
0010
1000
0100
0000
0010
0010
0001
0001
,  // measure 58
0100
0001
0020
0000
0130
1000
1001
0000
,  // measure 59
0010
0000
1000
0000
0000
1000
0000
0000
1000
0000
0001
0000
0010
0000
0100
0000
,  // measure 60
2000
0000
3010
0100
0001
0010
0110
0000
,  // measure 61
0001
0000
0100
0000
0000
0100
0000
0000
0100
0000
0010
0000
1000
0000
0100
0000
,  // measure 62
0010
0010
0100
0100
1000
0001
0100
0000
,  // measure 63
0010
0000
1000
0000
0000
1000
0000
0000
1000
0000
0001
0000
0010
0000
0100
0000
,  // measure 64
0010
0000
0001
0000
0101
0000
0000
0000
0010
1000
0010
0000
0100
0001
0100
0000
,  // measure 65
0001
1000
0100
0000
0010
0010
0110
0000
,  // measure 66
1000
1000
0001
0100
0010
0010
0200
0000
,  // measure 67
0301
0010
0000
0000
0100
1000
0001
0001
,  // measure 68
0200
0000
0320
0000
1030
0001
1001
0000
,  // measure 69
0010
0000
1000
0000
0100
0000
0000
0000
1000
0001
1000
0000
0001
1000
0001
0000
,  // measure 70
0010
0000
0100
0000
1000
0000
0000
0000
0010
0100
0010
0000
0100
0010
0100
0000
,  // measure 71
0001
0010
0001
0010
0100
1000
0100
1000
,  // measure 72
0010
0000
0010
0000
0100
0000
0100
0000
0001
0010
0100
0000
0010
0100
1000
0000
,  // measure 73
0002
0000
0000
0000
,  // measure 74
0000
0000
0000
0000
,  // measure 75
0003
0000
0000
0000
;

//---------------dance-single - ----------------
#NOTES:
     dance-single:
     :
     Easy:
     8:
     0.416,0.438,0.009,0.082,0.000: // measure 1
0000
0000
0000
0000
,  // measure 2
0000
0000
0000
0000
,  // measure 3
0000
0000
0000
0000
,  // measure 4
0000
0000
0000
0000
,  // measure 5
1000
0100
1000
0000
,  // measure 6
0001
0100
0001
0000
,  // measure 7
1000
0010
0100
0000
,  // measure 8
0001
0010
0100
0000
,  // measure 9
1000
0100
1000
0100
,  // measure 10
0010
0100
0010
0100
,  // measure 11
0010
0001
0010
0001
,  // measure 12
1000
0001
1000
0001
,  // measure 13
0100
0000
0100
0000
,  // measure 14
0010
0000
0010
0000
,  // measure 15
1000
0100
1000
0100
,  // measure 16
0001
0010
1000
0100
,  // measure 17
0010
0001
0100
0100
,  // measure 18
0010
0000
1000
0000
0100
0010
0100
0000
,  // measure 19
1000
0010
0100
0100
,  // measure 20
0001
0000
0010
0000
0100
0010
0100
0000
,  // measure 21
0010
0001
1000
1000
,  // measure 22
0010
0000
1000
0000
0001
1000
0001
0000
,  // measure 23
1000
0100
0010
0010
,  // measure 24
0001
0000
0100
0000
0010
0100
0010
0100
,  // measure 25
0001
0001
1000
1000
,  // measure 26
0100
0000
0100
0000
0010
0001
0010
0000
,  // measure 27
0100
0100
1000
1000
,  // measure 28
0010
0000
0010
0000
0100
0001
0100
0000
,  // measure 29
0010
0000
1000
0000
0001
1000
0001
1000
,  // measure 30
0010
0000
0100
0000
0001
1000
0001
1000
,  // measure 31
0010
1000
0100
0010
,  // measure 32
0001
0001
0010
0000
0100
0100
1000
0000
,  // measure 33
0002
0100
0100
0103
,  // measure 34
0020
0100
0100
0130
,  // measure 35
0020
1000
1000
1030
,  // measure 36
0200
1000
1000
1300
,  // measure 37
0200
0010
0010
0310
,  // measure 38
0002
0010
0010
0013
,  // measure 39
0002
0100
0100
0103
,  // measure 40
0010
1000
0001
0000
0010
0001
1000
0000
,  // measure 41
0010
0000
0010
0000
1000
0100
1000
0000
,  // measure 42
0010
0000
0010
0000
0001
0100
0001
0000
,  // measure 43
0010
0000
0010
0000
1000
0001
0100
0000
,  // measure 44
0100
0000
0100
0000
1000
0001
0010
0000
,  // measure 45
0100
0000
1000
0000
0001
0100
0001
0000
,  // measure 46
0010
0000
0100
0000
1000
0001
1000
0000
,  // measure 47
0100
0000
0010
0000
0001
0100
0001
0000
,  // measure 48
0010
0000
0100
0000
1000
0001
0100
0001
,  // measure 49
0100
0000
0010
0000
1000
0001
1000
0000
,  // measure 50
0100
0000
0010
0000
0001
0100
0001
0000
,  // measure 51
0010
0000
0100
0000
1000
0010
1000
0000
,  // measure 52
0001
0000
0100
0000
0010
1000
0010
0000
,  // measure 53
0100
0000
0000
0000
0001
1000
0001
1000
,  // measure 54
0010
0000
0000
0000
1000
0001
1000
0001
,  // measure 55
0010
0100
1000
0001
,  // measure 56
1000
0100
1000
0000
0001
0010
0100
1000
,  // measure 57
0001
0000
0001
0000
1000
0100
1000
0000
,  // measure 58
0001
0010
0100
1000
,  // measure 59
0001
0000
0001
0000
0100
0010
0100
0000
,  // measure 60
0001
1000
0100
0010
,  // measure 61
0100
0000
1000
0000
0010
0100
0010
0000
,  // measure 62
1000
0100
0010
0001
,  // measure 63
1000
0000
1000
0000
0010
0100
0010
0000
,  // measure 64
1000
0000
0100
0000
0010
0001
0010
0001
,  // measure 65
1000
0000
0010
0000
0100
0001
0100
0000
,  // measure 66
0010
1000
0100
0010
,  // measure 67
0001
0000
0100
0000
0100
0001
0100
0000
,  // measure 68
0001
0010
0100
0010
,  // measure 69
0001
0000
0000
0000
0010
0100
0010
0100
,  // measure 70
1000
0000
0000
0000
0010
0100
0010
0100
,  // measure 71
0001
0010
0100
1000
,  // measure 72
0001
0100
0001
0000
1000
0100
1000
0000
,  // measure 73
2002
0000
0000
0000
,  // measure 74
0000
0000
0000
0000
,  // measure 75
3003
0000
0000
0000
;
