#TITLE:ドアラのテーマ;
#SUBTITLE:;
#ARTIST:DJドアラ;
#TITLETRANSLIT:Theme of Doala;
#SUBTITLETRANSLIT:;
#ARTISTTRANSLIT:DJ Doala;
#GENRE:;
#CREDIT:;
#MENUCOLOR:;
#METERTYPE:DDR;
#BANNER:Theme of Doala.png;
#BACKGROUND:Theme of Doala-bg.png;
#LYRICSPATH:;
#CDTITLE:cdtitle.png;
#MUSIC:Theme of Doala.mp3;
#OFFSET:-0.025;
#SAMPLESTART:25.773;
#SAMPLELENGTH:15.000;
#SELECTABLE:YES;
#LISTSORT:;
#BPMS:0.000=149.000;
#STOPS:;
#BGCHANGES:;
#ATTACKS:;

//---------------dance-single - ----------------
#NOTES:
     dance-single:
     :
     Hard:
     13:
     0.613,0.574,0.629,0.103,0.175:
0000
0000
0000
0000
,
0000
0000
0000
0000
,
0000
0000
0000
0000
,
0000
0000
0000
0000
,
2100
0000
3000
0001
0200
0000
0300
0101
,
0000
1100
1000
0001
0100
0000
0110
0000
,
0102
0000
0003
1000
0200
0000
0300
1100
,
0000
0101
0001
1000
0100
0000
0110
0000
,
0011
1000
0011
1000
,
0101
1000
0101
1000
,
1100
0000
0001
0000
1100
0000
0001
1000
,
1010
0001
1010
0001
,
1100
0001
1100
0001
,
0011
0101
1100
1010
,
1100
0000
0001
0100
1000
0000
0110
0000
,
2002
0000
0000
3003
,
0011
0000
0000
0000
0010
0000
0100
0000
1000
0000
0001
0100
0000
0000
0010
0000
,
1000
0000
0000
0000
0100
0000
1000
0000
0010
0000
0100
0001
0000
0000
0010
0000
,
0100
0000
0000
0000
1000
0000
0010
0000
0100
0000
0001
1000
0000
0000
0100
0000
,
0010
0100
0001
0100
2000
0001
3001
0000
,
1010
0000
0000
0000
0010
0000
0100
0000
0001
0000
1000
0100
0000
0100
0010
0000
,
0001
0000
0000
0000
0100
0000
0001
0000
0010
0000
0100
1000
0000
1000
0010
0000
,
0100
0000
0000
0000
0001
0000
0010
0000
0100
0000
1000
0001
0000
0001
0100
0000
,
0010
0100
1000
0100
0002
0000
1003
0000
,
0011
0101
1100
1010
,
1100
0000
0010
0001
0100
0000
1001
0000
,
0011
0101
1100
1010
,
1100
0010
0001
0100
0020
1000
1030
0000
,
0011
0101
1100
1010
,
1100
0000
0001
0010
0100
0000
1001
0000
,
0011
0101
1100
1010
,
1100
0001
0100
0010
2000
0000
3001
0000
,
1000
0010
1000
0010
0100
0010
0100
0010
,
1000
0100
0010
0001
0100
0010
0100
0100
,
1000
0010
0100
0010
1000
0100
0010
0100
,
1000
0000
0001
0000
0100
0000
0010
0000
1000
0000
0000
1000
0100
0000
0010
0000
,
0001
0100
0001
0100
0010
0100
0010
0100
,
0001
0010
0100
1000
0001
0010
0100
0100
,
0010
1000
0010
0100
0001
0010
0100
1000
,
0001
1000
0010
0100
,
2002
0000
0000
0000
,
0000
0000
0000
3000
,
0200
0000
0000
0000
,
0000
0000
0000
0303
,
1010
0000
0000
1000
0000
0000
1100
0000
0000
0000
0100
0000
0010
0000
0001
0000
,
0101
0000
0000
0110
0000
0000
1010
0000
0000
0000
1000
0000
0001
0000
0000
0000
,
0011
0000
0000
0010
0000
0000
0110
0000
0000
0000
0100
0000
1000
0000
0010
0000
,
0110
0000
0000
0101
0000
0000
1001
0000
0000
0000
1000
0000
0100
0000
0000
0000
,
0110
0000
0000
0100
0000
0000
1100
0000
0000
0000
0001
0000
0100
0000
0010
0000
,
1010
0000
0000
1100
0000
0000
0110
0000
0000
0000
0010
0000
0001
0000
0000
0000
,
0101
0000
0000
0100
0000
0000
0110
0000
0000
0000
0010
0000
1000
0000
0001
0000
,
0011
0000
0000
0110
0000
0000
1100
0000
0000
0001
1000
0001
1000
0000
0000
0000
,
0001
0000
0000
0100
0001
0000
0010
0000
0000
0100
1000
0000
0010
0000
0100
0000
,
0001
0000
0000
0010
0100
0000
1000
0000
0010
0000
0100
0000
1001
0000
0000
0000
,
1000
0000
0000
0100
0010
0000
0001
0000
0000
0100
0010
0000
1000
0000
0100
0000
,
0010
0000
0000
0001
0100
0000
0001
0000
0010
0000
0100
0000
1001
0000
0000
0000
,
1000
0000
0000
0100
0010
0000
1000
0000
0000
0010
0001
0000
0100
0000
0010
0000
,
0001
0000
0000
0010
0100
0000
0001
0000
0010
0000
0100
0000
1001
0000
0000
0000
,
1000
0000
0000
0100
0001
0000
0100
0000
0000
1000
0010
0000
0001
0000
1000
0000
,
0100
0000
0000
0001
0010
0000
0100
0000
1000
0000
0001
0000
0110
0000
0000
0000
,
1000
0000
0001
0100
0001
0000
0010
0000
0000
0010
0100
0000
1000
0000
0010
0000
,
0100
0000
0001
1000
0001
0000
0010
0000
0100
0000
1000
0000
1001
0000
0000
0000
,
0001
0000
0100
0010
0100
0000
0001
0000
0000
0001
0010
0000
0100
0000
1000
0000
,
0010
0000
0100
0001
0100
0000
0010
0000
1000
0000
0100
0000
0110
0000
0000
0000
,
0010
0000
0001
1000
0100
0000
0010
0000
0000
0010
0100
0000
1000
0000
0010
0000
,
0100
0000
0001
0010
0100
0000
1000
0000
0010
0000
0100
0000
0101
0000
0000
0000
,
0001
0000
1000
0100
0010
0000
0100
0000
0000
0100
1000
0000
0010
0000
0100
0000
,
0001
0000
1000
0100
0010
0000
0001
0000
0100
0000
0010
0000
0110
0000
0000
0000
,
1000
0100
0010
0100
1000
1000
0100
0010
,
0001
0100
0010
0100
0001
0001
0010
0100
,
1000
0010
0100
0010
1000
1000
0001
0010
,
0001
0100
1000
0100
0001
0001
0010
0100
,
1000
0010
0001
0010
1000
0100
0010
0010
,
0001
0100
1000
0100
0001
0010
0100
0100
,
1000
0010
0001
0010
0100
1000
0100
0001
,
0010
0100
1000
0010
0100
0001
0100
0100
,
1001
0000
0000
0000
;

//---------------dance-single - ----------------
#NOTES:
     dance-single:
     :
     Medium:
     10:
     0.455,0.484,0.191,0.064,0.000: // measure 1
0000
0000
0000
0000
,  // measure 2
0000
0000
0000
0000
,  // measure 3
0000
0000
0000
0000
,  // measure 4
0000
0000
0000
0000
,  // measure 5
1000
0000
0000
0010
0010
0000
0000
0100
,  // measure 6
0000
0100
0001
0010
0100
0000
0110
0000
,  // measure 7
1000
0000
0000
0001
0001
0000
0000
0100
,  // measure 8
0000
0100
0001
0010
0100
0000
0110
0000
,  // measure 9
1000
0100
1000
0100
,  // measure 10
0010
0001
0010
0001
,  // measure 11
0100
0000
0010
0000
0100
0000
0010
1000
,  // measure 12
0001
1000
0001
1000
,  // measure 13
0010
0100
0010
0100
,  // measure 14
0001
0010
1000
0100
,  // measure 15
1000
0000
0010
0001
0100
0000
0010
0000
,  // measure 16
2002
0000
0000
3003
,  // measure 17
0100
0000
0100
0000
0001
0010
0100
1000
,  // measure 18
0010
0000
0010
0000
0100
0001
0010
0100
,  // measure 19
1000
0000
1000
0000
0010
0100
0001
0010
,  // measure 20
0100
1000
0100
0010
0001
0100
0100
0000
,  // measure 21
0001
0000
0001
0000
0100
0010
1000
0100
,  // measure 22
0010
0000
0010
0000
0001
0100
0010
1000
,  // measure 23
0100
0000
0100
0000
0010
0001
0100
0010
,  // measure 24
1000
0010
0100
0001
0020
0000
0030
0000
,  // measure 25
0001
0101
1000
1100
,  // measure 26
0001
0100
0010
0000
1000
0000
1001
0000
,  // measure 27
0001
0011
1000
1010
,  // measure 28
0001
0010
0100
0000
1000
0100
0100
0000
,  // measure 29
0010
0001
0100
0000
0010
1000
0100
0000
,  // measure 30
0010
0100
1000
1001
,  // measure 31
0001
0100
0010
0000
1000
0100
0010
0000
,  // measure 32
0001
1000
0001
0000
2002
0000
3003
0000
,  // measure 33
0010
0010
0100
0100
,  // measure 34
0001
0010
0100
1000
0100
0010
0001
1000
,  // measure 35
0010
0010
0100
0100
,  // measure 36
0010
1000
0010
0100
0001
0100
0010
1000
,  // measure 37
0100
0100
0010
0010
,  // measure 38
0001
1000
0100
0010
0001
0010
0100
1000
,  // measure 39
0010
0010
0100
0100
,  // measure 40
0001
0010
0100
1000
0002
0000
0003
0000
,  // measure 41
0220
0000
0000
0000
,  // measure 42
0000
0000
0000
0000
,  // measure 43
0330
0000
0000
0000
,  // measure 44
0000
0000
0000
0000
,  // measure 45
1000
0000
0100
0000
0010
0000
0100
1000
,  // measure 46
0001
0100
0010
0110
,  // measure 47
0001
0000
0100
0000
0010
0000
0100
0001
,  // measure 48
1000
0100
0010
0110
,  // measure 49
1000
0100
0001
0100
,  // measure 50
0010
0001
0100
0000
0010
0000
0110
0000
,  // measure 51
0001
0100
1000
0100
,  // measure 52
0010
1000
0100
0000
0010
0000
0110
0000
,  // measure 53
0001
0100
0001
0000
1000
0100
1000
0000
,  // measure 54
0001
0010
0100
1000
0001
0000
1001
0000
,  // measure 55
1000
0010
1000
0000
0001
0010
0001
0000
,  // measure 56
1000
0100
0010
0001
1000
0000
1001
0000
,  // measure 57
0010
1000
0100
0000
0010
0001
0100
0000
,  // measure 58
0010
1000
0100
1000
0010
0000
0110
0000
,  // measure 59
0100
0001
0010
0000
0100
1000
0010
0000
,  // measure 60
0100
0001
0010
0001
0100
0000
0110
0000
,  // measure 61
1000
0100
1000
0100
0010
0100
0010
0100
,  // measure 62
1000
0010
0100
0001
1000
0000
1001
0000
,  // measure 63
0001
0100
0001
0100
0010
0100
0010
0100
,  // measure 64
0001
0010
0100
1000
0001
0000
1001
0000
,  // measure 65
1000
0010
0100
0010
1000
0001
0100
0001
,  // measure 66
0010
0100
1000
0001
1000
0000
0110
0000
,  // measure 67
0001
0010
0100
0010
0001
1000
0100
1000
,  // measure 68
0001
0100
0010
1000
0100
0000
1001
0000
,  // measure 69
0001
0000
0001
0000
0001
0100
0010
0000
,  // measure 70
1000
0000
1000
0000
1000
0100
0010
0000
,  // measure 71
0001
0010
0001
0000
1000
0010
1000
0000
,  // measure 72
1000
0100
1000
0000
0001
0100
0001
0000
,  // measure 73
1000
0010
0100
0000
0100
0010
1000
0000
,  // measure 74
0001
0010
0100
0000
0100
0010
0001
0000
,  // measure 75
1000
0100
0000
0100
0000
0010
0000
0010
,  // measure 76
0001
0100
0000
0100
0010
1000
0001
0000
,  // measure 77
1001
0000
0000
0000
;

//---------------dance-single - ----------------
#NOTES:
     dance-single:
     :
     Easy:
     5:
     0.286,0.302,0.103,0.064,0.000: // measure 1
0000
0000
0000
0000
,  // measure 2
0000
0000
0000
0000
,  // measure 3
0000
0000
0000
0000
,  // measure 4
0000
0000
0000
0000
,  // measure 5
1000
0000
0001
0000
,  // measure 6
1001
0110
1001
0000
,  // measure 7
0001
0000
1000
0000
,  // measure 8
1001
0110
1001
0000
,  // measure 9
0100
0000
0100
0000
,  // measure 10
0001
0000
0001
0000
,  // measure 11
0010
0000
0010
0000
,  // measure 12
1000
0000
1000
0000
,  // measure 13
0010
0000
0010
0000
,  // measure 14
0100
0001
0010
1000
,  // measure 15
0010
0100
1001
0000
,  // measure 16
0220
0000
0000
0330
,  // measure 17
1000
1000
0100
0010
,  // measure 18
0001
0001
0100
0010
,  // measure 19
1000
1000
0100
0010
,  // measure 20
0001
0010
0200
0300
,  // measure 21
0001
0001
0010
0100
,  // measure 22
1000
1000
0010
0100
,  // measure 23
0001
0001
0010
0100
,  // measure 24
1000
0100
0020
0030
,  // measure 25
0001
0010
0100
0010
,  // measure 26
0001
0100
0010
0100
,  // measure 27
0001
0010
0100
0010
,  // measure 28
0001
0100
0020
0030
,  // measure 29
1000
0100
0010
0100
,  // measure 30
1000
0010
0100
0010
,  // measure 31
1000
0100
0010
0100
,  // measure 32
1000
0010
0200
0300
,  // measure 33
0001
0100
0001
0100
,  // measure 34
1000
0100
1000
0100
,  // measure 35
1000
0010
1000
0010
,  // measure 36
0001
0010
0001
0010
,  // measure 37
0001
0100
1000
0100
,  // measure 38
0001
0100
1000
0100
,  // measure 39
0001
0010
1000
0010
,  // measure 40
0001
0010
1000
0010
,  // measure 41
0002
0000
0000
0000
,  // measure 42
0000
0000
0003
0000
,  // measure 43
2000
0000
0000
0000
,  // measure 44
0000
0000
3000
0000
,  // measure 45
0001
0000
0001
0000
,  // measure 46
0001
0100
1000
0000
,  // measure 47
1000
0000
1000
0000
,  // measure 48
1000
0010
0001
0000
,  // measure 49
0001
0000
0001
0000
,  // measure 50
0001
0100
1000
0000
,  // measure 51
1000
0000
1000
0000
,  // measure 52
1000
0010
0001
0000
,  // measure 53
0001
0100
0001
0100
,  // measure 54
0001
0100
1000
0000
,  // measure 55
1000
0010
1000
0010
,  // measure 56
1000
0010
0001
0000
,  // measure 57
0001
0010
0001
0010
,  // measure 58
0001
0010
1000
0000
,  // measure 59
1000
0100
1000
0100
,  // measure 60
1000
0100
0001
0000
,  // measure 61
1000
0100
0010
0001
,  // measure 62
1000
0001
1001
0000
,  // measure 63
0001
0010
0100
1000
,  // measure 64
0010
0100
0110
0000
,  // measure 65
1000
0010
0100
0001
,  // measure 66
0010
0100
0110
0000
,  // measure 67
1000
0010
0100
0001
,  // measure 68
1000
0001
1001
0000
,  // measure 69
1000
0100
1000
0100
,  // measure 70
0010
0100
0010
0100
,  // measure 71
1000
0001
1000
0001
,  // measure 72
0100
0010
0100
0010
,  // measure 73
0100
0001
0010
0100
,  // measure 74
1000
0010
0100
0010
,  // measure 75
1000
0100
0010
0001
,  // measure 76
0100
0010
0100
0001
,  // measure 77
1001
0000
0000
0000
;
