#TITLE:Swing 54321;
#SUBTITLE:;
#ARTIST:capsule;
#TITLETRANSLIT:;
#SUBTITLETRANSLIT:;
#ARTISTTRANSLIT:;
#GENRE:;
#CREDIT:;
#MENUCOLOR:;
#METERTYPE:DDR;
#BANNER:Swing 54321.png;
#BACKGROUND:Swing 54321-bg.png;
#LYRICSPATH:;
#CDTITLE:cdtitle.png;
#MUSIC:Swing 54321.mp3;
#OFFSET:-0.025;
#SAMPLESTART:62.259;
#SAMPLELENGTH:15.000;
#SELECTABLE:YES;
#LISTSORT:;
#BPMS:0.000=127.188;
#STOPS:;
#BGCHANGES:;
#ATTACKS:;

//---------------dance-single - ----------------
#NOTES:
     dance-single:
     :
     Hard:
     11:
     0.440,0.486,0.339,0.165,0.274:
0000
0000
0000
0000
,
0000
0000
0000
0000
,
0000
0000
0000
0000
,
0000
0000
0000
0000
,
0000
0000
0000
0000
,
1100
0000
0000
0000
0000
0000
1000
0000
0000
0100
0000
0000
0010
0000
0001
0000
0000
0100
0000
0000
0000
0001
0000
0000
,
0101
0000
0000
0000
0000
0000
0001
0000
0000
0100
0000
0000
0010
0000
1000
0000
0000
0100
0000
0000
0000
0010
0000
0000
,
0110
0000
0000
0000
0000
0000
0100
0000
0000
1000
0000
0000
0010
0000
0100
0000
0000
0001
0000
0000
0000
0100
0000
0000
,
0220
0000
0000
0330
,
2000
0100
0000
3100
,
0100
0000
0000
0010
0000
0000
0001
0000
1000
0000
0000
0010
0000
0000
0100
0000
0000
0000
0001
0000
0000
0010
0000
0000
,
0100
0000
0000
0210
0000
0000
0000
0000
0000
0000
0000
0000
1300
0000
0000
0000
,
0001
0000
0000
0100
0000
0000
0010
0000
0000
1000
0000
0000
0100
0000
0010
0000
0000
0001
0000
0000
1000
0000
0000
0000
,
1001
0000
0001
0000
0100
0000
0010
0100
,
0001
0000
0010
0000
0100
0000
1000
0010
,
0100
0000
0010
0000
1000
0000
0100
0001
,
0100
0000
1000
0000
0010
0000
0100
1000
,
0100
0101
0001
0011
,
0100
1100
1000
1010
,
0100
0101
0001
0011
,
0100
1100
1000
1010
,
0010
0011
0001
0101
,
0010
1010
1000
1100
,
0010
0011
0001
0101
,
0010
1010
1000
1100
,
0110
0000
0000
0000
0000
0000
0010
0000
0000
0001
0000
0000
0100
0000
0010
0000
0000
0100
0000
0000
0010
0000
0000
0000
,
0110
0000
0000
0010
0000
0000
1000
0000
0000
0100
0000
0000
0010
0000
0100
0000
0000
0010
0000
0000
0100
0000
0000
0000
,
0110
0000
0000
0000
0000
0000
0001
0000
0000
0100
0000
0000
0010
0000
0100
0000
0000
0010
0000
0000
0100
0000
0000
0000
,
0110
0000
0000
0010
0000
0000
1000
0000
0000
0100
0000
0000
0010
0000
0100
0000
0000
0010
0000
0000
0001
0000
0000
0000
,
1001
0000
0000
0000
0000
0000
1000
0000
0000
0100
0000
0000
0010
0000
0001
0000
0000
0010
0000
0000
0100
0000
0000
0000
,
1001
0000
0000
0001
0000
0000
0100
0000
0000
0010
0000
0000
1000
0000
0100
0000
0000
0010
0000
0000
0001
0000
0000
0000
,
0101
0000
0000
0000
0000
0000
0100
0000
0000
0001
0000
0000
0010
0000
0100
0000
0000
0010
0000
0000
0001
0000
0000
0000
,
2200
3300
0022
0033
,
0102
0000
0000
0000
0000
0000
1000
0000
0000
0000
0000
0000
0013
0000
0100
0000
0000
1000
0000
0000
0010
0000
0000
0100
,
0000
0000
0000
0000
0000
0002
0000
0000
0000
0000
0000
0000
0010
0000
0000
0000
0000
0000
0013
0000
0000
0100
0000
0000
,
2000
0000
0000
0000
0000
0000
0100
0000
0000
0000
0000
0000
3001
0000
0100
0000
0000
0001
0000
0000
0010
0000
0000
0100
,
0000
0000
0000
0000
0000
2000
0000
0000
0000
0000
0000
0000
0001
0000
0000
0000
0000
0000
3001
0000
0000
0100
0000
0000
,
0020
0000
0000
0000
0000
0000
1000
0000
0000
0000
0000
0000
0130
0000
0001
0000
0000
0010
0000
0000
0100
0000
0000
2000
,
0000
0000
0000
0000
0000
0000
0100
0000
0000
0000
0000
0000
3001
0000
0000
0000
0000
0000
0100
0000
0010
0000
0000
0100
,
0000
0000
0002
0000
0000
0000
0100
0000
0000
0000
0000
0000
1003
0000
0000
0000
0000
0100
1000
0000
0001
0000
0000
0100
,
0000
0000
0020
0000
0000
0000
0100
0000
0000
0000
0000
0000
1000
0000
0000
0000
0000
0000
0130
0000
0000
0001
0000
0000
,
1000
0000
0100
0000
0010
0001
1000
0100
,
0010
0000
0000
0001
0000
0000
0100
0000
0010
0000
0000
1000
0000
0000
0001
0000
0000
0000
0010
0000
0000
0100
0000
0000
,
1000
0000
0000
2001
0000
0000
0000
0000
0010
0000
0000
0000
3001
0000
0100
0000
,
0010
0000
0000
1000
0000
0000
0100
0000
0000
0010
0000
0000
0001
0000
0100
0000
0000
0001
0000
0000
1000
0000
0000
0000
,
0100
0000
1010
0000
0100
1000
0010
1000
,
0100
0000
0011
0000
0100
0001
0010
0001
,
0100
0000
1010
0000
0100
0010
0001
0100
,
0010
0000
0101
0000
0010
0001
1000
0100
,
0010
0001
0100
0000
0010
1000
0100
0000
,
0010
0001
0100
0000
0010
1000
0100
0000
,
0010
0100
1000
0000
0001
0010
0100
0000
,
0010
0100
1000
0000
0001
0010
0100
0000
,
1000
0100
0001
0000
1000
0010
0001
0000
,
1000
0100
0001
0000
1000
0010
0001
0000
,
1000
0100
0001
0000
0001
0010
1000
0000
,
1000
0100
0001
0000
0001
0010
1000
0000
,
2002
0000
0000
0000
,
0000
0000
0000
0000
0000
0000
0000
0000
0000
3003
0000
0110
;

//---------------dance-single - ----------------
#NOTES:
     dance-single:
     :
     Medium:
     8:
     0.314,0.358,0.165,0.139,0.004: // measure 1
0000
0000
0000
0000
,  // measure 2
0000
0000
0000
0000
,  // measure 3
0000
0000
0000
0000
,  // measure 4
0000
0000
0000
0000
,  // measure 5
0000
0000
0000
0000
,  // measure 6
0101
0000
1000
0000
0010
0100
0001
0000
,  // measure 7
1100
0000
0001
0000
0010
0100
1000
0000
,  // measure 8
0101
0000
1000
0000
0010
0100
0001
0000
,  // measure 9
2002
0000
0000
3003
,  // measure 10
0020
1000
0100
1030
,  // measure 11
0001
0010
0100
1000
0100
0010
0001
0000
,  // measure 12
2000
0010
0001
3100
,  // measure 13
0001
0100
0010
1000
0010
0100
0001
0000
,  // measure 14
1000
1000
0100
0010
,  // measure 15
0001
0001
0100
0010
,  // measure 16
1000
1000
0100
0010
,  // measure 17
0001
0001
0100
0010
,  // measure 18
1000
0100
0010
0001
,  // measure 19
1000
0100
0010
0001
,  // measure 20
1000
0100
0010
0001
,  // measure 21
1000
0100
0010
0001
,  // measure 22
1000
0100
0001
0010
,  // measure 23
1000
0100
0001
0010
,  // measure 24
1000
0100
0001
0010
,  // measure 25
1000
0100
0001
0010
,  // measure 26
2000
0000
3000
0000
0100
0010
0001
0000
,  // measure 27
0002
0000
0003
0000
0100
0010
1000
0000
,  // measure 28
2000
0000
3000
0000
0010
0100
0001
0000
,  // measure 29
0002
0000
0003
0000
0010
0100
1000
0000
,  // measure 30
1100
0000
0000
0010
0001
0100
0001
0000
,  // measure 31
0101
0000
0000
0010
1000
0100
1000
0000
,  // measure 32
1100
0000
0000
1000
0001
0100
0001
0000
,  // measure 33
0202
0303
2200
3300
,  // measure 34
0010
0000
0001
0000
0100
0001
0010
0000
,  // measure 35
0100
1000
0010
0100
,  // measure 36
0010
0000
1000
0000
0100
1000
0010
0000
,  // measure 37
0100
0001
0010
0100
,  // measure 38
1000
0000
0001
0000
0100
1000
0001
0000
,  // measure 39
0010
0100
0001
1000
,  // measure 40
0001
0000
1000
0000
0100
0001
1000
0000
,  // measure 41
0010
0001
1000
0001
,  // measure 42
2000
0000
0000
3000
,  // measure 43
0001
0000
0010
0000
0100
0000
1000
0001
,  // measure 44
0020
0000
0000
0030
,  // measure 45
0001
0000
1000
0000
0010
1000
0001
0100
,  // measure 46
0010
0010
1000
0001
,  // measure 47
0100
0100
0001
1000
,  // measure 48
0100
0100
1000
0001
,  // measure 49
0010
0010
0001
1000
,  // measure 50
0001
0100
1000
0010
,  // measure 51
0001
0100
1000
0010
,  // measure 52
0001
0100
1000
0010
,  // measure 53
0001
0100
1000
0010
,  // measure 54
0001
1001
1000
1001
,  // measure 55
0001
1001
1000
1001
,  // measure 56
0100
0110
0010
0110
,  // measure 57
0100
0110
0010
0110
,  // measure 58
2002
0000
0000
0000
,  // measure 59
0000
0000
0000
0000
0000
0000
0000
0000
0000
3003
0000
0110
;

//---------------dance-single - ----------------
#NOTES:
     dance-single:
     :
     Easy:
     4:
     0.239,0.230,0.000,0.200,0.004: // measure 1
0000
0000
0000
0000
,  // measure 2
0000
0000
0000
0000
,  // measure 3
0000
0000
0000
0000
,  // measure 4
0000
0000
0000
0000
,  // measure 5
0000
0000
0000
0000
,  // measure 6
1000
0100
0010
0001
,  // measure 7
1000
0100
0010
0001
,  // measure 8
1000
0100
0010
0001
,  // measure 9
2000
0000
0000
3000
,  // measure 10
0002
0000
0000
0000
,  // measure 11
0003
1000
0100
0010
,  // measure 12
0001
2000
0000
0000
,  // measure 13
3000
0010
0100
0001
,  // measure 14
1000
1000
1000
1000
,  // measure 15
0100
0100
0100
0100
,  // measure 16
0010
0010
0010
0010
,  // measure 17
0001
0001
0001
0001
,  // measure 18
1000
0100
0001
0100
,  // measure 19
1000
0100
0001
0100
,  // measure 20
1000
0100
0001
0100
,  // measure 21
1000
0100
0001
0100
,  // measure 22
1000
0010
0001
0010
,  // measure 23
1000
0010
0001
0010
,  // measure 24
1000
0010
0001
0010
,  // measure 25
1000
0010
0001
0010
,  // measure 26
2000
3000
0001
0010
,  // measure 27
0200
0300
1000
0010
,  // measure 28
0200
0300
0001
1000
,  // measure 29
0200
0300
0010
0001
,  // measure 30
2000
3000
0100
0010
,  // measure 31
0002
0003
0100
0010
,  // measure 32
2000
3000
0100
0010
,  // measure 33
0002
0003
2000
3000
,  // measure 34
0002
0000
1003
0100
,  // measure 35
0020
0000
0030
0001
,  // measure 36
0200
0000
0310
1000
,  // measure 37
0200
0000
0300
0010
,  // measure 38
0002
0000
1003
0100
,  // measure 39
0020
0000
0030
0100
,  // measure 40
2000
0000
3000
0001
,  // measure 41
0200
0000
0300
0000
,  // measure 42
0002
0000
0000
0000
,  // measure 43
0003
1000
0100
0010
,  // measure 44
0001
2000
0000
0000
,  // measure 45
3000
0010
0100
0001
,  // measure 46
1000
1000
1000
1000
,  // measure 47
0100
0100
0100
0100
,  // measure 48
0010
0010
0010
0010
,  // measure 49
0001
0001
0001
0001
,  // measure 50
1000
0100
0001
0100
,  // measure 51
1000
0100
0001
0100
,  // measure 52
1000
0100
0001
0100
,  // measure 53
1000
0100
0001
0100
,  // measure 54
1000
0010
0001
0010
,  // measure 55
1000
0010
0001
0010
,  // measure 56
1000
0010
0001
0010
,  // measure 57
1000
0010
0001
0010
,  // measure 58
2000
0000
0000
0000
,  // measure 59
0000
0000
0000
0000
0000
0000
0000
0000
0000
3000
0000
0001
;
