#TITLE:Samba On The Beach;
#SUBTITLE:;
#ARTIST:DJ Et3rn1-T;
#TITLETRANSLIT:;
#SUBTITLETRANSLIT:;
#ARTISTTRANSLIT:;
#GENRE:;
#CREDIT:;
#MENUCOLOR:;
#METERTYPE:DDR;
#BANNER:Samba On The Beach.png;
#BACKGROUND:Samba On The Beach-bg.png;
#LYRICSPATH:;
#CDTITLE:cdtitle.png;
#MUSIC:Samba On The Beach.mp3;
#OFFSET:-0.025;
#SAMPLESTART:35.639;
#SAMPLELENGTH:14.980;
#SELECTABLE:YES;
#LISTSORT:;
#BPMS:0.000=170.000;
#STOPS:;
#BGCHANGES:;
#ATTACKS:;

//---------------dance-single - ----------------
#NOTES:
     dance-single:
     :
     Hard:
     13:
     0.787,0.827,1.000,0.606,0.219:
0000
0000
0000
0000
,
0000
0000
0000
0000
,
0000
0000
0000
0000
,
0000
0000
0000
0000
,
0000
0000
0000
0000
,
1000
0000
0000
0100
0000
0000
0010
0000
0001
0000
0000
0100
0000
0000
0001
0000
,
0010
0000
0000
0100
0000
0000
1000
0000
0010
0000
0000
0010
0000
0000
0100
0000
,
0001
0000
0000
0010
0000
0000
0100
0000
1000
0000
0000
0010
0000
0000
0100
0000
,
0001
0000
0000
1000
0000
0000
0100
0000
0010
0000
0000
0010
0000
0000
0001
0000
,
1100
0000
0000
0001
0000
0000
0100
0000
0010
0000
1000
0000
1000
0000
0000
0000
,
0001
0000
0000
1000
0000
0000
0100
0000
0010
0000
0010
0000
0010
0000
0001
0000
,
0100
0000
0000
0010
0000
0000
1000
0000
0100
0000
0010
0000
0010
0000
0000
0000
,
0001
0000
0000
0100
0000
0000
0001
0000
0010
0000
0100
0000
0010
0000
0100
0000
,
1000
0000
0000
0010
0000
0000
0100
0000
0001
0000
0010
0000
0010
0000
0000
0000
,
0100
0000
0000
1000
0000
0000
0010
0000
0100
0000
0001
0000
0001
0000
1000
0000
,
0100
0000
0000
0010
0000
0000
0100
0000
1000
0000
0001
0000
1000
0000
0001
0000
,
0110
0000
0000
0100
0000
0000
0001
0000
0010
0000
0010
0000
0010
0000
0100
0000
,
2002
0000
3003
0010
0002
0200
0303
0010
,
0200
0020
0330
0000
2000
0002
3003
0100
,
0202
0000
0303
0001
2000
0200
3300
0010
,
0022
0000
0033
1000
0002
0200
0303
0001
,
0202
0000
0303
1000
2200
0000
3300
0001
,
0022
0000
0033
1000
2020
0000
3030
0001
,
0011
0010
0110
0100
1100
1000
1010
0010
,
0110
0001
0011
1000
1100
0001
0101
1000
,
1010
0000
1000
0000
0002
0000
0000
0013
,
0100
0000
1000
0001
0201
0000
0320
0000
,
1030
0001
0102
0013
,
2100
0000
3010
0100
0102
0000
0023
0000
,
0130
1000
1200
0310
,
0201
0000
0310
1000
1200
0000
0320
0000
,
0031
1000
0102
0013
,
2100
0000
3010
0100
0102
0000
0013
0000
,
0110
0110
0110
1001
,
2100
0000
3001
0100
0120
0000
2030
0000
,
3001
0010
2100
3010
,
0102
0000
0013
0100
0102
0000
2003
0000
,
3010
0001
0120
1030
,
0210
0000
1300
0100
0102
0000
0023
0000
,
0130
1000
0012
0103
,
0100
0000
1000
0100
0001
0000
0010
0000
,
0001
0010
0001
1000
0010
1000
0001
0100
0001
1000
0100
1000
,
0001
0000
0110
0001
1000
0000
0110
1000
,
0001
0000
0000
0100
0001
0000
0010
0000
0020
0000
0000
0000
0230
0000
0000
0000
,
1300
0000
0101
1000
0010
0000
0101
0010
,
1000
0000
0000
0100
0010
0000
0001
0000
0002
0000
0000
0000
0203
0000
0000
0000
,
0310
0000
1100
0010
0001
0000
1100
0001
,
0010
0000
0000
0100
1000
0000
0010
0000
0020
0000
0000
0000
0230
0000
0000
0000
,
0301
0000
1001
0100
0010
0000
1001
0010
,
0100
0000
0000
1000
0001
0000
0100
0000
0200
0000
0010
0000
0301
0000
0000
0000
,
1100
0100
0010
0001
0101
0100
0010
1000
,
1100
0000
0000
0100
0010
0000
0001
0000
0001
0000
0000
0000
1001
0000
0000
0000
,
0101
0100
0010
1000
1100
0100
0010
0001
,
0011
0000
0000
0010
0100
0000
1000
0000
1000
0000
0000
0000
1001
0000
0000
0000
,
0110
0200
0001
0310
0110
0200
1000
0310
,
0110
0000
0000
0100
0001
0000
1000
0000
1000
0000
0000
0000
0110
0000
0000
0000
,
1001
0002
1000
0103
0110
0020
0001
1030
,
1001
0000
0000
1000
0100
0000
0010
0000
0010
0000
0000
0010
0000
0000
0010
0000
,
0011
0000
0000
0000
0011
0000
0000
0000
0011
0000
0000
0011
0000
0000
0011
0000
,
0101
0000
0000
0000
0101
0000
0000
0000
0101
0000
0000
0101
0000
0000
0101
0000
,
1100
0000
0000
0000
1100
0000
0000
0000
1100
0000
0000
1100
0000
0000
1100
0000
,
1010
0000
0000
0100
0000
0000
0001
0000
2002
0000
0000
0000
3003
0000
0000
0000
,
0011
0000
0000
0000
1010
0000
0000
0000
0011
0000
0000
1010
0000
0000
0011
0000
,
1010
0000
0000
0000
1100
0000
0000
0000
1010
0000
0000
1100
0000
0000
1010
0000
,
1100
0000
0000
0000
0101
0000
0000
0000
1100
0000
0000
0101
0000
0000
1100
0000
,
0101
0000
0010
0100
0110
0000
1001
0000
,
0010
0000
1000
0000
0100
0000
1000
0000
1010
0000
0000
0110
0000
0000
0101
0000
,
0010
0000
0001
0000
0100
0000
0001
0000
0011
0000
0000
0110
0000
0000
1100
0000
,
0010
0000
1000
0000
0100
0000
0001
0000
0101
0000
0000
1100
0000
0000
1010
0000
,
0110
0000
0000
0100
0001
0000
1000
0000
2002
0000
0000
0000
3003
0000
0000
0000
,
0010
0000
0001
0000
0100
0000
0001
0000
0011
0000
0000
0110
0000
0000
1100
0000
,
0010
0000
1000
0000
0100
0000
1000
0000
1010
0000
0000
0110
0000
0000
0101
0000
,
0010
0000
0001
0000
0100
0000
1000
0000
1100
0000
0000
0101
0000
0000
0011
0000
,
0110
0000
1000
0001
1001
0000
0110
0000
,
1001
0000
0000
0000
;

//---------------dance-single - ----------------
#NOTES:
     dance-single:
     :
     Medium:
     10:
     0.478,0.586,0.456,0.233,0.065: // measure 1
0000
0000
0000
0000
,  // measure 2
0000
0000
0000
0000
,  // measure 3
0000
0000
0000
0000
,  // measure 4
0000
0000
0000
0000
,  // measure 5
0000
0000
0000
0000
,  // measure 6
0001
0100
1000
0100
,  // measure 7
0001
0100
1000
0100
,  // measure 8
0001
0100
1000
0100
,  // measure 9
0001
0100
1000
0100
,  // measure 10
1001
0000
0100
0100
,  // measure 11
0010
0000
0100
0100
,  // measure 12
0001
0000
0100
0100
,  // measure 13
1000
0100
0010
1000
,  // measure 14
0100
0000
0010
0010
,  // measure 15
0001
0000
0010
0010
,  // measure 16
0100
0000
0010
0010
,  // measure 17
0002
2000
0000
0000
0000
0000
3003
0000
,  // measure 18
1100
0000
0101
0000
,  // measure 19
0011
0000
1010
0000
,  // measure 20
1100
0000
1010
0000
,  // measure 21
0011
0000
0101
0000
,  // measure 22
1100
0000
0000
0001
0100
0000
0000
0000
,  // measure 23
0101
0000
0000
1000
0100
0000
0000
0000
,  // measure 24
0011
1000
0100
0001
,  // measure 25
0010
0100
1000
0001
1000
0001
0100
0010
,  // measure 26
1000
0000
0100
0000
0020
0000
0030
0001
,  // measure 27
0100
0000
0001
0010
0100
0000
1000
0000
,  // measure 28
1001
0010
0100
0001
,  // measure 29
0020
0000
0031
1000
0100
0000
0010
0000
,  // measure 30
0110
1000
0001
0100
,  // measure 31
2000
0000
3010
0100
0001
0000
1000
0000
,  // measure 32
1100
0001
0010
0001
,  // measure 33
0001
0000
0100
0010
1000
0000
0001
0000
,  // measure 34
1000
1000
1000
1000
,  // measure 35
0200
0000
0310
0001
0200
0000
0310
0000
,  // measure 36
1001
0100
0010
0001
,  // measure 37
2000
0000
3010
0100
0002
0000
1003
0000
,  // measure 38
0110
0001
0100
1000
,  // measure 39
0002
0000
0103
0010
0002
0000
1003
0000
,  // measure 40
0110
1000
0100
0010
,  // measure 41
0020
0000
0130
0001
2000
0000
3001
0000
,  // measure 42
0110
0110
0110
0110
,  // measure 43
1100
0100
1100
0100
,  // measure 44
0010
0000
0100
1000
0002
0000
0003
0000
,  // measure 45
0101
0001
0101
0001
,  // measure 46
0010
0000
0100
1000
0002
0000
0003
0000
,  // measure 47
1010
1000
1010
1000
,  // measure 48
1010
0000
0100
0001
0020
0000
0030
0000
,  // measure 49
0011
0001
0011
0001
,  // measure 50
0011
0000
0100
1000
0020
0000
0030
0000
,  // measure 51
1100
0001
1100
0001
,  // measure 52
1100
0000
0010
0001
0200
0000
0300
0000
,  // measure 53
0101
1000
0101
1000
,  // measure 54
0101
0000
0010
1000
0200
0000
0300
0000
,  // measure 55
1100
0101
1100
0101
,  // measure 56
1100
0000
0010
0001
0200
0000
0300
0000
,  // measure 57
0011
1010
0011
1010
,  // measure 58
0011
0000
0100
1000
0020
0000
0030
0000
,  // measure 59
0100
0000
0000
0000
0001
0000
0000
0000
0100
0000
0000
0001
0000
0000
0100
0000
,  // measure 60
0001
0000
0000
0000
0010
0000
0000
0000
0001
0000
0000
0010
0000
0000
0001
0000
,  // measure 61
0010
0000
0000
0000
0100
0000
0000
0000
0010
0000
0000
0100
0000
0000
0010
0000
,  // measure 62
0100
0000
0000
1000
0000
0000
0001
0000
2000
0000
0000
0000
3000
0000
0000
0000
,  // measure 63
0100
0000
0000
0000
1000
0000
0000
0000
0100
0000
0000
1000
0000
0000
0100
0000
,  // measure 64
1000
0000
0000
0000
0010
0000
0000
0000
1000
0000
0000
0010
0000
0000
1000
0000
,  // measure 65
0010
0000
0000
0000
0100
0000
0000
0000
0010
0000
0000
0100
0000
0000
0010
0000
,  // measure 66
0100
0000
0001
1000
0002
0000
0103
0000
,  // measure 67
0010
0000
0000
0000
1000
0000
0000
0000
0100
0000
0000
1000
0000
0000
0010
0000
,  // measure 68
0100
0000
0000
0000
0001
0000
0000
0000
0010
0000
0000
0001
0000
0000
0100
0000
,  // measure 69
0010
0000
0000
0000
1000
0000
0000
0000
0001
0000
0000
1000
0000
0000
0010
0000
,  // measure 70
0100
0000
0000
0001
0000
0000
0010
0000
0200
0000
0000
0000
0300
0000
0000
0000
,  // measure 71
0010
0000
0000
0000
0001
0000
0000
0000
0100
0000
0000
0001
0000
0000
0010
0000
,  // measure 72
0100
0000
0000
0000
1000
0000
0000
0000
0010
0000
0000
1000
0000
0000
0100
0000
,  // measure 73
0010
0000
0000
0000
0001
0000
0000
0000
1000
0000
0000
0001
0000
0000
0010
0000
,  // measure 74
0100
0000
1000
0010
0200
0000
0310
0000
,  // measure 75
1001
0000
0000
0000
;

//---------------dance-single - ----------------
#NOTES:
     dance-single:
     :
     Easy:
     8:
     0.403,0.552,0.466,0.102,0.000: // measure 1
0000
0000
0000
0000
,  // measure 2
0000
0000
0000
0000
,  // measure 3
0000
0000
0000
0000
,  // measure 4
0000
0000
0000
0000
,  // measure 5
0000
0000
0000
0000
,  // measure 6
0001
0000
0001
0000
,  // measure 7
0100
0000
0100
0000
,  // measure 8
1000
0000
1000
0000
,  // measure 9
0010
0000
0010
0000
,  // measure 10
0001
0000
0001
0000
,  // measure 11
0010
0000
0010
0000
,  // measure 12
1000
0000
1000
0000
,  // measure 13
0100
0000
0100
0000
,  // measure 14
0001
0000
0001
0000
,  // measure 15
0010
0000
0010
0000
,  // measure 16
1000
0000
1000
0000
,  // measure 17
0010
0000
0010
0000
,  // measure 18
0001
0000
0001
0000
,  // measure 19
0100
0000
0100
0000
,  // measure 20
1000
0000
1000
0000
,  // measure 21
0010
0000
0010
0000
,  // measure 22
0001
0000
0100
0000
,  // measure 23
1000
0000
0010
0000
,  // measure 24
0001
0100
0001
0100
,  // measure 25
1000
0010
1000
0010
,  // measure 26
0002
0000
2000
3003
,  // measure 27
0010
0000
1000
0001
0100
0000
0010
0000
,  // measure 28
0100
0100
1000
0010
,  // measure 29
0100
0000
0100
0001
0010
0000
0100
0000
,  // measure 30
1000
1000
0001
0000
,  // measure 31
0100
0000
0010
1000
0010
0000
0100
0000
,  // measure 32
0001
0001
1000
0100
,  // measure 33
0010
0000
0010
0100
1000
0000
0001
0000
,  // measure 34
1001
0000
0100
0100
,  // measure 35
0001
0000
0010
0100
0010
0000
0001
0000
,  // measure 36
0100
0100
0010
1000
,  // measure 37
0001
0000
0100
0010
0100
0000
0001
0000
,  // measure 38
1000
1000
0100
0010
,  // measure 39
0001
0000
0100
0010
0100
0000
0001
0000
,  // measure 40
1000
1000
0100
0010
,  // measure 41
0001
0000
0100
0010
0100
0000
0001
0000
,  // measure 42
0020
0000
0030
0000
,  // measure 43
1001
0100
1001
0100
,  // measure 44
1001
0110
1001
0000
,  // measure 45
0110
0001
0110
0001
,  // measure 46
0110
1001
0110
0000
,  // measure 47
1001
0010
1001
0010
,  // measure 48
1001
0110
1001
0000
,  // measure 49
0110
1000
0110
1000
,  // measure 50
0110
1001
0110
0000
,  // measure 51
1100
0001
1100
0001
,  // measure 52
1100
0011
1100
0000
,  // measure 53
0101
1000
0101
1000
,  // measure 54
0101
1010
0101
0000
,  // measure 55
0011
0011
1100
1100
,  // measure 56
0011
1100
0011
0000
,  // measure 57
1010
1010
0101
0101
,  // measure 58
1010
0101
1010
0000
,  // measure 59
0001
0000
0100
0000
0001
0000
0100
0010
,  // measure 60
0100
0000
0010
0000
0100
0000
0010
1000
,  // measure 61
0010
0000
1000
0000
0010
0000
1000
0100
,  // measure 62
0010
0001
2002
3003
,  // measure 63
1000
0000
0100
0000
1000
0000
0100
0010
,  // measure 64
0100
0000
0010
0000
0100
0000
0010
0001
,  // measure 65
0010
0000
0001
0000
0010
0000
0001
0100
,  // measure 66
0010
1000
2002
3003
,  // measure 67
0001
0000
0100
0000
0001
0000
0100
1000
,  // measure 68
0100
0000
1000
0000
0100
0000
1000
0010
,  // measure 69
1000
0000
0010
0000
1000
0000
0010
0001
,  // measure 70
0100
0010
0220
0330
,  // measure 71
1000
0000
0100
0000
1000
0000
0100
0001
,  // measure 72
0100
0000
0001
0000
0100
0000
0001
0010
,  // measure 73
0001
0000
0010
0000
0001
0000
0010
1000
,  // measure 74
0100
0010
0220
0330
,  // measure 75
1001
0000
0000
0000
;
