#TITLE:Riot of Color (in NES);
#SUBTITLE:;
#ARTIST:Remixed by daja77;
#TITLETRANSLIT:;
#SUBTITLETRANSLIT:;
#ARTISTTRANSLIT:;
#GENRE:;
#CREDIT:;
#MENUCOLOR:;
#METERTYPE:DDR;
#BANNER:Riot of Color (in NES).png;
#BACKGROUND:Riot of Color (in NES)-bg.png;
#LYRICSPATH:;
#CDTITLE:cdtitle.png;
#MUSIC:Riot of Color (in NES).mp3;
#OFFSET:-0.025;
#SAMPLESTART:0.000;
#SAMPLELENGTH:15.000;
#SELECTABLE:YES;
#LISTSORT:;
#BPMS:0.000=150.248,191.000=600.992,195.000=150.248;
#DISPLAYBPM:150.248;
#STOPS:;
#BGCHANGES:;
#ATTACKS:;

//---------------dance-single - ----------------
#NOTES:
     dance-single:
     :
     Hard:
     14:
     0.700,0.780,0.269,0.455,0.613:
0000
0000
0000
0000
,
0000
0000
0000
0000
,
0000
0000
0000
0000
,
0000
0000
0000
0000
,
0001
0100
0000
0010
0000
0000
1000
0100
0000
0010
0000
0000
0001
0100
0000
0010
,
0000
0000
1000
0100
0000
0010
0000
0000
0001
0000
0001
0000
0100
0000
0010
0000
,
1000
0010
0000
0100
0000
0000
0001
0010
0000
0100
0000
0000
1000
0010
0000
0100
,
0000
0000
0001
0010
0000
0100
0000
0000
1000
0000
1000
0000
0010
0000
0100
0000
,
0002
0000
0000
0023
0000
0000
0230
0000
0000
0000
1300
0000
0001
0000
0000
0000
,
0100
0000
0010
1000
0010
0100
0000
0001
0000
0001
0100
0000
0010
0000
1000
0000
,
0200
0000
0000
0320
0000
0000
0032
0000
0000
0000
1003
0000
0100
0000
0000
0000
,
0010
0000
0001
0100
0001
0000
1000
0100
1000
0000
0001
0010
0001
0010
0100
1000
,
0002
0000
0000
0203
0000
0000
0320
0000
0000
0000
1030
0000
0100
0000
0000
0000
,
1000
0000
0010
0100
0010
1000
0000
0001
0000
0001
0100
0000
0010
0000
0100
0000
,
0002
0000
0000
2003
0000
0000
3020
0000
0000
0000
0030
0000
0100
0000
0000
0000
,
0001
0000
0000
1000
0000
0000
0001
0000
0010
0000
0000
0000
0110
0000
0000
0000
,
0100
0000
1000
0100
0000
0010
0000
0010
0000
0001
0100
0000
0001
0000
0010
0000
,
0100
0000
1000
0100
0000
0100
0020
0000
0000
0000
0030
0000
0001
0000
1000
0100
,
2000
0000
0000
0000
3001
0000
0100
0010
0100
0000
0001
0000
0010
0100
0010
0100
,
1000
0000
0000
0001
0000
0000
0100
0000
0110
0000
0000
0000
1001
0000
0000
0000
,
0100
0000
0001
0100
0000
0010
0000
0010
0000
1000
0100
0000
1000
0000
0010
0000
,
0100
0000
0001
0100
0000
0100
0020
0000
0000
0000
0030
0000
1000
0000
0001
0100
,
0002
0000
0000
0000
1003
0000
0100
0000
1000
0001
1000
0000
0010
0100
0010
0100
,
0001
0000
0000
1000
0000
0000
0100
0000
0110
0000
0000
0000
1001
0000
0000
0000
,
0001
0000
0000
0100
0000
0000
0001
0000
0000
0010
0000
0000
0100
0000
1000
0000
,
0001
0000
0000
0010
0000
0000
0100
0000
0000
0001
0000
0000
0100
0000
0010
0000
,
0001
0000
0000
0100
0000
0000
0010
0000
0000
1000
0000
0000
0010
0000
0100
0000
,
0001
0000
0000
0010
0000
0000
0100
0000
0000
1000
0000
0000
0100
0000
0001
0000
,
0100
0000
0000
1000
0000
0000
0010
0000
0000
0100
0000
0000
0001
0000
0010
0000
,
0001
0000
0000
0100
0000
0000
1000
0000
0000
0100
0000
0000
0010
0000
0100
0000
,
1000
0000
0000
0100
0000
0000
0010
0000
1000
0000
0100
0000
0001
0000
0100
0000
,
0010
0000
0000
0001
0000
0000
1000
0000
1001
0000
0000
0000
0110
0000
0000
0000
,
0002
0000
0013
0100
1100
0002
0000
0103
,
0020
0130
1001
0010
,
0200
0000
1300
0020
0100
0000
1030
0000
,
0001
0010
1000
0010
0100
0001
0100
1000
,
0002
0000
1003
0100
0110
2000
0000
3001
,
0200
0310
1010
0101
,
0002
0000
0013
0200
1000
0000
0310
0000
,
0001
0000
0000
1000
0000
0000
0001
0000
0100
0000
0000
0000
0110
0000
0000
0000
,
0002
0000
0000
0023
0000
0000
0230
0000
1000
0000
0000
0000
0310
0000
0000
0000
,
0001
0000
1000
0100
1000
0100
0000
0010
0000
0100
1000
0000
0001
0000
0100
0000
,
0020
0000
0000
0230
0000
0000
0302
0000
0010
0000
0000
0000
1003
0000
0000
0000
,
0100
0000
0010
0100
1000
0000
1000
0100
0010
0000
0001
0000
0100
0010
0100
0010
,
2000
0000
0000
3200
0000
0000
0320
0000
0001
0000
0000
0000
0130
0000
0000
0000
,
1000
0000
0001
0100
0001
0100
0000
0010
0000
0100
0001
0000
1000
0000
0100
0000
,
0020
0000
0000
0230
0000
0000
2300
0000
0001
0000
0000
0000
3100
0000
0000
0000
,
1100
0000
0000
0110
0000
0000
0011
0000
1001
0000
0000
0000
0220
0000
0000
0000
,
0000
0000
0000
0000
0300
0000
1030
0100
,
1000
0000
0100
0000
0010
0000
0001
0000
0010
0000
0001
1000
0001
0000
0100
0000
,
0010
0000
1000
0001
1000
0000
0010
0000
0100
0000
0001
0000
0010
0000
0100
1000
,
0100
0000
0010
0000
0001
0100
0001
0000
1000
0000
0010
0000
0100
0001
0100
0001
,
1000
0100
1000
0100
0010
0001
1000
0100
0020
0000
0000
0000
0031
0000
0100
0000
,
1000
0100
0001
0100
0010
1000
0100
0001
,
0100
0000
1000
0000
0100
0000
0010
0000
0001
0000
0100
0000
0110
0000
0000
0101
,
0000
0000
2002
0000
0000
0000
3003
0000
0010
0000
0100
0000
0101
0000
0000
0110
,
0000
0000
1010
0000
1001
0000
0000
0000
0110
0000
0000
0000
1000
0100
0000
0010
,
0000
0000
0001
0100
0000
0010
0000
0000
1000
0100
0000
0010
0000
0000
0001
0100
,
0000
0010
0000
0000
1000
0000
0100
0000
0001
0000
0100
0000
1000
0010
0100
0001
,
0000
0000
0001
0010
0100
1000
0000
0000
1000
0010
0100
0001
0000
0000
0001
0010
,
0100
1000
0000
0000
0001
0000
0001
0000
1000
0000
1000
0000
0001
0010
0100
2000
,
0000
3000
1000
0100
0010
0002
0000
0003
0001
0100
0010
2000
0000
3000
1000
0010
,
0100
0002
0000
0003
1000
0000
1000
0000
0001
0000
0001
0000
1000
0010
0100
0010
,
0100
0000
0001
0010
0100
0010
0100
0000
1000
0010
0100
0010
0100
0000
0001
0010
,
0100
0010
0100
0000
1000
0000
1100
0000
0001
0000
0101
0000
0000
0000
0000
0000
,
0000
2002
0000
0000
,
0000
0000
0000
0000
,
0000
0000
0000
3003
0000
0000
0000
0000
0000
0000
0000
0000
0000
0000
0000
0000
;

//---------------dance-single - ----------------
#NOTES:
     dance-single:
     :
     Medium:
     11:
     0.544,0.593,0.381,0.167,0.223:
0000
0000
0000
0000
,
0000
0000
0000
0000
,
0000
0000
0000
0000
,
0000
0000
0000
0000
,
1000
0000
0000
1100
0000
0000
0001
0000
0000
0101
0000
0000
1000
0000
0000
1010
,
0000
0000
0001
0000
0000
0011
0000
0000
1000
0000
0100
0000
0010
0000
0001
0000
,
1000
0000
0000
0101
0000
0000
0001
0000
0000
1100
0000
0000
1000
0000
0000
0011
,
0000
0000
0001
0000
0000
1010
0000
0000
1000
0000
0010
0000
0100
0000
0001
0000
,
1000
0000
0000
0100
0000
0000
0020
0000
0000
0000
0000
0000
0000
0000
0000
0000
,
0030
0000
0001
0000
0001
0000
0000
1000
0000
0100
1000
0000
0010
0000
0100
0000
,
0001
0000
0000
0010
0000
0000
0200
0000
0000
0000
0000
0000
0000
0000
0000
0000
,
1300
0001
0001
0100
0100
0010
0010
1000
,
0100
0000
0000
0010
0000
0000
0002
0000
0000
0000
0000
0000
0000
0000
0000
0000
,
0003
0000
1000
0000
1000
0000
0000
0010
0000
0100
0010
0000
1000
0000
0100
0000
,
0010
0000
0000
0001
0000
0000
2000
0000
0000
0000
0000
0000
3010
0000
0000
0000
,
0100
0000
0000
0001
0000
0000
1000
0000
1100
0000
0000
0000
0101
0000
0000
0000
,
1000
0000
0000
0001
0000
0100
0000
0010
0000
0000
1000
0000
0010
0000
0100
0000
,
0001
0000
0000
0010
0000
0000
0200
0000
0000
0000
0000
0000
0000
0000
1300
0000
,
0001
0000
1000
0100
0010
0001
0010
0100
,
1000
0000
0000
0001
0000
0000
0100
0000
0110
0000
0000
0000
1001
0000
0000
0000
,
0010
0000
0000
1000
0000
0001
0000
0100
0000
0000
0010
0000
0100
0000
0001
0000
,
0010
0000
0000
0100
0000
0000
2000
0000
0000
0000
0000
0000
0000
0000
3001
0000
,
0200
0000
0300
0000
0010
1000
0100
0001
,
0100
0000
0000
1000
0000
0000
0001
0000
1001
0000
0000
0000
0110
0000
0000
0000
,
0001
0100
1000
0100
0001
0100
1000
0000
,
0001
0010
1000
0010
0001
0100
0010
0000
,
1000
0100
0001
0100
1000
0100
0001
0000
,
1000
0010
0001
0010
1000
0100
0010
0000
,
0001
0100
1000
0100
0001
0010
0100
0000
,
1000
0100
0001
0100
1000
0010
0100
0000
,
1000
0100
0001
0010
0100
0001
0100
1000
,
0010
0100
0010
0100
0001
0010
0100
1000
,
1001
0000
0010
0000
0110
0000
0100
0001
,
0010
0100
1000
0000
1001
0000
0010
0000
,
0100
0001
1001
0010
,
1000
0100
0010
0000
0011
0000
1100
0000
,
0001
0000
0100
0010
1000
0000
0001
0010
,
0100
0010
0001
0000
1001
0000
0100
0000
,
1001
0010
0110
0100
,
0001
0000
0000
0010
0000
0000
0100
0000
1000
0000
0000
0001
0000
0000
0010
0000
,
0200
1000
1000
1300
,
0010
0100
0001
0000
0010
0100
1000
0100
,
0020
0001
0001
0031
,
0100
0010
1000
0000
0100
0010
1000
0010
,
0200
0001
0001
0301
,
0001
0010
0100
0000
1000
0010
0100
0010
,
2000
0000
0000
3000
,
0001
0000
0000
1000
0000
0000
0010
0000
0110
0000
0000
0000
1001
0000
0000
0000
,
0000
0000
0000
0000
0000
0000
0010
1000
,
0100
0000
0010
1000
0100
0010
0001
0000
,
0100
0001
0010
0001
0100
0000
0010
1000
,
0010
1000
0001
0010
0001
0010
0100
1000
,
0010
1000
0100
0010
0001
0000
1000
0100
,
0001
0100
1000
0100
1000
0100
1000
0010
,
0001
0000
0010
0000
1000
0000
0010
0000
1000
0000
0010
0000
0100
0000
0000
0001
,
0000
0000
2000
0000
0000
0000
0000
0000
3001
0000
0000
0000
0010
0000
0000
0100
,
0000
0000
1000
0000
0001
0000
0000
0000
1001
0000
0000
0000
0010
0000
0000
0011
,
0000
0000
0100
0000
0000
1100
0000
0000
1000
0000
0000
1010
0000
0000
0001
0000
,
0000
0011
0000
0000
1000
0000
0100
0000
0010
0000
0001
0000
0100
0000
0000
0101
,
0000
0000
0010
0000
0000
1010
0000
0000
0001
0000
0000
0101
0000
0000
1000
0000
,
0000
1100
0000
0000
0001
0000
0010
0000
0100
0000
1000
0000
0001
0000
0000
0102
,
0000
0000
0013
0000
0000
2100
0000
0000
3010
0000
0000
0102
0000
0000
0013
0000
,
0000
2100
0000
0000
3010
0000
0100
0000
0001
0000
0010
0000
0100
0000
1000
0001
,
0000
0000
0100
0000
0010
1000
0000
0000
0001
0000
0010
0100
0000
0000
1000
0000
,
0010
0100
0000
0000
0001
0000
0101
0000
1000
0000
1100
0000
0000
0000
0000
0000
,
0000
2002
0000
0000
,
0000
0000
0000
0000
,
0000
0000
0000
3003
0000
0000
0000
0000
0000
0000
0000
0000
0000
0000
0000
0000
;

//---------------dance-single - ----------------
#NOTES:
     dance-single:
     :
     Easy:
     6:
     0.368,0.437,0.186,0.111,0.000: // measure 1
0000
0000
0000
0000
,  // measure 2
0000
0000
0000
0000
,  // measure 3
0000
0000
0000
0000
,  // measure 4
0000
0000
0000
0000
,  // measure 5
1001
0000
0000
0110
0000
0000
1001
0000
,  // measure 6
0000
0110
0000
0000
0001
0000
1000
0000
,  // measure 7
1001
0000
0000
0110
0000
0000
1001
0000
,  // measure 8
0000
0110
0000
0000
1000
0000
0001
0000
,  // measure 9
1002
0000
0010
0000
0103
0010
0100
0000
,  // measure 10
0001
0000
1000
0001
1000
0001
1000
0000
,  // measure 11
0010
0000
0100
0000
0001
0010
0001
0000
,  // measure 12
1000
0000
0100
0000
1000
0010
1000
0000
,  // measure 13
0002
0000
0100
0000
1003
0100
1000
0000
,  // measure 14
0001
0000
0010
0100
0010
0100
0010
0000
,  // measure 15
0001
1000
0010
0100
,  // measure 16
0001
0010
0001
0000
1000
0000
1001
0000
,  // measure 17
0001
0001
0100
0100
,  // measure 18
1000
0100
0002
0003
,  // measure 19
1000
1000
0100
0100
,  // measure 20
0001
0100
2000
3000
,  // measure 21
0001
0001
0010
0010
,  // measure 22
1000
0010
0002
0003
,  // measure 23
1000
1000
0010
0010
,  // measure 24
0001
0010
2000
3000
,  // measure 25
0001
0000
0000
0100
0000
0000
0001
0000
,  // measure 26
0000
0010
0000
0000
0001
0000
1000
0000
,  // measure 27
0100
0000
0000
0010
0000
0000
0100
0000
,  // measure 28
0000
1000
0000
0000
0010
0000
0100
0000
,  // measure 29
0001
0000
0000
1000
0000
0000
0001
0000
,  // measure 30
0000
0010
0000
0000
0100
0000
1000
0000
,  // measure 31
0010
0000
0000
0100
0000
0000
0001
0000
,  // measure 32
0000
1000
0000
0000
0100
0000
0010
0000
,  // measure 33
0002
0100
1003
0001
,  // measure 34
0100
0010
0100
0000
0001
0000
1001
0000
,  // measure 35
2000
0100
3001
0100
,  // measure 36
0010
1000
0010
0000
0100
0000
0001
0000
,  // measure 37
0020
0100
0031
1000
,  // measure 38
0010
0100
0010
0000
1000
0000
0001
0000
,  // measure 39
0200
0010
0301
1000
,  // measure 40
0001
0010
0100
0110
,  // measure 41
1000
0100
1000
0010
,  // measure 42
0100
0001
0100
0000
0001
1000
0001
1000
,  // measure 43
0001
1000
0100
0010
,  // measure 44
0100
0000
1000
0000
0010
0000
0100
0001
,  // measure 45
0100
0001
0010
0100
,  // measure 46
1000
0001
1000
0000
0001
0100
0001
0100
,  // measure 47
0001
0010
0100
1000
,  // measure 48
0001
1000
1001
0100
,  // measure 49
0000
0000
0000
0000
,  // measure 50
0001
0000
0000
0000
0001
1000
0001
0000
,  // measure 51
1000
0000
0000
0000
1000
0001
1000
0000
,  // measure 52
0010
0000
0100
0000
0001
0000
1000
0100
,  // measure 53
1000
0000
0001
0100
0001
0000
0010
0000
,  // measure 54
0100
1000
0100
0010
,  // measure 55
0001
0100
0001
0010
,  // measure 56
0000
0010
0100
0000
1000
0000
0001
0000
,  // measure 57
1000
1001
1001
0010
,  // measure 58
0000
0100
0000
0000
0010
0000
0000
0100
,  // measure 59
0000
0000
0001
0010
0001
0010
0001
0000
,  // measure 60
0000
1000
0000
0000
0100
0000
0000
1000
,  // measure 61
0000
0000
0010
0100
0010
0100
0010
0000
,  // measure 62
0000
1001
0000
0000
0100
0000
0000
1001
,  // measure 63
0000
0000
0010
1000
0100
0010
0001
0000
,  // measure 64
0000
1001
0000
0000
0010
0000
0000
1001
,  // measure 65
0000
0000
0100
0100
0100
0100
0000
0000
,  // measure 66
0000
2002
0000
0000
,  // measure 67
0000
0000
0000
0000
,  // measure 68
0000
0000
0000
3003
0000
0000
0000
0000
0000
0000
0000
0000
0000
0000
0000
0000
;
