#TITLE:Melody;
#SUBTITLE:;
#ARTIST:kors k feat. 吉河順央 (LAZY GUNG);
#TITLETRANSLIT:;
#SUBTITLETRANSLIT:;
#ARTISTTRANSLIT:kors k feat. Sunao Yoshikawa (LAZY GUNG);
#GENRE:;
#CREDIT:;
#MENUCOLOR:;
#METERTYPE:DDR;
#BANNER:Melody.png;
#BACKGROUND:Melody-bg.png;
#LYRICSPATH:;
#CDTITLE:cdtitle.png;
#MUSIC:Melody.mp3;
#OFFSET:-0.025;
#SAMPLESTART:86.729;
#SAMPLELENGTH:15.000;
#SELECTABLE:YES;
#LISTSORT:;
#BPMS:0.000=165.000;
#STOPS:;
#BGCHANGES:;
#ATTACKS:;

//---------------dance-single - ----------------
#NOTES:
     dance-single:
     :
     Hard:
     13:
     0.683,0.813,0.396,0.317,0.062:
0000
0000
0000
0000
,
0000
0000
0000
0000
,
0000
0000
0000
0000
,
0000
0000
0000
0000
,
0101
0000
0000
0000
1100
0000
0000
1000
0100
0000
0010
0000
0001
0000
1000
0000
,
0000
1000
0000
1000
0010
0100
0001
0010
,
0110
0000
0000
0000
1001
0000
0000
0001
0100
0000
0001
0000
0010
0000
0100
0000
,
0000
0100
0000
0100
1000
0010
0100
0001
,
1001
0000
0000
0000
0110
0000
0000
0010
1000
0000
0001
0000
0010
0000
0100
0000
,
0000
0100
0000
0100
0001
0100
0010
0001
,
0101
0000
0000
0000
1010
0000
0000
1000
0001
0000
0010
0000
0100
0000
1000
0000
,
0000
1000
0000
1000
0010
0100
1000
0100
,
0110
0000
0000
0000
1001
0000
0000
0001
0010
0000
0100
0000
1000
0000
0010
0000
,
0000
0010
0000
0010
0100
1000
0100
0001
,
0011
0000
0000
0000
1010
0000
0000
1000
0010
0000
0100
0000
1000
0000
0100
0000
,
0000
0000
0100
0000
0100
0000
0100
0000
0001
0000
0010
0000
0100
1000
0100
1000
,
0200
0000
1300
0020
0000
0130
0001
0020
,
0000
0230
0000
2300
0000
3001
0100
1000
,
0200
0000
0301
0020
0000
0130
1000
0002
,
0000
0203
0000
0320
0000
1030
0100
0001
,
0100
0010
0010
0100
1000
0001
0100
0110
,
1000
0010
0100
0100
0001
0010
0100
1000
,
0001
0000
0100
0000
0100
0000
0100
0000
1000
0000
0100
0010
0100
0000
2002
0000
,
0000
0000
0000
0000
0000
0000
0003
3010
,
0201
0001
0001
1000
,
0001
0001
0001
1300
,
2100
0100
0100
0010
,
0100
0000
0100
0000
0100
0000
3010
0100
,
0102
0100
0100
0010
,
0100
0100
0100
0013
,
1200
1000
1000
0001
,
1000
0000
1000
0000
1000
0000
0301
0100
,
0120
0100
0100
0001
,
0100
0100
0100
0031
,
0120
0100
0100
1000
,
0100
0100
0100
1030
,
1001
0000
0010
1000
0100
1000
0010
0000
,
0101
0000
0010
0100
1000
0100
0010
0000
,
0101
1000
0100
0100
0010
0001
1000
1100
,
0000
0000
0101
0000
1000
0000
0001
0100
0001
0100
0001
0000
0010
0000
0100
1000
,
0100
1000
0100
1000
0010
0100
0010
0100
,
0001
0010
0100
1000
0100
0010
0001
1000
,
0010
0100
0010
0100
1000
0100
0001
0100
,
0010
1000
0100
0010
0001
0010
0100
0000
,
0010
0001
0010
0001
0100
0010
0100
0010
,
1000
0100
0010
0001
0010
0100
1000
0001
,
0100
0010
0100
0010
0001
0010
1000
0010
,
0100
0001
0010
0100
1000
0100
0010
0000
,
0001
0100
1000
0100
0001
0100
0010
0000
,
1000
0100
0001
0100
1000
0100
0010
0000
,
0001
0100
0010
0001
1000
0100
0110
0000
,
1000
0100
0010
1000
0001
0100
0110
0000
,
0001
0001
0100
0100
0010
1000
0101
0000
,
1000
1000
0010
0010
0100
0001
1010
0000
,
2100
3020
0230
0302
,
1003
0000
0000
0101
0000
0000
1100
0000
,
0001
0000
0010
0100
0001
0100
1000
0010
,
0100
0000
1000
0100
0001
0010
0100
0010
,
0100
0001
0001
0100
1000
1000
0010
0001
,
0001
0010
0100
0001
0010
0100
1000
0001
,
0102
0000
0013
0100
1000
0100
0001
0100
,
2000
0010
3001
0100
1000
0100
0001
0010
,
0210
0000
1300
0001
0100
1000
0100
0010
,
2000
0100
3001
0100
1000
0100
0010
1000
,
2100
0000
3001
0100
1000
0100
0010
1000
,
0002
0100
1003
0010
0100
1000
0100
0001
,
1001
1000
0100
0020
0000
0130
0100
0000
,
1000
0000
0010
0000
0100
0000
0100
0000
0001
0000
0010
0100
0010
0000
0001
0000
,
0002
0000
0103
1000
0100
0010
1000
0100
,
0020
0000
0031
0100
1000
0100
0001
0010
,
0200
0000
1300
0010
0100
0001
0010
0100
,
2000
0001
3001
0010
1000
0010
0100
1000
,
0020
0030
0101
0100
0110
0100
0101
1100
,
0000
0010
1010
0010
0110
0010
1010
0011
,
0001
0000
0100
0000
1000
0000
1000
0000
0100
0000
0001
0010
0100
0000
2002
0000
,
0000
0000
0000
0000
,
0000
0000
0000
0000
0000
0000
0000
3003
;

//---------------dance-single - ----------------
#NOTES:
     dance-single:
     :
     Medium:
     10:
     0.520,0.576,0.097,0.432,0.000: // measure 1
0000
0000
0000
0000
,  // measure 2
0000
0000
0000
0000
,  // measure 3
0000
0000
0000
0000
,  // measure 4
0000
0000
0000
0000
,  // measure 5
1000
0000
1000
0000
0001
0010
0100
0010
,  // measure 6
0000
0010
0000
0010
0001
0000
0100
0000
,  // measure 7
0001
0000
0001
0000
1000
0010
0100
0010
,  // measure 8
0000
0010
0000
0010
1000
0100
0010
0100
,  // measure 9
1000
0000
0001
0000
0100
0010
0100
0000
,  // measure 10
0001
0000
0010
0100
0010
0100
1000
0000
,  // measure 11
0001
0000
1000
0000
0100
0010
0100
0000
,  // measure 12
1000
0000
0010
0100
0010
0100
0001
0000
,  // measure 13
1000
0000
0001
0010
0001
0000
0001
0100
,  // measure 14
0000
0100
0010
1000
0100
0010
0001
0010
,  // measure 15
0100
0000
1000
0001
1000
0000
0001
0100
,  // measure 16
0000
0100
0010
0010
1000
0100
0100
0010
,  // measure 17
0002
0000
1003
0200
0000
0320
0000
0230
,  // measure 18
0000
2300
0000
3020
0000
0130
0001
0100
,  // measure 19
0020
0000
1030
0200
0000
0320
0000
0230
,  // measure 20
0000
2300
0000
3002
0000
0103
0010
1000
,  // measure 21
0100
0000
1000
0001
1000
0000
0001
0100
,  // measure 22
0000
0100
0001
0010
0100
1000
0100
0010
,  // measure 23
0001
0100
0100
0000
0010
1000
1000
1002
,  // measure 24
0000
0000
0100
0000
0100
0000
0103
0010
,  // measure 25
0100
0001
0001
0010
,  // measure 26
0001
0001
0001
0100
,  // measure 27
0010
1000
1000
0010
,  // measure 28
1000
0000
1000
0000
1000
0000
0100
0010
,  // measure 29
0001
0001
0001
0010
,  // measure 30
0001
0001
0001
0010
,  // measure 31
0100
0100
0100
1000
,  // measure 32
0100
0000
0100
0000
0100
0000
1000
0010
,  // measure 33
0100
0100
0100
0001
,  // measure 34
0100
0100
0100
0001
,  // measure 35
0010
0010
0010
0100
,  // measure 36
0010
0000
0010
0000
0010
0000
0100
1000
,  // measure 37
0001
0000
0100
0010
0100
0000
0001
1000
,  // measure 38
0000
1000
0100
0010
0001
0100
0010
0000
,  // measure 39
0100
0001
0001
0000
1000
0100
0100
0010
,  // measure 40
0000
0010
0100
0000
1000
0001
0100
0010
,  // measure 41
1000
0000
0100
0010
0000
0100
0000
1000
,  // measure 42
0000
0001
0000
0100
0000
0010
0000
0100
,  // measure 43
0001
0000
0001
1000
0000
0100
0000
0010
,  // measure 44
0000
0100
0000
1000
0000
0010
0000
0100
,  // measure 45
0001
0000
0001
0010
0000
0001
0000
0100
,  // measure 46
0000
0010
0000
1000
0000
0001
0000
0020
,  // measure 47
0000
0000
0000
0030
0000
0100
1000
0002
,  // measure 48
0000
0000
0000
0003
0200
0000
0302
0000
,  // measure 49
2003
0000
3100
0020
0000
0230
0000
2300
,  // measure 50
0000
3000
0000
0000
0002
0000
0203
0000
,  // measure 51
0320
0000
0130
0002
0000
2003
0000
3200
,  // measure 52
0000
0300
0000
0000
0000
0000
0010
0100
,  // measure 53
1000
0100
0010
0001
0000
0000
0100
0010
,  // measure 54
1000
0010
0100
0001
0000
0000
0010
0100
,  // measure 55
2000
3020
0230
0302
,  // measure 56
0013
0000
0000
0110
0000
0000
1001
0000
,  // measure 57
1000
0000
0100
0000
0010
0100
1000
0001
,  // measure 58
0010
0000
0100
0010
0000
0001
0100
0010
,  // measure 59
1000
0100
0100
0001
0100
0100
1000
0010
,  // measure 60
0000
0110
0000
1100
0101
0000
0000
0000
,  // measure 61
1000
0000
0100
0000
0010
0100
1000
0010
,  // measure 62
0100
0000
0001
0000
0100
0010
1000
0100
,  // measure 63
0010
0000
0001
0100
0000
0001
0010
0100
,  // measure 64
0000
1000
0010
0100
0000
0010
1000
0100
,  // measure 65
0010
0000
0001
0200
0000
0302
0000
0023
,  // measure 66
0000
0030
0100
0000
0100
0000
0100
0000
,  // measure 67
0100
1000
0100
0001
0100
0000
1000
0000
,  // measure 68
0001
0000
0100
0000
0010
0100
0100
0001
,  // measure 69
0020
0000
0130
2000
0000
3002
0000
0203
,  // measure 70
0000
0300
0010
0200
0000
0300
0000
0001
,  // measure 71
0020
0000
0130
2000
0000
3002
0000
0023
,  // measure 72
0000
0130
1000
0020
0000
0030
0000
0100
,  // measure 73
0002
0000
0013
0200
0000
1300
0000
0001
,  // measure 74
0100
0002
0000
1003
0000
0100
0000
1100
,  // measure 75
0000
0011
0000
1010
0000
0101
0000
2002
,  // measure 76
0000
0000
0000
0000
,  // measure 77
0000
0000
0000
0000
0000
0000
0000
3003
;

//---------------dance-single - ----------------
#NOTES:
     dance-single:
     :
     Easy:
     7:
     0.365,0.373,0.009,0.026,0.000: // measure 1
0000
0000
0000
0000
,  // measure 2
0000
0000
0000
0000
,  // measure 3
0000
0000
0000
0000
,  // measure 4
0000
0000
0000
0000
,  // measure 5
0001
1000
0001
1000
,  // measure 6
0010
0100
0010
0100
,  // measure 7
0001
0010
0100
1000
,  // measure 8
0100
0010
0001
1000
,  // measure 9
0100
0100
0010
0010
,  // measure 10
0100
1000
0100
0000
0010
0000
0010
0000
,  // measure 11
0001
0001
0100
0100
,  // measure 12
0010
1000
0010
0000
0100
0000
0100
0000
,  // measure 13
0001
0001
0010
0010
,  // measure 14
0001
0100
0001
0000
0010
0000
0010
0000
,  // measure 15
0100
0100
1000
1000
,  // measure 16
0010
0100
0010
0000
0100
0010
0100
0000
,  // measure 17
0001
0000
1000
0100
0000
0000
0010
0000
,  // measure 18
0001
0000
0100
0001
0000
0000
0010
0000
,  // measure 19
0100
0000
1000
0010
0000
0000
0100
0000
,  // measure 20
0001
0000
1000
0001
0000
0000
0100
0000
,  // measure 21
0010
0000
0100
0010
0000
1000
0000
0001
,  // measure 22
0000
0100
0100
0100
,  // measure 23
0001
0000
0010
0000
0001
0010
0001
2000
,  // measure 24
0000
0000
0000
3000
,  // measure 25
0001
0001
0001
0001
,  // measure 26
0100
0100
0100
0100
,  // measure 27
1000
1000
1000
1000
,  // measure 28
0010
0010
0010
0010
,  // measure 29
0001
0001
0001
0001
,  // measure 30
0010
0010
0010
0010
,  // measure 31
1000
1000
1000
1000
,  // measure 32
0100
0100
0100
0100
,  // measure 33
0001
0001
0010
0010
,  // measure 34
1000
1000
0100
0100
,  // measure 35
0001
0001
0100
0100
,  // measure 36
1000
1000
0010
0010
,  // measure 37
0001
0100
1000
0010
,  // measure 38
0001
0010
1000
0100
,  // measure 39
0001
0010
1000
0100
,  // measure 40
0001
0100
1000
0010
,  // measure 41
0001
0010
0100
1000
,  // measure 42
0010
0100
0100
0001
,  // measure 43
1000
0100
0010
0001
,  // measure 44
0100
0010
0010
0100
,  // measure 45
0001
0010
0100
0010
,  // measure 46
0001
0100
0100
0010
,  // measure 47
1000
0100
0010
0100
,  // measure 48
1000
0010
0010
0100
,  // measure 49
0001
0000
0010
0000
0001
0010
0001
0010
,  // measure 50
0000
0001
1000
0010
,  // measure 51
1000
0000
0100
0000
0010
0001
0010
0001
,  // measure 52
0000
0000
1000
0000
0001
0000
1000
0100
,  // measure 53
1000
0000
0001
0000
0000
0000
0001
0100
,  // measure 54
0001
0000
1000
0000
0000
0000
1000
0010
,  // measure 55
1000
0001
0010
0100
,  // measure 56
1000
0000
0001
0001
,  // measure 57
0100
0010
0100
0010
,  // measure 58
1000
0001
1000
0001
,  // measure 59
0010
0100
0010
0000
0100
0010
0100
0000
,  // measure 60
0010
0000
0000
0001
,  // measure 61
1000
0100
0010
0010
,  // measure 62
0001
0100
0010
0010
,  // measure 63
1000
0010
0100
0100
,  // measure 64
0001
0010
0100
0100
,  // measure 65
1000
0100
0001
0100
,  // measure 66
1000
0100
0001
0100
,  // measure 67
1000
0010
0001
0010
,  // measure 68
1000
0010
0001
0010
,  // measure 69
1000
0100
0100
0001
,  // measure 70
0100
0100
1000
0000
,  // measure 71
0001
0100
0100
1000
,  // measure 72
0100
0100
0001
0000
,  // measure 73
1000
0010
0100
0000
,  // measure 74
0001
0010
0100
0000
,  // measure 75
1000
0100
0010
0001
,  // measure 76
2002
0000
0000
0000
,  // measure 77
0000
0000
0000
0000
0000
0000
0000
3003
;
