#TITLE:Loner;
#SUBTITLE:;
#ARTIST:T.T.Ma;
#TITLETRANSLIT:;
#SUBTITLETRANSLIT:;
#ARTISTTRANSLIT:;
#GENRE:;
#CREDIT:;
#MENUCOLOR:;
#METERTYPE:DDR;
#BANNER:Loner.png;
#BACKGROUND:Loner-bg.png;
#LYRICSPATH:;
#CDTITLE:cdtitle.png;
#MUSIC:Loner.mp3;
#OFFSET:-0.025;
#SAMPLESTART:49.355;
#SAMPLELENGTH:15.000;
#SELECTABLE:YES;
#LISTSORT:;
#BPMS:0.000=155.000;
#STOPS:;
#BGCHANGES:;
#ATTACKS:;

//---------------dance-single - ----------------
#NOTES:
     dance-single:
     :
     Hard:
     13:
     0.653,0.661,0.250,0.250,0.222:
0000
0000
0000
0000
,
0000
0000
0000
0000
,
0000
0000
0000
0000
,
0000
0000
0000
0000
,
0000
0000
0000
0000
,
0001
0101
0000
1100
0000
1000
1001
0000
,
0120
0000
0100
0000
0100
0100
0130
0000
,
0001
0000
0000
0001
0100
0000
0000
0100
0010
0000
1000
0000
0100
0000
0010
0000
,
0100
0000
0000
0100
1000
0000
0000
1000
0001
0000
0100
0000
0010
0000
1000
0000
,
0100
0010
0001
0001
0100
0010
1000
1000
,
0001
1000
0000
0001
1000
0000
0100
0000
0010
0000
0001
0000
0100
0010
0100
0000
,
0001
0000
0000
0001
0010
0000
0000
0010
0100
0000
1000
0000
0010
0000
0100
0000
,
0010
0000
0000
0010
1000
0000
0000
1000
0001
0000
0010
0000
0100
0000
1000
0000
,
0010
0100
0001
0001
0010
0100
1000
1000
,
0001
1000
0000
0001
1000
0000
0010
0000
0100
0000
0001
0000
0010
0100
0010
0000
,
0001
1000
0001
1000
0001
0010
0100
1000
,
0010
0000
0010
0000
0100
0000
0001
0000
0010
0000
0000
0010
0000
0000
0010
0000
,
0000
0000
0100
0000
1000
0000
0100
0000
0010
0000
0000
0010
0000
0000
0000
0000
,
0000
0001
0100
0001
0010
0110
0000
1100
,
0000
1001
0000
0102
0000
0000
1003
0100
,
0010
0000
0010
0000
0001
0000
0100
0000
0010
0000
0000
0010
0000
0000
2000
0000
,
0000
0000
3100
0000
0010
0000
0100
0000
1000
0000
0000
1000
0000
0000
0000
0000
,
0000
0001
0100
0001
0010
0100
0000
1100
,
0000
0101
0000
1002
0000
0103
0000
0100
,
0001
0010
0100
1000
0000
0000
0010
0010
,
0200
0000
0301
0020
0100
0000
0130
0000
,
1000
0100
1000
0001
0100
0001
0010
0100
,
1000
0000
0000
0001
0000
0000
1001
0000
0000
0000
0000
0000
0100
0000
0001
0000
,
0010
0010
0100
1000
0000
0000
0001
0100
,
0002
0000
0013
0200
1000
0000
1300
0010
,
0200
0000
0000
0301
0000
1000
0000
0100
,
0010
0001
1000
0010
0100
1000
0100
0001
,
1000
0100
1000
0001
0001
0010
0100
2000
,
0000
3100
1000
0010
0100
0001
0101
0000
,
1000
0100
0010
0010
0100
1000
0001
0001
,
0100
0010
0100
2002
0000
0000
3003
0002
,
0000
0103
0010
0100
0100
0001
1000
0002
,
0000
0013
0100
1000
1000
0010
0110
0000
,
0001
0100
1000
0100
0010
0100
1000
0200
,
0000
0301
0010
0100
0100
1100
0000
0101
,
0001
0100
0001
0100
0001
0000
1000
0100
1000
0100
1000
0000
0001
0000
1000
0000
,
0001
0100
0001
1000
1000
0010
0100
0002
,
0000
0103
0001
0010
0100
1000
1100
0000
,
0001
0100
0010
0010
0100
0001
1000
1000
,
0100
0010
0100
2002
0000
0000
3003
2000
,
0000
3100
0010
0100
0100
1000
0001
2000
,
0000
3010
0100
0001
0001
0010
0110
0000
,
1000
0100
0001
0100
0010
0100
0001
0200
,
0000
1300
0010
0100
0100
0101
0000
1100
,
1000
0100
1000
0100
1000
0000
0001
0100
0001
0100
0001
0000
1000
0000
0001
0000
,
0100
0001
0000
0001
0010
0000
0100
0000
1000
0000
1000
0000
0010
0100
0010
0000
,
1000
0100
0000
0100
0010
0000
0001
0000
0100
0000
0100
0000
0010
0100
0010
0000
,
1000
0100
0000
1000
0100
0000
0010
0001
0000
0010
0001
0000
0100
0000
0010
0000
,
1000
0100
0000
0010
0000
0100
1000
0000
0001
0000
0100
0000
0010
0100
0010
0000
,
1000
0100
0001
0100
1000
0100
0001
0100
,
1000
0010
0001
0010
1000
0010
0001
0010
,
1000
0100
0001
0010
1000
0100
0001
0010
,
2002
0000
0000
0000
,
3003
0000
0000
0000
;

//---------------dance-single - ----------------
#NOTES:
     dance-single:
     :
     Medium:
     9:
     0.456,0.472,0.543,0.098,0.000: // measure 1
0000
0000
0000
0000
,  // measure 2
0000
0000
0000
0000
,  // measure 3
0000
0000
0000
0000
,  // measure 4
0000
0000
0000
0000
,  // measure 5
0000
0000
0000
0000
,  // measure 6
1000
0100
0000
0010
0000
0001
1001
0000
,  // measure 7
0200
0010
0010
0310
,  // measure 8
1000
0001
1010
0101
,  // measure 9
0001
1000
0011
1100
,  // measure 10
0001
0000
0010
0000
0100
1000
0010
0000
,  // measure 11
0100
0001
0010
0000
1000
0000
0100
0000
,  // measure 12
0001
1000
0110
1001
,  // measure 13
0100
0010
1100
0011
,  // measure 14
0001
0100
0010
0000
1000
0000
0100
0000
,  // measure 15
0001
0010
0100
0000
1000
0000
0010
0000
,  // measure 16
0200
2300
3002
0023
,  // measure 17
1030
0000
1100
0000
0001
0100
0010
0000
,  // measure 18
0001
0000
0101
0000
1000
0100
0010
0000
,  // measure 19
0001
1000
0100
0010
,  // measure 20
1100
0101
0010
0101
,  // measure 21
1000
0110
1000
0101
,  // measure 22
0010
1000
0100
0000
0001
0000
1100
0000
,  // measure 23
0010
0100
0001
0000
1000
0000
0100
0000
,  // measure 24
0010
1100
0101
1000
,  // measure 25
0001
0000
0001
0000
0001
0100
0010
0000
,  // measure 26
1000
0100
0001
0010
,  // measure 27
0100
0001
1000
0000
0100
0010
1000
0000
,  // measure 28
0010
0001
1000
1100
,  // measure 29
0001
1100
0010
0101
,  // measure 30
1000
0100
0010
0000
0001
0000
0110
0000
,  // measure 31
1000
0001
0100
1000
,  // measure 32
0001
1100
0001
1100
,  // measure 33
0010
0100
0001
0000
0010
0000
0101
0000
,  // measure 34
0010
0100
1000
0000
0010
0000
1100
0000
,  // measure 35
0001
0100
1000
0010
,  // measure 36
0100
0000
1000
0002
0000
0000
0003
0000
,  // measure 37
0001
0000
1100
0000
0010
0100
1000
0000
,  // measure 38
1000
0000
0101
0000
0010
0100
0001
0000
,  // measure 39
1000
0001
0010
0100
,  // measure 40
1000
0100
0010
0000
0010
0001
1000
0000
,  // measure 41
0001
0001
1000
0001
0001
1000
0001
0000
,  // measure 42
0010
0000
0100
0000
1000
0100
0001
0000
,  // measure 43
0010
0000
0100
0000
0001
0010
1000
0000
,  // measure 44
0000
0011
1100
1010
,  // measure 45
0001
0100
0010
2000
0000
0000
3000
0000
,  // measure 46
0001
0000
1000
0000
0010
0100
0001
0000
,  // measure 47
1000
0000
0001
0000
0010
0100
0001
0000
,  // measure 48
0000
1100
0011
1010
,  // measure 49
0001
0100
0010
0000
1000
0100
0010
0000
,  // measure 50
1001
0000
0000
1001
0000
0000
1001
0000
,  // measure 51
0100
0010
0100
0101
,  // measure 52
1000
0010
0100
1100
,  // measure 53
0001
0100
1000
0000
0010
0000
0100
0000
,  // measure 54
0001
0010
1000
0000
0001
0000
0010
0000
,  // measure 55
0010
0110
1100
1001
,  // measure 56
0010
0110
1100
1001
,  // measure 57
0010
0110
1100
1001
,  // measure 58
0220
0000
0000
0000
,  // measure 59
0330
0000
0000
0000
;

//---------------dance-single - ----------------
#NOTES:
     dance-single:
     :
     Easy:
     6:
     0.285,0.315,0.011,0.033,0.000: // measure 1
0000
0000
0000
0000
,  // measure 2
0000
0000
0000
0000
,  // measure 3
0000
0000
0000
0000
,  // measure 4
0000
0000
0000
0000
,  // measure 5
0000
0000
0000
0000
,  // measure 6
1000
0001
0000
1000
0000
0001
1000
0000
,  // measure 7
0020
0000
0000
0030
,  // measure 8
1000
0000
0100
0000
0010
0100
1000
0000
,  // measure 9
0001
0000
0100
0000
0010
0100
0001
0000
,  // measure 10
1000
0100
0001
0100
,  // measure 11
1000
0010
0001
0010
,  // measure 12
0001
0000
0100
0000
0010
0100
0001
0000
,  // measure 13
1000
0000
0100
0000
0010
0100
1000
0000
,  // measure 14
0001
0010
1000
0010
,  // measure 15
0001
0100
1000
0100
,  // measure 16
1000
0100
0010
0001
,  // measure 17
1000
1000
0100
0000
,  // measure 18
0010
0010
0001
0100
,  // measure 19
0010
0000
0100
0000
,  // measure 20
0001
0100
1000
0000
,  // measure 21
0001
0001
0010
0100
,  // measure 22
1000
1000
0100
0000
,  // measure 23
0010
0000
0001
0000
,  // measure 24
0100
1000
0010
0000
,  // measure 25
0100
0100
0000
0100
,  // measure 26
0100
0001
0000
0001
,  // measure 27
0001
1000
0000
1000
,  // measure 28
1000
0100
0010
0001
,  // measure 29
1000
1000
0000
0010
,  // measure 30
0100
0100
0000
0001
,  // measure 31
1000
0001
1000
0010
,  // measure 32
0100
0001
1000
0000
,  // measure 33
0001
0001
0010
0000
,  // measure 34
1000
1000
0010
0000
,  // measure 35
0001
0100
1000
0010
,  // measure 36
0001
0100
1000
0000
,  // measure 37
0001
0001
0010
0000
,  // measure 38
0100
0100
1000
0000
,  // measure 39
0010
1000
0100
0001
,  // measure 40
0010
1000
0100
0000
,  // measure 41
0010
0000
0000
0010
0000
0000
0010
0000
,  // measure 42
1000
0100
0001
0000
,  // measure 43
1000
0100
0001
0000
,  // measure 44
1000
0100
0001
0100
,  // measure 45
1000
0100
0001
0000
,  // measure 46
0001
0010
1000
0000
,  // measure 47
0001
0010
1000
0000
,  // measure 48
0001
0010
1000
0010
,  // measure 49
0001
0010
1000
0000
,  // measure 50
0100
0000
0000
0100
0000
0000
0100
0000
,  // measure 51
0001
0010
0100
0100
,  // measure 52
1000
0010
0100
0100
,  // measure 53
0001
0000
1000
0000
,  // measure 54
0001
0100
0010
0000
,  // measure 55
1000
0100
0010
0001
,  // measure 56
1000
0100
0010
0001
,  // measure 57
1000
0100
0010
0001
,  // measure 58
2002
0000
0000
0000
,  // measure 59
3003
0000
0000
0000
;
