#TITLE:Last Time (Knife Party Dubstep Remix);
#SUBTITLE:;
#ARTIST:Labrinth;
#TITLETRANSLIT:;
#SUBTITLETRANSLIT:;
#ARTISTTRANSLIT:;
#GENRE:;
#CREDIT:;
#MENUCOLOR:;
#METERTYPE:DDR;
#BANNER:Last Time (Knife Party Dubstep Remix).png;
#BACKGROUND:Last Time (Knife Party Dubstep Remix)-bg.png;
#LYRICSPATH:;
#CDTITLE:cdtitle.png;
#MUSIC:Last Time (Knife Party Dubstep Remix).mp3;
#OFFSET:-0.025;
#SAMPLESTART:82.500;
#SAMPLELENGTH:15.000;
#SELECTABLE:YES;
#LISTSORT:;
#BPMS:0.000=128.000;
#STOPS:;
#BGCHANGES:;
#ATTACKS:;

//---------------dance-single - ----------------
#NOTES:
     dance-single:
     :
     Hard:
     12:
     0.522,0.606,0.168,0.372,0.316:
0000
0000
0000
0000
,
0000
0000
0000
0000
,
0000
0000
0000
0000
,
0000
0000
0000
0000
,
0101
0000
0001
1000
0100
0000
0000
0010
,
0010
0000
0100
1000
0001
0000
0000
0100
,
0100
0000
0010
1000
0100
0010
0001
0100
,
0100
0001
0010
0100
1000
0000
0001
0100
,
0001
1000
0100
0010
0001
0000
0000
0100
,
0100
0001
0010
0100
1000
0000
0000
0010
,
0010
0100
0001
0010
0100
1000
0010
1000
,
0100
0010
0001
0100
0020
0000
0130
0000
,
0101
0000
0001
1000
0100
0000
0010
0100
,
1100
0000
1000
0010
0100
0000
0001
0100
,
0101
0001
0010
0010
0100
0100
1000
0010
,
0100
0100
0001
1000
0200
0000
0310
0001
,
0101
0100
0010
1000
0001
0000
1000
0100
,
0110
0010
0001
1000
0010
0000
0100
0001
,
0101
0100
0010
1000
0100
0010
0100
1000
,
0001
0100
0010
0100
0020
0000
1030
0001
,
0200
0000
0000
0302
0000
0000
0023
0000
,
0000
0230
0000
0000
,
1300
0000
0001
0200
0000
0000
0000
0000
,
0000
0000
0000
0300
,
0101
0000
0000
1100
0000
0000
0000
1001
,
0000
0000
0110
0000
0010
1000
0001
0020
,
0000
0000
0130
1000
0100
0000
0020
0000
0000
0000
0030
0000
0001
0000
0100
0000
,
0101
0000
0000
1100
0000
0000
0000
1001
,
0000
0000
0110
0000
0100
0001
1000
0200
,
0000
0000
0310
0001
0010
0000
0200
0000
0000
0000
0300
0000
1000
0000
0001
0000
,
0101
0000
1000
1100
0000
0000
0001
0101
,
0000
1000
1001
0000
0010
1000
0100
0020
,
0000
0000
0031
1000
0100
1000
0002
0000
0000
0000
0003
0000
0100
0000
0010
0000
,
1010
0000
0001
0011
0000
0000
1000
1010
,
0000
0001
1001
0000
0100
0000
0100
0000
,
0100
0100
0100
0100
,
0100
0100
0100
0100
,
0100
0100
0100
0100
,
0100
0100
0100
0100
,
0100
0100
0100
0100
,
0100
0001
0010
1000
0010
0100
0001
0100
,
1000
0010
0100
1000
0100
0010
0001
0010
,
1000
1000
0001
0001
0100
0100
0010
0010
,
1000
0001
1000
0001
1000
0001
1000
0001
0100
0000
0000
0100
0010
0000
1000
0000
,
0002
0000
0000
0000
0003
0010
0000
0100
0010
0000
0100
0010
0000
0100
0010
0000
,
0002
0000
1003
0000
0010
0100
0000
0010
0200
0000
0000
0301
2000
0000
3200
0000
,
0320
0000
0000
0000
0030
0001
0000
0100
0010
0000
0100
0010
0000
0100
0010
0000
,
1000
0000
1000
0100
0000
0100
0010
0000
0010
0001
0000
0001
2000
0000
3000
0000
,
0002
0000
0000
0000
0003
0100
0000
0010
0100
0000
0010
0100
0000
0010
0100
0000
,
0002
0000
1003
0000
0100
0010
0000
0100
0020
0000
0000
0031
2000
0000
3020
0000
,
0230
0000
0000
0000
0300
0001
0000
0010
0100
0000
0010
0100
0000
0010
0100
0000
,
1000
0000
1000
0010
0000
0010
0100
0000
0100
0001
0000
0001
2000
0000
0000
0000
,
3200
0000
0000
0000
0300
0010
0001
0010
0100
0000
0100
0000
0100
0000
0100
0000
,
1000
0020
0130
0020
2030
3200
0302
0023
,
2030
0000
3001
0100
0020
1030
0001
1000
,
0200
0010
0320
0001
0130
1000
0010
0100
,
0002
0000
0000
0000
0003
0000
1000
0000
1000
0000
0001
0100
0000
0001
0100
0000
,
0020
1030
0000
1000
0200
0302
0023
2030
,
3002
0000
0203
0302
2003
0000
3200
2300
,
3002
0010
0023
0100
0031
0100
0010
0100
,
0001
0000
0000
1000
0000
0000
1000
0000
0000
0001
0000
0100
0000
0000
0000
0001
,
0000
0000
0000
1000
0000
0000
1000
0000
0000
0001
0000
0100
0000
0000
0000
1000
,
0000
0000
0000
0001
0000
0000
0001
0000
0000
1000
0000
0100
0000
0000
0000
1000
,
0000
0000
0000
0001
0000
0000
0001
0000
0000
1000
0000
0100
0000
0000
0000
0010
,
0001
0000
0000
0100
0001
0000
1000
0000
0001
0100
0000
0100
0001
0000
0000
0100
,
0001
0000
0000
0010
0001
0000
1000
0000
0001
0010
0000
0010
0001
0000
0000
0001
,
1000
0000
0000
0010
1000
0000
0100
0000
1000
0001
0000
0001
1000
0000
0000
0001
,
1000
0000
0000
0100
1000
0000
0010
0000
1000
0001
0000
0001
1000
0000
0000
0001
,
0100
0000
0000
0100
0010
0000
1000
0000
0010
0100
0000
0100
0001
0000
0000
0010
,
0100
0000
0000
0100
1000
0000
0010
0000
0100
0001
0000
0001
0010
0000
0000
0010
,
0100
0000
0000
0100
1000
0000
0001
0000
0100
0010
0000
0010
1000
0000
0000
0001
,
0010
0000
0000
0010
0100
0000
1000
0000
0010
0100
0000
0100
0001
0000
0000
0000
,
1001
0000
0000
0000
;

//---------------dance-single - ----------------
#NOTES:
     dance-single:
     :
     Medium:
     9:
     0.369,0.429,0.035,0.077,0.000: // measure 1
0000
0000
0000
0000
,  // measure 2
0000
0000
0000
0000
,  // measure 3
0000
0000
0000
0000
,  // measure 4
0000
0000
0000
0000
,  // measure 5
1000
0000
0001
0100
0001
0000
0010
0000
,  // measure 6
0100
0000
1000
0010
1000
0000
0001
0000
,  // measure 7
0100
0000
0100
0000
0010
1000
0100
0000
,  // measure 8
0010
0001
0100
0000
0001
0000
0000
0000
,  // measure 9
1000
0000
0001
0100
0001
0000
0010
0000
,  // measure 10
0100
0000
1000
0010
1000
0000
0001
0000
,  // measure 11
0100
0000
0100
0000
0010
1000
0100
0000
,  // measure 12
0010
0001
0100
0000
0001
0000
0000
0000
,  // measure 13
0001
0000
0010
0100
0010
0000
0001
0000
,  // measure 14
0100
0000
0010
0100
0010
0000
1000
0000
,  // measure 15
0001
0000
0001
0000
1000
0100
0010
0000
,  // measure 16
0001
0100
0010
0000
1000
0000
0000
0000
,  // measure 17
0001
0000
0100
0010
0100
0000
0010
0000
,  // measure 18
1000
0000
0100
0010
0100
0000
0000
0000
,  // measure 19
0001
0100
0001
0000
1000
0100
1000
0000
,  // measure 20
0001
0010
0100
1000
0001
0000
0000
0000
,  // measure 21
1000
0000
0000
0100
0000
0000
0100
0010
,  // measure 22
0000
0000
0010
0001
0000
1000
0001
0000
,  // measure 23
0100
0100
0000
0020
0000
0000
0000
0000
,  // measure 24
0000
0000
0000
1030
,  // measure 25
0100
0000
0100
0010
0000
0000
0010
0001
,  // measure 26
0000
0000
0001
0000
0100
0010
1000
0001
,  // measure 27
0000
0001
1000
0010
0100
0000
0001
0000
,  // measure 28
1000
0000
1000
0100
0000
0000
0100
0010
,  // measure 29
0000
0000
0010
0000
0001
0010
0100
1000
,  // measure 30
0000
1000
0100
0010
0001
0000
0000
0000
,  // measure 31
1000
0000
0100
0010
0000
0000
0010
0001
,  // measure 32
0000
0000
0001
0000
1000
0010
0100
0001
,  // measure 33
0000
0001
0100
0010
1000
0000
0001
0000
,  // measure 34
1000
0000
0010
0100
0000
0000
0100
0001
,  // measure 35
0000
0001
0100
0100
,  // measure 36
0001
0001
1000
1000
,  // measure 37
0100
0100
0010
0010
,  // measure 38
0001
0001
1000
1000
,  // measure 39
0100
0100
0010
0010
,  // measure 40
0001
0100
1000
0100
,  // measure 41
0001
0010
0001
0000
0001
0100
0001
0000
,  // measure 42
1000
0010
1000
0000
1000
0100
1000
0000
,  // measure 43
0001
0100
1000
0000
1000
0100
0001
0000
,  // measure 44
1000
0100
0001
0100
1000
0000
1001
0000
,  // measure 45
0010
0000
0101
0000
0010
1000
0010
1000
,  // measure 46
0100
0010
0010
0001
0100
0100
0010
0000
,  // measure 47
2000
0000
3001
0010
0001
0010
0001
0000
,  // measure 48
1000
0010
1000
0010
1000
0000
1001
0000
,  // measure 49
0020
0000
1030
0100
1000
0100
1000
0100
,  // measure 50
0020
0000
0031
0100
0002
0000
1003
0100
,  // measure 51
2000
0000
3010
0100
0010
0100
0010
0000
,  // measure 52
1000
0001
1000
0001
1000
0000
1001
0000
,  // measure 53
0020
0000
0130
0100
0001
0001
0001
0001
,  // measure 54
1000
0100
1000
0100
1000
0100
0010
0000
,  // measure 55
0002
0000
1003
0100
1000
0100
0010
0000
,  // measure 56
0001
0100
0001
0000
1000
0100
1000
0000
,  // measure 57
0020
0000
1030
0100
1000
0100
0010
0001
,  // measure 58
0100
0001
0100
0010
1000
0100
0010
0001
,  // measure 59
1000
0000
1000
0100
1000
0000
1000
0100
,  // measure 60
0020
0000
0032
0000
1003
0010
0100
0000
,  // measure 61
0001
0000
0010
0000
0001
0100
0010
0000
,  // measure 62
0100
0000
0001
0000
0100
0001
0010
0000
,  // measure 63
0100
0000
1000
0000
0010
1000
0100
0000
,  // measure 64
0010
0000
0100
0000
1000
0010
0100
0000
,  // measure 65
0001
0000
0100
0000
1000
0100
0001
0000
,  // measure 66
1000
0000
0100
0000
0001
0100
1000
0000
,  // measure 67
0001
0000
0010
0000
1000
0010
0001
0000
,  // measure 68
1000
0000
0010
0000
0001
0010
1000
0000
,  // measure 69
0001
0100
0010
0000
0010
0100
0001
0000
,  // measure 70
1000
0100
0010
0000
0010
0100
1000
0000
,  // measure 71
0001
0100
1000
0000
1000
0100
0001
0000
,  // measure 72
1000
0100
0001
0000
0001
0100
1000
0000
,  // measure 73
1001
0000
0000
0000
;

//---------------dance-single - ----------------
#NOTES:
     dance-single:
     :
     Easy:
     5:
     0.267,0.328,0.035,0.126,0.000: // measure 1
0000
0000
0000
0000
,  // measure 2
0000
0000
0000
0000
,  // measure 3
0000
0000
0000
0000
,  // measure 4
0000
0000
0000
0000
,  // measure 5
1000
0000
0001
0100
,  // measure 6
0010
0000
1000
0100
,  // measure 7
0010
0000
0001
0100
,  // measure 8
0010
0010
0100
0001
,  // measure 9
0010
0000
0100
1000
,  // measure 10
0010
0000
0100
0001
,  // measure 11
0010
0000
0100
1000
,  // measure 12
0010
0010
0100
0001
,  // measure 13
0010
0000
0001
0100
,  // measure 14
1000
0000
1000
0100
,  // measure 15
0001
0000
1000
0100
,  // measure 16
0010
0010
0100
1000
,  // measure 17
0001
0000
1000
0010
,  // measure 18
0001
0000
0001
0010
,  // measure 19
1000
0000
0001
0010
,  // measure 20
1000
1000
0010
0100
,  // measure 21
1000
0000
0000
0001
0000
0000
0000
0100
,  // measure 22
0000
0000
0000
0010
0000
0000
0000
0000
,  // measure 23
1000
0000
0000
0001
0000
0000
0000
0000
,  // measure 24
0000
0000
0000
0100
,  // measure 25
0100
0000
0000
0010
0000
0000
0000
1000
,  // measure 26
0000
0001
0010
0100
,  // measure 27
0100
0000
0010
0001
0000
0000
0000
0000
,  // measure 28
0100
0000
0000
0010
0000
0000
0000
1000
,  // measure 29
0000
0001
0010
0100
,  // measure 30
0100
0000
0010
0001
0000
0000
0000
0000
,  // measure 31
0100
0000
0000
0010
0000
0000
0000
0001
,  // measure 32
0000
1000
0010
0100
,  // measure 33
0100
0000
0010
1000
0000
0000
0000
0000
,  // measure 34
0100
0000
0000
0010
0000
0000
0000
0001
,  // measure 35
0000
1000
0010
0100
,  // measure 36
0100
0100
0100
0100
,  // measure 37
0100
0100
0100
0100
,  // measure 38
0100
0100
0100
0100
,  // measure 39
0100
0100
0100
0100
,  // measure 40
0100
0100
0100
0100
,  // measure 41
0100
0001
0010
1000
,  // measure 42
0100
1000
0010
0001
,  // measure 43
0100
0010
0100
0000
0010
0100
0010
0000
,  // measure 44
1000
0001
1001
0000
,  // measure 45
0020
0000
0030
0000
1000
0100
0010
0001
,  // measure 46
0200
0300
0001
1000
,  // measure 47
2002
0000
3003
0000
0001
0010
0100
1000
,  // measure 48
0001
0100
0020
0030
,  // measure 49
2000
0000
3000
0000
0001
0100
0001
0010
,  // measure 50
0002
0003
1000
0100
,  // measure 51
0010
0001
0100
0010
,  // measure 52
1000
0001
2002
3003
,  // measure 53
0002
0000
0003
0000
0100
0010
0100
0000
,  // measure 54
0002
0013
2000
3010
,  // measure 55
2000
0000
3000
0000
0010
0100
0010
0000
,  // measure 56
2000
3100
0002
0013
,  // measure 57
0002
0000
0003
0000
0010
0100
1000
0000
,  // measure 58
0002
1003
2000
3001
,  // measure 59
1000
0100
1000
0000
0001
0100
0001
0000
,  // measure 60
1000
0100
0010
1001
,  // measure 61
0100
0100
0001
0001
,  // measure 62
0010
0010
1000
1000
,  // measure 63
0100
0100
1000
1000
,  // measure 64
0010
0010
0001
0001
,  // measure 65
1000
1000
0100
0100
,  // measure 66
0001
0001
0010
0010
,  // measure 67
1000
1000
0010
0010
,  // measure 68
0001
0001
0100
0100
,  // measure 69
1000
0001
1000
0001
,  // measure 70
0100
0010
0100
0010
,  // measure 71
0001
1000
0001
1000
,  // measure 72
0010
0100
0010
0100
,  // measure 73
1001
0000
0000
0000
;
