#TITLE:Kaleidoscope;
#SUBTITLE:;
#ARTIST:桜龍;
#TITLETRANSLIT:Kaleidoscope;
#SUBTITLETRANSLIT:;
#ARTISTTRANSLIT:Sakuraryuu;
#GENRE:;
#CREDIT:;
#MENUCOLOR:;
#METERTYPE:DDR;
#BANNER:Kaleidoscope.png;
#BACKGROUND:Kaleidoscope-bg.png;
#LYRICSPATH:;
#CDTITLE:cdtitle.png;
#MUSIC:Kaleidoscope.mp3;
#OFFSET:-0.025;
#SAMPLESTART:20.739;
#SAMPLELENGTH:15.000;
#SELECTABLE:YES;
#LISTSORT:;
#BPMS:0.000=95.500,32.000=47.750,33.000=191.000,161.000=47.750,162.000=191.000;
#DISPLAYBPM:95.500:191.000;
#STOPS:;
#BGCHANGES:;
#ATTACKS:;

//---------------dance-single - ----------------
#NOTES:
     dance-single:
     :
     Hard:
     12:
     0.618,0.724,0.407,0.453,0.009:
0000
0000
0000
0000
,
0000
0000
0000
0000
,
0000
0000
0000
0000
,
0000
0000
0000
0000
,
0020
0000
2030
3002
,
2003
3020
0230
0302
2003
3200
0320
0000
,
0230
2300
3002
0203
,
0320
0230
0302
1003
2002
0000
0000
0000
,
3003
0000
0010
1000
0001
0000
0010
0000
0100
0000
0010
0000
0001
0000
0000
0000
,
0001
0010
0100
0010
0001
0100
0010
0000
,
1000
0100
0001
0000
0100
0000
0010
0001
,
0100
0010
2002
0000
3003
0000
1010
0000
,
0101
0000
1000
0100
0010
0100
1000
0000
,
1000
0100
0010
0010
0100
0000
2002
0000
,
3003
0010
0100
0001
,
1000
0100
0001
0100
0010
0100
1000
0000
,
0001
0100
0010
0100
0010
1000
0001
0000
,
0001
1000
0001
0010
0100
1000
0001
0000
,
1000
0100
0001
0000
0100
0000
0010
0001
,
0100
0010
2002
0000
3003
0000
0011
0000
,
1100
0000
0001
0010
0100
0010
0001
0000
,
1000
0010
0100
0100
0010
0000
0220
0000
,
0330
0001
0100
1000
,
0100
0010
1000
0100
0001
0100
0010
0000
,
1001
0010
0100
0001
,
0110
0000
0100
1000
0010
0000
0100
0000
,
0100
0000
0001
0000
0010
1000
0100
0000
,
0110
0001
1000
0110
,
0110
0000
0001
0000
0100
0001
0010
0000
,
0110
1000
0100
0010
,
0010
0000
0100
0000
1000
0100
0001
0000
,
0110
0000
1000
0001
0100
0010
0110
0000
,
1001
0000
0000
1000
0000
1000
0000
0001
,
0000
0001
0000
0010
0000
0010
0000
0100
,
0000
0100
0000
1000
0000
0010
0000
0100
,
0000
0001
0000
0100
0000
0010
0000
1000
,
0000
0100
0000
0001
0000
0100
0000
0010
,
0000
0001
0000
0100
0000
1000
0000
0100
,
0000
0010
0000
1000
0000
0001
0000
0010
,
0000
0100
0000
1000
0000
0001
0000
0100
,
0000
0000
0010
0000
0000
0000
1000
0100
0010
0000
0001
0000
0100
0000
0001
0000
,
2000
0000
3010
1000
0001
1000
0100
0010
,
0002
0000
1003
0100
0001
0000
0100
0000
,
1000
0001
0100
0001
2002
0000
3003
0000
,
1100
0000
0011
0000
0001
0100
1000
0100
,
0020
0000
1030
0100
0001
0001
0200
0000
,
2300
3000
0001
0100
,
0010
0000
0100
0001
1000
0100
0001
0100
,
1000
0000
0010
0001
1000
0001
1000
0010
,
0200
0000
0301
0010
0100
0001
0100
1000
,
0002
0000
1003
0100
0001
0000
0100
0000
,
1000
0010
0100
0001
2002
0000
3003
0000
,
0010
0000
0100
0000
0001
0010
0001
0100
,
0010
0000
1000
0100
0001
0100
1000
0000
,
0220
0330
0101
1100
,
1001
0000
0010
0001
0100
1000
0100
0001
,
0011
1100
2000
3200
,
0310
0001
0100
0100
0010
0010
0100
0001
,
1000
0000
0100
0010
0011
0000
1100
0000
,
0010
1000
0100
0001
0100
0100
1000
1000
,
0001
0000
0100
0010
1010
0000
0101
0000
,
0010
0100
1000
1000
0001
0001
0100
0010
,
0010
0100
0001
0010
0100
0000
0110
0000
,
1001
0000
1000
0100
0110
0000
0011
0000
,
1100
0000
0010
1000
0002
0000
0203
0000
,
0310
1000
0100
0100
0010
0010
0100
1000
,
0001
0000
0100
0010
1010
0000
0101
0000
,
0010
0001
0100
1000
0100
0100
0001
0001
,
1000
0000
0100
0010
0011
0000
1100
0000
,
0010
0100
0001
0001
1000
1000
0100
0010
,
0010
0100
1000
0010
0100
0000
0110
0000
,
1001
0000
0001
0100
0020
0000
2030
0000
,
3200
0310
2002
0000
,
0000
0000
0000
0000
,
0000
0000
3003
0000
;

//---------------dance-single - ----------------
#NOTES:
     dance-single:
     :
     Medium:
     10:
     0.490,0.517,0.102,0.213,0.009: // measure 1
0000
0000
0000
0000
,  // measure 2
0000
0000
0000
0000
,  // measure 3
0000
0000
0000
0000
,  // measure 4
0000
0000
0000
0000
,  // measure 5
2000
0000
3002
0023
,  // measure 6
0130
1000
0001
0100
0010
0100
0002
0000
,  // measure 7
0023
0230
2300
3002
,  // measure 8
0103
0010
1000
0100
0020
0000
0000
0000
,  // measure 9
0030
0000
0001
0001
0001
0000
0000
0000
1000
0000
0100
0000
1000
0000
0000
0000
,  // measure 10
0010
0000
0100
0001
0100
0010
0100
0000
,  // measure 11
0001
0010
0100
0000
1000
0000
0001
0100
,  // measure 12
0010
1000
0200
0000
0300
0000
0010
0000
,  // measure 13
0010
0000
0100
0000
1000
0001
1000
0000
,  // measure 14
0010
0100
0010
0000
0110
0000
2002
0000
,  // measure 15
3003
0010
1000
0001
,  // measure 16
0010
0100
0010
0000
0001
1000
0001
0000
,  // measure 17
0100
0000
0100
0000
0010
1000
0010
0000
,  // measure 18
0100
0000
0001
1000
0001
0100
0001
0000
,  // measure 19
0010
0100
0010
0000
0001
0000
1000
0010
,  // measure 20
1000
0200
0300
0001
,  // measure 21
0001
0000
1000
0100
1000
0000
0010
0000
,  // measure 22
0100
0001
0100
0000
1001
0000
0220
0000
,  // measure 23
0330
1000
0001
0100
,  // measure 24
0010
0100
0010
0000
1000
0000
0001
0000
,  // measure 25
0010
0100
1000
0010
,  // measure 26
0010
0000
0100
0000
0001
0000
0010
0100
,  // measure 27
0010
0001
0100
0010
,  // measure 28
0010
0000
1000
0000
0001
0000
0100
0010
,  // measure 29
0100
0001
0010
0100
,  // measure 30
0100
0000
1000
0000
0010
0000
0100
0001
,  // measure 31
0100
0010
1000
0001
,  // measure 32
0001
0000
1000
0100
1000
0100
1000
0000
,  // measure 33
0010
0100
0100
0001
,  // measure 34
0001
1000
1000
0100
,  // measure 35
0100
0010
0010
0001
,  // measure 36
0001
1000
1000
0010
,  // measure 37
0010
0100
0100
0001
,  // measure 38
0001
0010
0010
1000
,  // measure 39
1000
0100
0100
0001
,  // measure 40
0010
0100
1000
0001
,  // measure 41
0100
0000
0000
0000
0000
0000
0010
0010
0010
0000
0000
0000
1000
0000
0100
0000
,  // measure 42
1000
0000
0010
0000
0100
0001
0100
0000
,  // measure 43
0010
0000
1000
0100
0010
0000
0100
0000
,  // measure 44
1000
0001
1000
0000
2002
0000
3003
0000
,  // measure 45
0010
0000
0100
0000
0001
1000
0001
0000
,  // measure 46
0010
0000
0100
1000
0100
0000
0010
0000
,  // measure 47
0002
0003
1000
0010
,  // measure 48
0100
0000
0001
0010
0100
0010
0001
0010
,  // measure 49
0100
0000
1000
0010
1000
0000
0001
0100
,  // measure 50
0001
0000
1000
0100
1000
0001
1000
0000
,  // measure 51
0001
0000
0010
0100
1000
0000
0100
0000
,  // measure 52
0010
0001
0100
0000
0220
0000
0330
0000
,  // measure 53
1000
0000
0001
0000
0100
0010
0100
0000
,  // measure 54
0001
0000
1000
0100
0010
0000
0100
0000
,  // measure 55
2000
3000
0001
0100
,  // measure 56
0010
0000
1000
0100
1000
0010
0100
0001
,  // measure 57
0010
0001
1000
0100
,  // measure 58
1000
0010
1000
0001
0100
0000
0010
0000
,  // measure 59
0100
0000
0001
0010
0001
0000
1000
0000
,  // measure 60
0010
0100
0010
1000
0100
0000
0010
0000
,  // measure 61
0001
0000
0100
0001
0100
0000
0010
0000
,  // measure 62
1000
0100
1000
0010
0100
0001
0010
0000
,  // measure 63
0001
0000
0100
0010
0100
0000
0001
0000
,  // measure 64
0010
0000
0100
1000
0001
0000
1001
0000
,  // measure 65
0110
0010
1000
0100
,  // measure 66
0010
0100
1000
0000
0001
0100
1000
0000
,  // measure 67
0100
0000
0010
1000
0100
0000
0010
0000
,  // measure 68
0001
1000
0100
0000
0001
0100
1000
0000
,  // measure 69
0010
0000
0100
0001
0010
0000
0100
0000
,  // measure 70
1000
0010
1000
0000
0100
0010
0100
0000
,  // measure 71
1000
0010
0100
0001
0010
0000
0001
0000
,  // measure 72
0100
0000
0010
1000
0100
0000
0110
0000
,  // measure 73
1001
0100
0220
0000
,  // measure 74
0000
0000
0000
0000
,  // measure 75
0000
0000
0330
0000
;

//---------------dance-single - ----------------
#NOTES:
     dance-single:
     :
     Easy:
     7:
     0.371,0.414,0.009,0.019,0.000: // measure 1
0000
0000
0000
0000
,  // measure 2
0000
0000
0000
0000
,  // measure 3
0000
0000
0000
0000
,  // measure 4
0000
0000
0000
0000
,  // measure 5
0001
0000
1000
0010
,  // measure 6
0100
0001
0100
0001
1000
0100
1000
0000
,  // measure 7
0010
0100
0001
1000
,  // measure 8
0100
0010
0100
1000
0001
0000
0000
0000
,  // measure 9
0000
0010
0010
0100
,  // measure 10
0100
0000
0001
1000
0001
0000
0010
0000
,  // measure 11
0100
0000
1000
0000
1000
0000
0010
0100
,  // measure 12
0010
1000
0000
0001
,  // measure 13
0001
0000
0010
0100
0010
0000
0001
0000
,  // measure 14
1000
0100
1000
0000
0010
0000
0100
0000
,  // measure 15
0000
0001
0001
1000
,  // measure 16
0010
0100
0010
0000
1000
0000
0001
0000
,  // measure 17
0010
0100
0010
0000
0001
0000
0100
0000
,  // measure 18
0010
1000
0010
0000
0100
0000
0001
0000
,  // measure 19
1000
0100
1000
0000
0010
0000
0100
0001
,  // measure 20
0100
0010
0000
1000
,  // measure 21
1000
0000
0001
0010
0001
0000
0100
0000
,  // measure 22
0010
0000
1000
0100
1000
0000
0001
0000
,  // measure 23
0000
0100
0010
1000
,  // measure 24
0001
0010
0001
0000
1000
0000
0100
0000
,  // measure 25
0000
0100
0000
0010
,  // measure 26
0000
0001
0000
0100
,  // measure 27
0000
0010
0000
1000
,  // measure 28
0000
0001
0000
0100
,  // measure 29
0000
0010
0000
1000
,  // measure 30
0000
0100
0000
0001
,  // measure 31
0000
0010
0000
1000
,  // measure 32
0000
0001
1000
0001
,  // measure 33
0000
0100
0000
0001
,  // measure 34
0000
0010
0000
0100
,  // measure 35
0000
1000
0000
0010
,  // measure 36
0000
0100
0000
0001
,  // measure 37
0000
1000
0000
0100
,  // measure 38
0000
0001
0000
0010
,  // measure 39
0000
1000
0000
0100
,  // measure 40
0000
0010
0000
0001
,  // measure 41
0000
0000
0000
0000
1000
0000
0100
0010
,  // measure 42
0100
0000
1000
0000
0001
0100
0001
0000
,  // measure 43
1000
0010
0100
0001
,  // measure 44
0010
0100
0010
0000
0001
0000
0000
0000
,  // measure 45
0100
0000
1000
0000
0010
0100
0010
0000
,  // measure 46
1000
0000
0001
0010
0001
0000
0100
0000
,  // measure 47
0010
0000
1000
0001
,  // measure 48
0100
0000
0010
1000
0010
0000
0100
0000
,  // measure 49
0001
0000
0010
0100
0010
0000
0001
0000
,  // measure 50
1000
0000
0100
0010
0100
0000
1000
0000
,  // measure 51
0010
0000
0100
0001
0100
0000
0010
0000
,  // measure 52
1000
0001
1000
0000
0100
0000
0000
0000
,  // measure 53
0001
0000
0010
0000
1000
0100
1000
0000
,  // measure 54
0001
0000
0010
0100
0010
0000
0001
0000
,  // measure 55
1000
0000
0100
0010
,  // measure 56
0001
0000
1000
0010
1000
0000
0001
0000
,  // measure 57
0010
0100
1000
1000
,  // measure 58
0001
0100
0001
0000
1000
0100
1000
0000
,  // measure 59
0001
0010
0100
1000
,  // measure 60
0001
0100
0001
0000
1000
0010
1000
0000
,  // measure 61
0100
0001
0010
0010
,  // measure 62
0001
0100
0001
0000
1000
0100
1000
0000
,  // measure 63
0010
0100
0001
1000
,  // measure 64
0100
0000
0010
0100
1000
0000
0001
0000
,  // measure 65
0100
0000
0010
0100
0010
0000
1000
0000
,  // measure 66
0001
0100
0001
0000
1000
0100
1000
0000
,  // measure 67
0100
0000
0010
0001
0010
0000
0100
0000
,  // measure 68
1000
0010
1000
0000
0001
0010
0001
0000
,  // measure 69
0100
0000
0010
1000
0010
0000
0100
0000
,  // measure 70
0001
0010
0001
0000
0100
0010
0100
0000
,  // measure 71
0001
0000
1000
0100
1000
0000
0010
0000
,  // measure 72
0100
0000
0001
0010
0100
0000
1000
0000
,  // measure 73
0001
0000
2002
0000
,  // measure 74
0000
0000
0000
0000
,  // measure 75
0000
0000
3003
0000
;
