#TITLE:HAERETICUS;
#SUBTITLE:;
#ARTIST:D.J.Amuro Vs MAX MAXIMIZER;
#TITLETRANSLIT:;
#SUBTITLETRANSLIT:;
#ARTISTTRANSLIT:;
#GENRE:;
#CREDIT:;
#MENUCOLOR:;
#METERTYPE:DDR;
#BANNER:HAERETICUS.png;
#BACKGROUND:HAERETICUS-bg.png;
#LYRICSPATH:;
#CDTITLE:cdtitle.png;
#MUSIC:HAERETICUS.mp3;
#OFFSET:1.129;
#SAMPLESTART:23.091;
#SAMPLELENGTH:15.000;
#SELECTABLE:YES;
#LISTSORT:;
#BPMS:0.000=208.000;
#STOPS:;
#BGCHANGES:;
#ATTACKS:;

//---------------dance-single - ----------------
#NOTES:
     dance-single:
     :
     Hard:
     17:
     1.000,1.000,0.839,0.295,0.862:
0000
0000
0000
0000
,
2100
0100
0100
0100
,
0100
0000
0000
0000
0100
0000
0000
0000
0100
0000
0000
0000
3100
0000
0100
0010
,
0002
0100
0100
0100
,
0100
0100
0100
0103
,
1100
0000
0100
0000
0010
0000
0100
0000
1000
0000
0001
0000
0100
0010
0100
0000
,
0001
0000
0010
0000
0100
0000
1000
0000
0100
0000
0010
0000
0001
1000
0001
0000
,
1100
0010
0101
0010
,
1100
0000
0010
0000
0101
0000
0010
0000
1000
0100
1000
0100
0010
0000
0010
0000
,
1002
0000
0000
0000
,
0000
0000
0000
0000
0200
0000
0000
0303
,
1010
0000
0100
0101
0000
0010
0110
0000
,
1000
1100
0000
0001
0101
0000
1100
0000
,
0110
0000
0001
0101
0000
1000
1100
0000
,
0010
0110
0000
0100
0101
0000
1010
0000
,
0012
0000
0100
0100
0000
1000
1000
0000
,
0010
0010
0000
0100
0103
0000
0110
0000
,
2010
0000
0100
0001
0000
0010
0001
0000
,
0100
0001
0000
0010
3001
0000
1100
0000
,
2002
0000
0000
0000
0000
0000
0000
0000
3003
0000
0000
0000
0001
0100
0010
0100
,
0001
0000
1000
0000
0100
0000
0010
0000
0001
0100
1000
0000
0200
0000
0000
0000
,
0301
0100
1000
0100
0010
0001
0010
1000
,
0100
0001
0100
1000
0010
0010
0100
0001
,
0010
0100
1000
0100
0001
0100
0010
1000
,
0010
0001
0100
0010
0100
0100
0001
1000
,
2100
0001
3010
0100
0012
1000
0103
0010
,
2001
0010
3001
0100
0010
0010
1000
0100
,
0010
0001
0010
0000
0100
0000
0010
1000
0010
0000
0100
0000
0010
0001
0010
0000
,
0100
0000
0010
1000
0010
0000
0100
0000
0010
0001
1000
0001
2000
0000
3000
0000
,
0010
0100
0001
0100
0000
0010
1000
0100
0010
0100
0000
1000
,
0001
0000
0100
0000
1000
0000
0100
0000
0000
0000
0010
0000
1000
0000
0000
1100
0000
0000
0001
0000
0000
0101
0000
0000
,
1000
0100
0010
0100
0000
1000
0001
0100
1000
0100
0000
0010
,
1000
0000
0100
0000
0001
0000
0100
0000
0000
0000
1000
0000
0001
0000
0000
0011
0000
0000
1000
0000
0000
1010
0000
0000
,
0001
0010
0100
1000
0000
0001
0100
1000
0100
0010
0000
1000
,
0100
0000
0001
0000
0100
0000
0010
0000
0000
0000
0001
0000
1000
0000
0000
1100
0000
0000
0001
0000
0000
0011
0000
0000
,
0100
1000
0100
0000
0010
0000
0100
0001
0100
0000
0010
0000
0100
1000
0100
0000
,
0010
0000
0100
0001
0100
0000
0010
0000
0001
0100
0010
1000
0100
0000
0010
0000
,
0200
0000
0020
0030
,
1300
0100
0010
0001
0010
0100
1000
0010
0100
0001
0100
0010
,
2000
0000
0002
0003
,
3001
0010
0100
1000
0100
0010
0001
0100
0010
1000
0010
0100
,
0001
0000
0001
0100
0000
0100
0010
0000
0010
1000
0000
1000
,
0100
0000
0100
0001
0000
0001
0100
0000
0100
1000
0000
1000
,
0001
0000
0010
0000
0100
0000
1000
0000
0001
0000
0100
0000
0020
0000
0000
1000
0000
0000
1000
0000
0000
1000
0000
0000
,
0130
0001
1001
0220
0000
0000
0330
0000
,
0101
0001
0000
1000
1100
0100
0000
0010
,
0011
0001
0101
0100
0110
0010
1010
1000
,
1001
0001
0000
0010
0110
0100
0000
0100
,
1100
1000
1001
0001
0101
0100
0110
0010
,
1010
1000
0000
0001
0011
0010
0000
0100
,
1100
1000
1001
0001
0011
0010
0110
0100
,
1100
1000
0010
0101
0001
0010
1100
1000
,
0011
0100
1010
0100
0011
0100
1010
0100
,
0012
0000
0000
0000
,
2000
0000
0000
3003
,
1000
0100
0010
0100
,
1000
0001
0200
0300
,
0010
0100
0001
1000
,
0010
0100
0001
0010
,
0200
0000
0300
0100
1000
0010
0100
0001
,
0100
1000
0100
0001
0010
1000
0010
0001
,
1000
0100
0010
0001
0010
0100
1000
0010
1000
0001
0010
0001
,
1000
0010
0100
0001
0100
0010
1000
0100
1000
0001
0100
0001
,
0020
0000
0200
0330
,
1000
0100
1000
0001
0100
0001
0010
0100
1000
0001
0010
0100
,
1000
0010
1000
0001
0100
0010
1000
0100
0001
0100
1000
0010
,
0100
0001
1000
0100
1000
0001
0100
1000
0100
0001
1000
0100
,
0010
0000
0101
0000
,
1100
0000
1010
0000
,
0001
0000
0000
0000
0100
0000
0000
0000
1000
0000
0000
0000
0001
0000
0000
0010
0000
0000
0001
0000
0000
0010
0000
0000
1000
0000
0000
0000
0010
0000
0000
0000
0001
0000
0000
0000
1000
0000
0000
0100
0000
0000
1000
0000
0000
0100
0000
0000
,
0002
0000
2003
0000
,
3001
0000
0000
0000
,
0220
0000
0000
0330
,
0100
1000
0001
0010
0100
1000
0001
0100
0010
1000
0010
0100
,
0001
0000
0010
0000
0100
0000
0010
0000
0001
0000
0100
0000
0010
0000
0000
1010
0000
0000
0100
0000
0000
0101
0000
0000
,
0010
1000
0100
0001
0100
1000
0010
0100
0001
0010
0100
1000
,
0100
0000
0010
0000
0001
0000
0100
0000
1000
0000
0100
0000
0001
0000
0000
0101
0000
0000
1000
0000
0000
1100
0000
0000
,
0001
0100
1000
0100
0001
0010
0100
0001
0100
1000
0010
0100
,
1000
0000
0100
0000
0001
0000
0010
0000
0100
0000
1000
0000
0001
0000
0000
0011
0000
0000
1000
0000
0000
1010
0000
0000
,
0001
0100
1000
0100
0001
0000
0001
0010
1000
0010
0001
0000
0001
0100
1000
0100
,
0001
0000
0001
0010
1000
0010
0001
0000
2002
0000
0000
0000
0000
0000
3003
0000
,
1100
0100
0010
0001
0110
1000
0100
0001
,
0101
0110
1100
0110
0000
0101
0000
1100
,
0100
0010
0001
0010
1100
1000
0010
0100
,
0001
0100
1000
0001
0010
1000
0010
0001
1000
0101
0000
0000
,
0011
0010
0100
1000
0101
0010
1000
0100
,
0101
0110
1100
0110
0000
0011
0000
1001
,
1000
0100
0001
1000
0001
1000
0010
0001
0100
1000
0001
1000
,
0001
0010
1000
0100
0001
0100
1000
0010
0100
1001
0000
0000
;

//---------------dance-single - ----------------
#NOTES:
     dance-single:
     :
     Medium:
     14:
     0.782,0.777,0.323,0.470,0.074: // measure 1
0000
0000
0000
0000
,  // measure 2
0002
0100
0100
0100
,  // measure 3
0100
0000
0100
0000
0100
0000
0103
0010
,  // measure 4
2000
0100
0100
0100
,  // measure 5
0100
0100
0100
3100
,  // measure 6
1000
1000
0100
1000
0010
0100
0001
0000
,  // measure 7
0001
0001
0010
0100
0010
0001
1001
0000
,  // measure 8
1010
0100
0011
0100
,  // measure 9
1000
0100
0010
0001
0100
1000
0100
0001
,  // measure 10
0020
0000
0000
0000
,  // measure 11
0000
0000
0200
0330
,  // measure 12
1001
0000
0001
0100
0000
0010
1000
0000
,  // measure 13
0100
0010
0000
0001
0100
0000
1010
0000
,  // measure 14
0101
0000
0010
1000
0000
0100
0010
0000
,  // measure 15
0001
0100
0000
1000
0100
0000
0110
0000
,  // measure 16
1001
0000
1000
0100
0000
0010
0100
0000
,  // measure 17
1000
0001
0000
0100
0010
0000
1001
0000
,  // measure 18
0110
0000
1000
0100
0110
0000
0001
0100
,  // measure 19
0110
0000
1001
0000
1000
0100
0010
0001
,  // measure 20
2002
0000
0000
0000
0000
0000
0000
0000
3003
0000
0000
0000
1000
0001
1000
0000
,  // measure 21
0001
0000
0010
0000
0100
0000
1000
0000
0001
0100
0001
0000
2000
0000
0000
0000
,  // measure 22
3010
0010
0100
0001
0010
0010
0100
1000
,  // measure 23
0010
0010
0100
0001
1000
0100
0010
0100
,  // measure 24
1000
1000
0010
0100
0001
0001
0010
0100
,  // measure 25
1000
1000
0010
0100
0001
0001
0010
0100
,  // measure 26
1000
1000
0001
0100
0001
0001
1000
0100
,  // measure 27
1000
1000
0001
0010
0100
1000
0001
0100
,  // measure 28
0010
1000
0200
0310
0001
0200
0310
1000
,  // measure 29
0200
0310
0001
0200
0310
1000
0110
0000
,  // measure 30
0001
0100
1000
1000
0100
0001
0010
0010
,  // measure 31
0100
1000
0010
0010
1000
0100
0001
0100
,  // measure 32
1000
0010
0100
0100
1000
0100
0001
0001
,  // measure 33
0010
0100
1000
1000
0100
0010
0001
0100
,  // measure 34
0010
1000
0100
0100
0001
0100
1000
1000
,  // measure 35
0010
0100
1000
1000
0100
0001
0010
0100
,  // measure 36
1000
0010
0200
0301
0010
0200
1300
0010
,  // measure 37
0200
0301
0010
0200
1300
1000
0001
0100
,  // measure 38
0220
0000
0000
0300
,  // measure 39
2030
3200
0320
0032
,  // measure 40
0203
0000
0000
0000
,  // measure 41
0320
2030
3002
0023
,  // measure 42
0130
0000
1000
0100
0000
1000
0100
0000
1000
0001
0000
1000
,  // measure 43
0001
0000
0100
0001
0000
0100
0001
0000
0100
0010
0000
0100
,  // measure 44
0010
1000
0010
0100
2002
0000
0000
3003
,  // measure 45
0000
0010
0100
2002
0000
0000
3003
0000
,  // measure 46
0001
0010
0000
0010
0100
1000
0000
1000
,  // measure 47
0010
0100
0100
1000
0100
0100
0001
0010
,  // measure 48
0100
1000
0000
1000
0010
0100
0000
0100
,  // measure 49
0001
0010
0010
1000
0010
0010
0001
0100
,  // measure 50
0010
1000
0000
1000
0100
0010
0000
0010
,  // measure 51
0001
0100
0100
1000
0100
0100
0010
1000
,  // measure 52
0001
0100
0001
1000
0100
1000
0001
0100
,  // measure 53
0010
1000
0010
0100
0010
0001
0010
0100
,  // measure 54
0020
0000
0000
0000
,  // measure 55
0000
0000
0000
0030
,  // measure 56
1000
0001
0100
0010
,  // measure 57
1000
0100
0110
0000
,  // measure 58
0001
0010
1000
0100
,  // measure 59
0001
1000
0010
0100
,  // measure 60
0101
0000
0000
1000
0100
0000
0100
1000
,  // measure 61
0001
0000
0100
0001
0010
0000
0100
1000
,  // measure 62
0020
2030
3002
0023
,  // measure 63
0130
0000
0100
1000
0000
1000
0001
0000
0001
0100
0000
0100
,  // measure 64
0010
0000
1001
0000
,  // measure 65
0002
0023
0230
2300
,  // measure 66
3002
0203
0320
2030
,  // measure 67
3200
0302
0203
2300
,  // measure 68
3010
0100
0101
0000
,  // measure 69
1100
0000
1001
0000
,  // measure 70
0001
0000
0010
0000
0100
1000
0100
0000
0010
0000
0001
0000
1000
0100
1000
0000
,  // measure 71
1001
0000
0110
0000
,  // measure 72
2002
0000
0000
3003
,  // measure 73
0220
0000
0000
0330
,  // measure 74
0001
0010
0100
0010
0001
0100
0010
0100
,  // measure 75
0001
0010
0100
0010
0001
0001
1000
0010
,  // measure 76
1000
0100
0010
0100
1000
0010
0100
0010
,  // measure 77
1000
0100
0010
0100
1000
1000
0010
0100
,  // measure 78
0001
0010
0100
1000
0001
0100
0010
1000
,  // measure 79
0001
0010
0100
1000
0001
0001
0100
0010
,  // measure 80
1000
0100
0001
1000
0010
0001
1000
0100
,  // measure 81
0001
1000
0010
0001
1100
0000
0000
0000
,  // measure 82
0001
0100
0010
0100
0001
0010
0100
0010
,  // measure 83
0001
0001
1000
0100
0000
0110
0000
1001
,  // measure 84
0000
0001
0100
0001
1000
0100
1000
0010
,  // measure 85
0100
0001
1000
0010
1000
0001
0110
0000
,  // measure 86
0001
0100
1000
0100
0010
1000
0100
0001
,  // measure 87
0100
0100
0010
0001
0000
1100
0000
0101
,  // measure 88
1000
0100
0001
0100
1000
0010
0001
0010
,  // measure 89
1000
0100
0001
0010
1000
0100
1001
0000
;

//---------------dance-single - ----------------
#NOTES:
     dance-single:
     :
     Easy:
     11:
     0.603,0.654,0.129,0.083,0.000: // measure 1
0000
0000
0000
0000
,  // measure 2
1000
0001
1000
0001
,  // measure 3
1000
0000
0001
0000
1000
0000
0001
1000
,  // measure 4
0010
0100
0010
0100
,  // measure 5
0010
0100
0010
0100
,  // measure 6
0001
0000
0100
0010
1000
0100
0010
0000
,  // measure 7
0100
0000
1000
0010
0100
0001
0010
0000
,  // measure 8
0101
0001
1100
1000
,  // measure 9
0001
0010
0001
0010
0100
0100
1000
0100
,  // measure 10
0020
0000
0000
0000
,  // measure 11
0000
0000
0130
0000
,  // measure 12
0001
0000
1000
0100
0000
1000
0100
0000
,  // measure 13
0010
0100
0000
0010
0100
0000
1000
0000
,  // measure 14
0001
0000
0100
0010
0000
0100
0010
0000
,  // measure 15
1000
0010
0000
1000
0010
0000
0100
0000
,  // measure 16
0001
0000
0010
0100
0000
0010
0100
0000
,  // measure 17
1000
0100
0000
1000
0100
0000
0010
0000
,  // measure 18
0001
0000
1000
0010
0000
1000
0010
0000
,  // measure 19
0100
0001
0000
0100
0001
0000
0010
0000
,  // measure 20
0110
0000
0000
0000
0000
0000
1000
0001
,  // measure 21
1000
0010
0100
0001
0010
0010
0100
0000
,  // measure 22
1000
0100
1000
0000
0001
0100
0001
0000
,  // measure 23
1000
0100
1000
0000
0001
0001
0010
0100
,  // measure 24
1000
0010
1000
0000
0001
0010
0001
0000
,  // measure 25
1000
0010
1000
0000
0001
0001
0010
0100
,  // measure 26
0010
0001
0100
0000
0010
1000
0100
0000
,  // measure 27
0010
0001
0100
0000
0010
0010
1000
0100
,  // measure 28
1000
0000
0001
0100
0000
1000
0100
0001
,  // measure 29
0010
0000
0100
1000
0000
0100
0010
0000
,  // measure 30
0001
0100
0100
0000
1000
0100
0100
0000
,  // measure 31
0001
0010
0010
0000
0100
0100
1000
0010
,  // measure 32
0100
0001
0001
0000
0100
1000
1000
0000
,  // measure 33
0100
0001
0001
0000
0010
0010
0100
1000
,  // measure 34
0001
0010
0010
0000
1000
0010
0010
0000
,  // measure 35
0001
0010
0010
0000
0100
0100
1000
0010
,  // measure 36
0100
0000
0001
0010
0000
0100
1000
0010
,  // measure 37
0100
0000
1000
0100
0000
0001
0010
0100
,  // measure 38
2000
0000
0000
0000
,  // measure 39
3001
0101
1000
1100
,  // measure 40
0002
0000
0000
0000
,  // measure 41
0013
0110
1000
1100
,  // measure 42
0001
0100
1000
0100
,  // measure 43
0001
0010
1000
0010
,  // measure 44
0001
0100
0010
0000
1000
0100
0001
0000
,  // measure 45
0100
1000
0010
0200
0000
0000
0300
0000
,  // measure 46
0001
0000
1000
0010
0100
0000
0001
0010
,  // measure 47
0100
0100
0000
1000
1000
0000
0010
0100
,  // measure 48
0001
0000
1000
0010
0100
0000
1000
0100
,  // measure 49
0001
0001
0000
1000
1000
0000
0100
0010
,  // measure 50
0001
0000
0010
0100
1000
0000
0010
0100
,  // measure 51
0001
0001
0000
1000
1000
0000
0010
0100
,  // measure 52
0001
0010
0100
0000
0010
0100
1000
0000
,  // measure 53
0100
1000
0001
1000
0100
0010
0001
0010
,  // measure 54
0200
0000
0000
0000
,  // measure 55
0300
0000
0000
0000
,  // measure 56
1000
0001
1000
0010
,  // measure 57
0100
0001
0010
0000
,  // measure 58
0100
1000
0100
0010
,  // measure 59
0001
0100
1000
0100
,  // measure 60
0001
0000
0000
1000
0100
0000
0100
1000
,  // measure 61
0010
0000
0010
0100
0001
0000
0001
1000
,  // measure 62
0100
0010
0001
1000
,  // measure 63
0200
2300
3002
0023
,  // measure 64
0130
0000
1000
0000
,  // measure 65
0010
0100
0001
1000
,  // measure 66
0100
0010
0100
1000
,  // measure 67
0001
0001
0100
0010
,  // measure 68
1001
0000
0010
0000
,  // measure 69
1000
0000
0001
0000
,  // measure 70
0010
0100
1000
0001
0010
0100
1000
0001
,  // measure 71
0010
0000
0001
0000
,  // measure 72
1001
0000
0000
0000
,  // measure 73
0110
0000
0000
0000
,  // measure 74
0010
1000
0100
0000
0010
0001
0100
0000
,  // measure 75
0010
1000
0100
0000
0010
0010
0001
0100
,  // measure 76
0010
1000
0001
0000
0010
0001
1000
0000
,  // measure 77
0010
1000
0001
0000
0010
0010
0100
1000
,  // measure 78
0010
0100
1000
0000
0100
0001
0010
0000
,  // measure 79
0100
0010
1000
0000
0010
0010
0001
0100
,  // measure 80
0010
1000
0100
0010
0001
0100
0010
1000
,  // measure 81
0100
0010
0001
0100
1000
0000
0000
0000
,  // measure 82
0100
0001
0010
0000
0100
1000
0010
0000
,  // measure 83
0100
0100
0001
0010
0000
0100
0000
1000
,  // measure 84
0000
0001
0100
0000
0001
0010
0100
0000
,  // measure 85
1001
0110
1001
0110
,  // measure 86
0001
0100
0010
0000
1000
0100
0001
0000
,  // measure 87
0100
0100
1000
0010
0000
0100
0000
0001
,  // measure 88
0010
0100
1000
0000
0001
0100
0010
0000
,  // measure 89
1000
0100
0001
0100
1000
0010
0100
0000
;
