#TITLE:Clash (Original Mix);
#SUBTITLE:;
#ARTIST:Caravan Palace;
#TITLETRANSLIT:;
#SUBTITLETRANSLIT:;
#ARTISTTRANSLIT:;
#GENRE:;
#CREDIT:;
#MENUCOLOR:;
#METERTYPE:DDR;
#BANNER:Clash (Original Mix).png;
#BACKGROUND:Clash (Original Mix)-bg.png;
#LYRICSPATH:;
#CDTITLE:cdtitle.png;
#MUSIC:Clash (Original Mix).mp3;
#OFFSET:0.208;
#SAMPLESTART:45.149;
#SAMPLELENGTH:15.000;
#SELECTABLE:YES;
#LISTSORT:;
#BPMS:0.000=127.000;
#STOPS:160.000=0.472
;
#BGCHANGES:;
#ATTACKS:;

//---------------dance-single - ----------------
#NOTES:
     dance-single:
     :
     Hard:
     13:
     0.578,0.585,0.051,0.077,0.418:
0000
0000
0000
0000
,
0000
0000
0000
0000
,
0000
0000
0000
0000
,
0000
0000
0000
0000
0000
0000
0000
0000
0000
0000
0000
0000
0000
0000
0000
0000
0000
0000
0000
0000
0000
0000
0000
1000
,
0000
0000
0001
0000
0000
0100
0000
0000
0010
1000
0000
0010
0100
0000
0010
1000
0000
0010
0100
0000
0001
0100
0000
0001
,
0010
0100
1000
0001
1000
0001
0100
0010
,
1000
0000
0100
0010
0000
0001
0000
0000
1000
0010
0000
1000
0010
0000
0100
0000
0000
0000
0000
0000
0001
0010
0000
0000
,
0100
1000
0001
1000
0001
0100
0010
1000
,
0001
0000
0010
0100
0000
0000
1000
0000
0010
0100
0000
0010
0100
0000
0001
0010
0000
0001
0010
0000
0100
1000
0000
0000
,
0000
0010
0100
0010
0100
0001
0010
0100
,
1000
0000
0010
0100
0000
0001
0000
0000
0010
0100
0000
0010
0100
0000
1000
0000
0000
0000
0000
0000
0001
0100
0000
0000
,
0010
1000
0010
1000
0001
0000
0100
0000
,
0002
0010
0000
0100
,
2003
0010
0000
0100
,
3020
0001
0000
1000
,
0130
0000
0000
0000
0000
0000
0001
0000
0000
0000
0000
0000
0000
0000
0000
0000
0000
0000
1000
0000
0001
0010
0000
0001
,
0100
0000
0000
0001
0000
0000
0100
0000
0000
0010
0000
1000
0100
0000
0000
0010
0000
0000
0100
0000
0000
1000
0000
0010
,
0200
0000
0000
0301
0000
0000
1000
0000
0000
0100
0000
0010
0100
0000
0000
1000
0000
0000
0010
0000
0000
0100
0000
0001
,
0010
0000
0000
0001
0000
0000
0010
0000
0000
0100
0000
1000
0010
0000
0000
0100
0000
0000
0010
0000
0000
1000
0000
0100
,
0010
0010
0001
0001
1000
0010
0110
0000
,
0100
0000
0000
1000
0000
0000
0100
0000
0000
0001
0000
1000
0100
0000
0000
0010
0000
0000
0100
0000
0000
1000
0000
0001
,
0200
0000
0000
0301
0000
0000
1000
0000
0000
0100
0000
0010
0100
0000
0000
0001
0000
0000
0100
0000
0000
1000
0000
0001
,
0010
0000
0000
1000
0000
0000
0010
0000
0000
0001
0000
0100
0010
0000
0000
1000
0000
0000
0010
0000
0000
0100
0000
0001
,
0010
0000
0000
0000
0000
0000
0100
0000
0000
0000
0000
0000
1000
0000
0000
0000
0000
0000
0100
0000
0000
0000
1000
0000
0010
0000
0000
0000
0000
0000
0100
0000
0000
0000
0000
0000
0100
0000
0000
0000
0000
0000
0001
0000
0000
0010
0000
0000
,
0001
0000
0100
0000
0000
0001
0000
0000
1000
0100
0000
1000
0010
0000
0100
0010
0000
0100
0001
0000
0010
0001
0000
0010
,
0000
0100
1000
0001
1000
0100
0010
0001
,
1000
0000
0010
0100
0000
0001
0000
0000
0010
0100
0000
1000
0100
0000
0010
0000
0000
0000
0000
0000
0001
0100
0000
0000
,
0010
0100
0001
1000
0001
1000
0100
0010
,
0001
0000
0100
0010
0000
0000
1000
0000
0100
0010
0000
0001
0010
0000
0001
0100
0000
0010
0100
0000
0010
1000
0000
0000
,
0000
0001
0100
0010
0100
0001
1000
0100
,
0010
0000
0100
1000
0000
0001
0000
0000
0100
0010
0000
1000
0001
0000
0010
0000
0000
0000
0000
0000
0100
1000
0000
0000
,
0010
0100
0001
1000
0001
1000
0100
0010
,
0001
0100
0100
0100
0010
0100
0100
0100
,
0001
0000
0000
0000
0000
1001
0000
0000
0000
0000
0000
0000
0000
0000
0000
0000
0000
0000
0000
0000
1001
0000
0000
0000
,
0100
0010
0010
0010
1000
0010
0010
0010
,
0100
0000
0000
0110
,
1000
0100
0001
0100
1000
0100
0001
0000
,
1000
0010
0001
0010
1000
0010
0001
0000
,
1000
0010
0100
1000
0100
0001
1000
0100
,
0100
0000
0000
0000
0000
0010
0001
1000
,
1001
0000
0000
0010
0000
0000
0100
0000
0001
0010
0000
0000
0100
0000
0000
0010
0000
0000
0001
0000
0100
0020
0000
0000
,
1030
0000
0000
0001
0000
0000
0010
0000
0100
0010
0000
0000
0001
0000
0000
0100
0000
0000
0010
0000
1000
0100
0000
0000
,
1000
0000
0000
0100
0000
0000
0010
0000
0001
0100
0000
0000
0010
0000
0000
0100
0000
0000
0001
0000
0010
0200
0000
0000
,
1300
0000
0000
0010
0000
0000
0100
0000
0001
1000
0000
0000
0100
0000
0000
0010
0000
0000
0001
0000
1000
0010
0000
0000
,
0001
0000
0000
0010
0000
0000
1000
0000
0001
0010
0000
0000
0100
0000
0000
0010
0000
0000
0001
0000
1000
0020
0000
0000
,
1030
0000
0000
0001
0000
0000
0010
0000
0100
0010
0000
0000
1000
0000
0000
0010
0000
0000
0001
0000
1000
0100
0000
0000
,
0001
0000
0000
0100
0000
0000
1000
0000
0010
0100
0000
0000
0001
0000
0000
0100
0000
0000
0010
0000
1000
0100
0000
0000
,
0010
0001
0001
1000
0010
0100
0110
1000
,
0100
0000
0000
0100
0000
0000
0010
0000
0001
0100
0000
0000
0010
0000
0000
1000
0000
0000
0010
0000
1000
0100
0000
0000
,
0001
0000
0000
1000
0000
0000
0010
0000
0001
0100
0000
0000
0001
0000
0000
0010
0000
0000
0100
0000
0010
1000
0000
0000
,
0010
0000
0000
0010
0000
0000
0001
0000
1000
0010
0000
0000
0010
0000
0000
0100
0000
0000
1000
0000
0100
0020
0000
0000
,
0031
0000
0000
0010
0000
0000
1000
0000
0100
0001
0000
0000
0100
0000
0000
1000
0000
0000
0010
0000
1000
0100
0000
0000
,
0001
0000
0000
0010
0000
0000
0100
0000
0010
1000
0000
0000
0010
0000
0000
0100
0000
0000
0001
0000
1000
0010
0000
0000
,
0001
0000
0000
0100
0000
0000
1000
0000
0100
0001
0000
0000
0100
0000
0000
0010
0000
0000
1000
0000
0001
0100
0000
0000
,
0010
0000
0000
0100
0000
0000
0001
0000
1000
0100
0000
0000
0001
0000
0000
0100
0000
0000
0010
0000
0000
0001
0000
0000
,
0100
1000
0100
0010
1000
0001
0100
0010
,
0000
1000
0000
0000
0000
0001
0000
0000
,
0000
0000
0000
0000
0000
0001
0000
0000
,
0000
1000
0000
0000
0000
0001
0000
0000
,
0000
0000
0000
0000
0000
0001
0000
0000
;

//---------------dance-single - ----------------
#NOTES:
     dance-single:
     :
     Medium:
     9:
     0.416,0.382,0.085,0.026,0.000:
0000
0000
0000
0000
,
0000
0000
0000
0000
,
0000
0000
0000
0000
,
0000
0000
0000
0000
,
1000
0000
0101
0000
0001
1000
0100
0000
,
0010
0001
0010
0100
1000
0100
0010
0001
,
0100
0000
1010
0000
0100
0010
0001
0000
,
1000
0010
0100
0001
0100
0010
1000
0100
,
0010
0000
0101
0000
0010
1000
0100
0000
,
0010
0001
0100
1000
0100
0001
0010
0100
,
1000
0000
0011
0000
0001
1000
0010
0000
,
1000
0100
0010
0001
0010
0100
1000
0010
,
0200
0001
0000
0001
,
0320
0100
0000
0100
,
2030
0100
0000
0100
,
3001
0010
0000
0010
,
0100
1000
0001
0000
0001
1000
0100
0000
,
0100
0010
0001
0100
0010
0100
0001
0000
,
1000
0100
0010
0000
0010
0100
1000
0000
,
0010
0100
1000
0001
1000
0100
0010
0000
,
1000
0100
0010
0000
0010
0001
0100
0000
,
0100
0001
0010
0100
1000
0001
0100
0000
,
0001
0010
0100
0000
0100
0010
0001
0000
,
1000
0100
1000
0100
1000
0100
1000
0100
,
0010
0000
0011
0000
0001
0100
0010
0000
,
1000
0100
0010
0000
0001
0000
1100
0000
,
0001
0100
0010
1000
0100
0010
0001
0000
,
1000
0100
0010
0001
0100
0010
1000
0000
,
0001
0100
1000
0000
0100
0010
1000
0000
,
0100
0001
0100
1000
0010
0100
0001
0000
,
1000
0010
0100
0000
0001
0010
0100
0000
,
1100
0101
0011
1010
,
1000
0100
1000
0100
1000
0100
1000
0100
,
0010
0001
0100
1000
,
0010
0001
0010
0001
0010
0001
0010
0001
,
0100
1000
0010
0001
,
0100
1000
0100
1000
0100
1000
0100
1000
,
0010
0001
0100
1000
,
0010
0001
0010
0001
0010
0001
0010
0001
,
0100
0000
1000
0000
0010
0001
0100
1000
,
0010
0001
0000
1000
0100
0010
0000
0010
,
0100
1000
0001
0010
0100
1000
0000
0010
,
0100
0001
0000
1000
0010
0100
0000
0010
,
1000
0001
0100
0010
0100
0001
0000
1000
,
0100
0010
0000
0100
1000
0001
0000
0010
,
0100
0010
0001
1000
0010
0100
0000
0001
,
1000
0100
0000
1000
0001
0010
0000
0100
,
1000
0100
0010
0001
0100
0010
0000
1000
,
0100
0100
0000
0010
0001
0001
0000
1000
,
0100
0010
0001
0010
0100
1000
0010
0100
,
0001
0001
0000
1000
0100
0100
0000
0010
,
0001
0100
1000
0001
0010
1000
0100
0010
,
0001
0001
0000
0010
0100
0100
0000
1000
,
0001
0010
1000
0001
0100
1000
0010
0100
,
0001
0001
0000
1000
0010
0010
0000
0100
,
1000
0001
0010
0100
0001
1000
0100
0001
,
0000
1000
0000
0000
0000
1000
0000
0000
,
0000
0000
0000
0000
0000
0001
0000
0000
,
0000
1000
0000
0000
0000
1000
0000
0000
,
0000
0000
0000
0000
0000
0001
0000
0000
;

//---------------dance-single - ----------------
#NOTES:
     dance-single:
     :
     Easy:
     6:
     0.263,0.305,0.060,0.000,0.000: // measure 1
0000
0000
0000
0000
,  // measure 2
0000
0000
0000
0000
,  // measure 3
0000
0000
0000
0000
,  // measure 4
0000
0000
0000
0000
,  // measure 5
1000
1000
0100
0100
,  // measure 6
0010
0001
0010
0000
0100
1000
0100
0000
,  // measure 7
0010
0010
0001
0001
,  // measure 8
1000
0100
1000
0000
0001
0010
0001
0000
,  // measure 9
1000
1000
0010
0010
,  // measure 10
0100
0001
0100
0000
0010
1000
0010
0000
,  // measure 11
0100
0100
0001
0001
,  // measure 12
1000
0010
1000
0000
0001
0100
0001
0000
,  // measure 13
0010
0100
0000
0100
,  // measure 14
1000
0010
0000
0010
,  // measure 15
0100
0001
0000
0001
,  // measure 16
0010
0100
0000
0100
,  // measure 17
1000
0001
1000
0101
,  // measure 18
1000
0001
1000
0101
,  // measure 19
1000
0001
1000
0101
,  // measure 20
1000
0100
0010
0000
0001
0000
1000
0000
,  // measure 21
0001
1000
0001
1100
,  // measure 22
0001
1000
0001
1100
,  // measure 23
0001
1000
0001
1100
,  // measure 24
0001
0010
0100
0000
1000
0100
0010
0000
,  // measure 25
0001
0001
0100
0100
,  // measure 26
0010
1000
0100
0001
,  // measure 27
0010
0010
1000
1000
,  // measure 28
0001
0010
1000
0100
,  // measure 29
0001
0001
1000
1000
,  // measure 30
0100
0001
0010
1000
,  // measure 31
0100
0100
0010
0010
,  // measure 32
0001
0100
1000
0010
,  // measure 33
0001
0001
0001
0001
,  // measure 34
0001
0000
0100
0000
,  // measure 35
1000
1000
1000
1000
,  // measure 36
1000
0000
0100
0000
,  // measure 37
0001
0001
0001
0001
,  // measure 38
0001
0000
0010
0000
,  // measure 39
1000
1000
1000
1000
,  // measure 40
1000
0000
0010
0000
,  // measure 41
0001
0000
0000
0100
0000
0000
0000
0100
,  // measure 42
0000
0100
0000
0010
0000
1000
0000
0100
,  // measure 43
0000
0000
0000
0100
0000
0000
0000
0010
,  // measure 44
0000
0010
0000
0001
0000
0100
0000
0010
,  // measure 45
0000
1000
0000
0100
0000
0000
0000
1000
,  // measure 46
0000
0010
0000
0100
0000
0100
0000
0001
,  // measure 47
0000
0010
0000
0100
0000
0000
0000
1000
,  // measure 48
0000
0001
0000
1000
0001
1000
0000
0010
,  // measure 49
0000
0100
0000
0010
0000
0100
0000
0100
,  // measure 50
0000
0001
0000
1000
0000
0001
0000
0001
,  // measure 51
0000
0010
0000
0100
0000
1000
0000
1000
,  // measure 52
0000
0010
0000
0100
0000
0001
0000
0001
,  // measure 53
0000
0010
0000
0001
0000
1000
0000
0100
,  // measure 54
0000
1000
0000
0010
0000
0100
0000
0100
,  // measure 55
0000
0001
0000
1000
0000
0100
0000
0010
,  // measure 56
0000
0001
1000
0001
0000
1001
0000
0000
,  // measure 57
0000
0100
0000
0000
0000
0010
0000
0000
,  // measure 58
0000
0000
0000
0000
0000
0010
0000
0000
,  // measure 59
0000
0100
0000
0000
0000
0010
0000
0000
,  // measure 60
0000
0000
0000
0000
0000
0010
0000
0000
;
