#TITLE:Cage to Heart;
#SUBTITLE:;
#ARTIST:越田Rute隆人;
#TITLETRANSLIT:;
#SUBTITLETRANSLIT:;
#ARTISTTRANSLIT:Takahito "Rute" Koshida;
#GENRE:;
#CREDIT:;
#MENUCOLOR:;
#METERTYPE:DDR;
#BANNER:Cage to Heart.png;
#BACKGROUND:Cage to Heart-bg.png;
#LYRICSPATH:;
#CDTITLE:cdtitle.png;
#MUSIC:Cage to Heart.mp3;
#OFFSET:-0.025;
#SAMPLESTART:58.579;
#SAMPLELENGTH:15.000;
#SELECTABLE:YES;
#LISTSORT:;
#BPMS:0.000=168.000;
#STOPS:;
#BGCHANGES:;
#ATTACKS:;

//---------------dance-single - ----------------
#NOTES:
     dance-single:
     :
     Hard:
     13:
     0.725,0.679,0.710,0.386,0.214: // measure 1
0000
0000
0000
0000
,  // measure 2
0000
0000
0000
0000
,  // measure 3
0000
0000
0000
0000
,  // measure 4
0000
0000
0000
0000
,  // measure 5
0000
0000
0000
0000
,  // measure 6
0101
0000
0000
0000
0000
0000
0000
1100
,  // measure 7
0000
0000
0000
0000
0000
0000
0000
0000
1100
0000
0000
0101
0000
0000
1001
0000
,  // measure 8
0110
0000
0000
0000
0000
0000
0000
1010
,  // measure 9
0000
0000
0011
1100
,  // measure 10
0001
0010
0001
0100
0010
1000
0200
1000
,  // measure 11
1300
0000
0010
0000
0100
0000
0001
0000
0010
0000
0000
0100
0000
0000
1000
0000
,  // measure 12
1010
0010
0100
0001
0010
0100
2000
0001
,  // measure 13
3001
0100
0010
0100
0101
0000
1100
0000
,  // measure 14
0010
1000
0100
0001
0100
1000
0020
0100
,  // measure 15
0130
0000
0001
0000
0010
0000
0100
0000
1000
0000
0000
0001
0000
0000
0100
0000
,  // measure 16
0110
0010
1000
0100
0001
0100
1000
2002
,  // measure 17
0000
3003
0011
1100
,  // measure 18
1000
0000
0000
0001
0000
0000
0200
0000
0000
0000
0310
0000
1000
0000
0000
0000
,  // measure 19
0001
0010
0000
0000
0001
0010
0000
0000
0100
1000
0100
0000
0010
0001
0010
0000
,  // measure 20
0001
0000
0000
0100
0000
0000
0110
0000
0000
0000
0010
1000
0001
0000
0000
0010
,  // measure 21
0000
0000
0200
0000
0000
0000
0310
0001
1000
0000
0000
0000
1001
0000
0000
0000
,  // measure 22
0010
0000
0000
0100
0000
0000
0002
0000
0000
0000
1003
0000
0100
0000
0000
0000
,  // measure 23
1000
0010
0000
0000
1000
0010
0000
0000
0100
0001
0100
0000
0001
1000
0001
0000
,  // measure 24
0010
0000
0000
0100
0000
0000
1001
0000
0000
0000
0100
0010
1000
0000
0000
0001
,  // measure 25
0000
0020
0000
0030
0100
1000
0001
0110
,  // measure 26
1001
0000
1000
0100
1000
0000
0001
0200
,  // measure 27
0010
0000
0301
0010
1000
0010
0001
0100
,  // measure 28
0010
0000
0100
0002
1000
0000
0103
0010
,  // measure 29
1000
0010
0100
0001
0010
1000
0001
0100
,  // measure 30
0110
0000
0000
0000
0001
0000
0100
0000
0010
0000
0000
0100
0000
0000
0001
0000
,  // measure 31
1000
0000
0000
0000
0100
0000
0010
0000
0100
0000
0000
1000
0000
0000
0001
0000
,  // measure 32
0100
0000
0010
0100
0001
1000
0100
0001
,  // measure 33
0100
1000
0010
0100
0001
0010
0100
1000
,  // measure 34
1002
0000
0013
0100
1000
0020
0100
2030
,  // measure 35
0000
3001
1000
1100
0000
1000
0001
0201
,  // measure 36
0000
0310
1000
0200
0000
0301
0100
1000
,  // measure 37
0010
1000
0100
0020
0001
0130
1000
0100
,  // measure 38
1100
1000
0011
0000
0001
0100
0010
0100
,  // measure 39
0001
0020
0100
0032
0000
1003
0010
0110
,  // measure 40
0000
0001
0010
0100
1000
0001
0100
0101
,  // measure 41
0000
1100
0000
2002
0000
3003
0010
0100
,  // measure 42
0110
1000
0001
0000
0010
0100
1000
1200
,  // measure 43
0000
0310
0001
0100
0101
0000
2100
0000
,  // measure 44
3001
0100
1000
0001
0010
1000
0001
0100
,  // measure 45
0010
0100
0001
0010
0110
0000
1001
0000
,  // measure 46
0110
0001
1000
0000
0010
0100
0001
0201
,  // measure 47
0000
0310
1000
0100
1100
0000
0102
0000
,  // measure 48
1003
0100
0001
1000
0010
0001
1000
0100
,  // measure 49
0020
0100
0130
0000
0110
0000
1001
0000
,  // measure 50
0110
0001
1000
0000
0100
0010
0001
0021
,  // measure 51
0000
0130
1000
0010
1010
0000
0012
0000
,  // measure 52
1003
0010
0001
1000
0100
0001
1000
0010
,  // measure 53
0100
0010
1000
0100
0110
0000
1001
0000
,  // measure 54
0110
1000
0001
0000
0100
0010
1000
1020
,  // measure 55
0000
0130
0001
0010
0011
0000
2010
0000
,  // measure 56
3001
0010
1000
0001
0100
1000
0001
2002
,  // measure 57
0000
3003
0110
1001
,  // measure 58
1010
0000
0000
0110
0000
0000
0102
0000
0000
0000
0010
0000
0013
0000
0000
0000
,  // measure 59
0100
1000
0000
0000
0100
1000
0100
0000
1000
0001
1000
0000
0001
0100
0001
0100
,  // measure 60
0010
0000
0000
0100
0000
0000
0110
0000
0000
0000
1000
0001
0010
0000
0000
0100
,  // measure 61
0000
0000
0110
0000
0000
0000
0001
1000
0020
0000
0000
0000
0130
0000
0000
0000
,  // measure 62
0011
0000
0000
0110
0000
0000
2100
0000
0000
0000
0010
0000
3010
0000
0000
0000
,  // measure 63
0100
0001
0000
0000
0100
0001
0100
0000
0001
1000
0001
0000
1000
0100
1000
0100
,  // measure 64
0010
0000
0000
0100
0000
0000
0110
0000
0000
0000
0001
1000
0010
0000
0000
0100
,  // measure 65
0000
0220
0000
0330
0010
1000
0001
0110
,  // measure 66
1001
0000
0000
0000
;

//---------------dance-single - ----------------
#NOTES:
     dance-single:
     :
     Medium:
     10:
     0.500,0.543,0.188,0.146,0.063:
0000
0000
0000
0000
,
0000
0000
0000
0000
,
0000
0000
0000
0000
,
0000
0000
0000
0000
,
0000
0000
0000
0000
,
1001
0000
0000
0000
0000
0000
0000
0010
,
1000
0000
0001
0000
0010
0100
1000
0000
,
1001
0000
0000
0000
0000
0000
0000
0110
,
0000
0000
0010
1000
,
0001
0000
0001
0010
0100
0010
0100
0000
,
1000
0000
1000
0010
0100
0010
0100
0000
,
0001
0000
0001
0100
0010
0100
0010
0000
,
1000
0000
1000
0100
0010
0100
0010
0000
,
0001
0000
0001
0100
0001
0010
0100
0000
,
1000
0000
1000
0010
1000
0100
0010
0000
,
0001
0100
0001
0000
1000
0100
2000
0002
,
0000
3000
0103
0110
,
1000
0000
0000
0001
0000
0000
0100
0000
0010
0000
0000
0000
0100
0000
0000
0000
,
0001
0001
0010
0000
0100
0100
1000
0000
,
0010
0000
0000
0100
0000
0000
0010
0000
0000
0000
0100
0000
0010
0000
0000
1000
,
0000
0100
0000
1000
0100
0000
0010
0000
,
0001
0000
0000
1000
0000
0000
0100
0000
0010
0000
0000
0000
0001
0000
0000
0000
,
1000
0100
0010
0000
0010
0100
1000
0000
,
0001
0000
0000
0100
0000
0000
0010
0000
0000
0000
1000
0000
0100
0000
0000
0010
,
0000
0001
0000
0000
1000
0001
1000
0001
,
0100
0000
0010
0000
1000
0000
0100
0010
,
0100
1000
0001
0100
,
0010
1000
0100
0010
,
0001
0000
0100
0001
0100
0001
0010
0000
,
0100
0000
1000
0010
1000
0000
0001
0000
,
0100
0001
0010
0100
,
1000
0010
0100
0000
0001
0000
0010
0000
,
1000
0010
0001
0100
,
0010
1000
0010
1000
0001
0000
0010
0000
,
0100
1000
0100
1000
0001
0000
0100
0000
,
0010
1000
0100
0010
,
0100
1000
0100
1000
0001
0000
0000
0000
,
0100
0000
0010
0000
0100
0001
0100
0000
,
0001
1000
0100
0010
,
0100
0000
1000
0001
1000
0000
0010
0100
,
0000
0001
0000
2002
0000
0000
3003
0000
,
0120
0000
1030
0000
0100
0020
1000
0000
,
0130
0001
0010
0001
0100
0000
1001
0000
,
0001
0010
0100
0000
0001
0010
0100
0000
,
0100
1000
0010
1000
0100
0000
0000
0000
,
0012
0000
0103
0000
0010
0002
0100
0000
,
0013
0100
1000
0100
0010
0000
0110
0000
,
0001
1000
0100
0000
0001
1000
0100
0020
,
0000
0030
0011
1100
,
1002
0000
0103
0000
1000
0002
0100
0000
,
1003
0100
0001
0100
1000
0000
1001
0000
,
0010
0100
0001
0000
0010
0100
0001
0000
,
0001
0100
1000
0100
0001
0000
1001
0000
,
2001
0000
3100
0000
0001
2000
0100
0000
,
3001
0100
1000
0100
0001
0000
1001
0000
,
0010
0100
1000
0000
0010
0100
1000
0002
,
0000
0003
1010
0101
,
1000
0000
0000
0001
0000
0000
0100
0000
0010
0000
0000
0000
0100
0000
0000
0000
,
0001
0001
0010
0000
0100
0100
1000
0000
,
0010
0000
0000
0100
0000
0000
0010
0000
0000
0000
0100
0000
0010
0000
0000
1000
,
0000
0100
0000
1000
0100
0000
0010
0000
,
0001
0000
0000
1000
0000
0000
0100
0000
0010
0000
0000
0000
0001
0000
0000
0000
,
1000
0100
0010
0000
0010
0100
1000
0000
,
0001
0000
0000
0100
0000
0000
0010
0000
0000
0000
1000
0000
0100
0000
0000
0010
,
0000
0001
0000
0000
1000
0001
1000
0001
,
0100
0000
0000
0000
;

//---------------dance-single - ----------------
#NOTES:
     dance-single:
     :
     Easy:
     6:
     0.348,0.305,0.010,0.157,0.000:
0000
0000
0000
0000
,
0000
0000
0000
0000
,
0000
0000
0000
0000
,
0000
0000
0000
0000
,
0000
0000
0000
0000
,
0100
0000
0000
0000
0000
0000
0000
0010
,
0000
0000
1000
0001
,
1001
0000
0000
0000
0000
0000
0000
0100
,
0000
0000
0010
1000
,
0100
0100
1000
0001
,
0100
0100
0001
0010
,
0100
0100
1000
0010
,
0100
0100
0001
1000
,
0001
0001
0010
0100
,
1000
1000
0100
0010
,
0001
0000
0001
0000
0100
0000
0010
0020
,
0000
0030
0100
0010
,
1000
0000
0100
2000
0000
0000
0000
0000
,
3001
0001
1000
1000
,
0001
0000
0010
0001
0000
0000
1000
0000
,
0010
1000
0000
0000
0001
0000
1000
0000
,
0010
0000
0100
0002
0000
0000
0000
0000
,
0013
0100
0010
0100
,
1000
0000
0100
1000
0000
0000
0001
0000
,
0100
0001
0000
0000
1000
0000
0100
0000
,
0010
0100
1000
0001
,
0010
0001
1000
0100
,
0010
0100
1000
0001
,
0010
0001
1000
0100
,
0010
0001
1000
0001
,
0010
0001
1000
0100
,
0010
0100
1000
0100
,
0010
0001
0100
0010
,
1000
1000
0100
0010
,
0001
0001
0010
0000
,
0100
0100
1000
0010
,
0100
0100
0001
0000
,
0100
0100
0010
1000
,
0001
0001
0100
0010
,
1000
0000
1000
0000
0100
0000
0010
0001
,
0000
0001
0000
0001
0000
0000
0000
0000
,
2000
3010
1000
0100
,
0010
0001
0200
0300
,
0001
0010
0001
0100
,
0010
1000
0100
0000
,
0002
0013
0100
1000
,
0010
0100
0002
0003
,
1000
0000
0100
0000
0010
0000
0001
0002
,
0000
0003
1000
1000
,
0002
0013
0001
0100
,
0010
1000
0200
0300
,
1000
0010
1000
0100
,
0010
0001
0100
0000
,
2000
3010
0100
0001
,
0010
0100
2000
3000
,
0001
0000
0100
0000
0010
0000
1000
2000
,
0000
3000
0010
0100
,
0001
0000
0010
0002
0000
0000
0000
0000
,
1003
1000
0001
0001
,
1000
0000
0100
1000
0000
0000
0001
0000
,
0100
0001
0000
0000
1000
0000
0001
0000
,
0100
0000
0010
2000
0000
0000
0000
0000
,
3100
0010
0100
0010
,
0001
0000
0010
0001
0000
0000
1000
0000
,
0010
1000
0000
0000
0001
0000
0010
0000
,
0100
0000
0000
0000
;
