#TITLE:ANAGRAMS I to Y;
#SUBTITLE:;
#ARTIST:Mayumi Morinaga;
#TITLETRANSLIT:;
#SUBTITLETRANSLIT:;
#ARTISTTRANSLIT:;
#GENRE:;
#CREDIT:;
#MENUCOLOR:;
#METERTYPE:DDR;
#BANNER:ANAGRAMS I to Y.png;
#BACKGROUND:ANAGRAMS I to Y-bg.png;
#LYRICSPATH:;
#CDTITLE:cdtitle.png;
#MUSIC:ANAGRAMS I to Y.mp3;
#OFFSET:-0.025;
#SAMPLESTART:47.469;
#SAMPLELENGTH:15.000;
#SELECTABLE:YES;
#LISTSORT:;
#BPMS:0.000=165.000;
#STOPS:;
#BGCHANGES:;
#ATTACKS:;

//---------------dance-single - ----------------
#NOTES:
     dance-single:
     :
     Hard:
     12:
     0.595,0.605,0.279,0.301,0.097: // measure 1
0000
0000
0000
0000
,  // measure 2
0000
0000
0000
0000
,  // measure 3
0000
0000
0000
0000
,  // measure 4
0000
0000
0000
0000
,  // measure 5
0000
0000
0000
0000
,  // measure 6
0100
0000
0000
0100
0000
0000
0001
0000
0000
0001
0000
0000
1000
0000
0000
1000
,  // measure 7
0000
0000
0100
0000
0000
0100
0000
0000
0010
0000
0000
0001
0000
0000
0010
0000
,  // measure 8
0100
0000
0000
0100
0000
0000
1000
0000
0010
0000
0000
0010
0000
0000
0010
0000
,  // measure 9
0000
0000
0100
0000
0001
0000
1000
0000
0001
0000
0000
0101
0000
0000
1100
0000
,  // measure 10
1000
0000
0010
0100
0001
0100
0010
1000
,  // measure 11
0000
1000
0100
0010
0000
0010
0001
0100
,  // measure 12
0000
0100
0010
0000
1000
0000
0001
0100
,  // measure 13
0000
0001
0010
0000
0100
1000
0001
0100
,  // measure 14
0010
0000
0100
0001
1000
0100
0010
0001
,  // measure 15
0000
0001
0100
0010
0000
0010
1000
0100
,  // measure 16
0000
0010
0200
0000
1300
0000
0001
0100
,  // measure 17
0000
0000
0010
0000
0200
0000
0000
0000
0301
0000
1100
0000
0000
0000
0001
1000
,  // measure 18
0001
0000
0010
0100
1000
0001
0100
0010
,  // measure 19
0000
0100
0001
0010
0000
0100
1000
0020
,  // measure 20
0000
0130
0001
1000
0000
0100
1000
0100
,  // measure 21
1000
0000
1000
0001
0100
0001
0010
0001
,  // measure 22
0100
0000
0010
0010
1000
0100
0010
0002
,  // measure 23
0000
2003
0000
3020
0000
0130
0001
2000
,  // measure 24
0000
3100
0020
0000
0130
0000
1000
0002
,  // measure 25
0000
0000
0103
0000
0010
0000
0000
0000
0100
0000
1001
0000
0000
0000
1000
0100
,  // measure 26
1000
0001
0100
0000
0001
0000
1000
0100
,  // measure 27
0000
0001
0100
0000
1000
0010
0100
0002
,  // measure 28
0000
0023
0000
0032
0000
0103
0000
0110
,  // measure 29
0000
1000
0100
0010
0000
0010
0100
1000
,  // measure 30
0001
0100
0010
0000
0100
0000
0001
1000
,  // measure 31
0000
0100
0001
0000
0100
1000
0010
0100
,  // measure 32
0001
1000
0001
1000
0010
0100
0010
0100
,  // measure 33
0001
0000
0011
0000
1001
0000
1100
0000
0000
0000
1000
0000
0010
0000
0100
0001
,  // measure 34
0100
0001
1000
0000
0100
0010
0100
0010
,  // measure 35
0001
0100
0010
1000
0100
0010
0100
1000
,  // measure 36
0002
0000
0010
0000
2003
0000
3100
0020
,  // measure 37
0001
0000
0100
0000
1030
0010
0001
0100
,  // measure 38
0010
1000
0010
1000
0100
0010
0001
0000
,  // measure 39
0100
1000
0100
1000
0001
0100
0010
0000
,  // measure 40
0100
0001
0100
0001
1000
0100
0010
0001
,  // measure 41
0011
0000
0000
0000
1100
0000
0000
0000
1000
0000
0101
0000
0000
0000
0001
0100
,  // measure 42
0001
0000
0010
0100
0010
0100
1000
0001
,  // measure 43
1000
0001
0010
0100
1000
0001
0100
0010
,  // measure 44
2000
0100
3002
0010
,  // measure 45
1003
0200
0001
0000
0310
0001
0100
0001
,  // measure 46
0012
0000
1003
0000
1000
0010
0100
0010
,  // measure 47
2010
0000
3100
0000
0001
0010
0100
1000
,  // measure 48
1002
0000
0013
0000
0100
1000
0001
0100
,  // measure 49
0000
0100
0001
1000
0100
0000
0001
0100
,  // measure 50
2000
0000
0000
0000
0000
0000
0000
0000
0000
0000
0000
0000
0000
0000
3001
0100
,  // measure 51
0001
0000
1000
0100
1000
0000
0001
0100
0001
0000
1000
0000
0100
0000
0010
0000
,  // measure 52
0200
0000
1300
0020
0000
0130
0001
0010
,  // measure 53
0100
1000
0001
0100
0010
1000
0010
1000
,  // measure 54
0001
0010
0100
0010
0001
0100
1000
0100
,  // measure 55
0001
1000
0100
0010
0001
0100
0010
1000
,  // measure 56
0200
0000
0000
0310
0200
0000
0000
0000
,  // measure 57
1300
0000
0001
0000
1000
0000
0001
0000
0100
0000
0010
0000
0100
0000
0010
1000
,  // measure 58
0002
0000
0000
0000
,  // measure 59
0023
0000
0130
2000
0000
3002
0000
1003
,  // measure 60
0010
0100
0010
0200
0000
0000
0000
0000
,  // measure 61
0002
0000
0000
0303
,  // measure 62
2000
0000
0000
0000
,  // measure 63
3200
0000
0310
0002
0000
2003
0000
3001
,  // measure 64
0100
0010
0100
0020
0000
0000
0000
0000
,  // measure 65
2000
0000
0000
3030
,  // measure 66
0001
0010
0011
0000
0000
1000
1010
0000
,  // measure 67
0001
1000
1100
0100
0000
0010
0011
0000
,  // measure 68
0010
0000
0101
0000
0000
1000
1100
0000
,  // measure 69
0010
0000
0001
0000
0101
0000
0100
0000
0000
0000
0010
0000
1010
0000
1000
0001
,  // measure 70
0100
0010
0100
0010
0100
0010
0100
0010
,  // measure 71
1000
0000
0001
0000
1000
0000
0001
0000
1000
0000
0000
1100
0000
0000
0101
0000
,  // measure 72
0001
0000
0010
0100
1000
0000
0010
0100
,  // measure 73
0001
0010
1000
0010
0001
0100
1000
0100
,  // measure 74
0020
0000
1030
0000
0001
0100
0010
0000
,  // measure 75
0100
0001
1000
0100
0010
0001
0100
0000
,  // measure 76
0101
0000
1100
0000
0010
1000
0100
0000
,  // measure 77
0011
0000
1001
0000
1000
0010
0100
0010
,  // measure 78
1000
0100
1000
0100
0010
0001
0010
0100
,  // measure 79
1000
0000
0001
0000
0100
0010
0100
0001
,  // measure 80
0100
0001
0010
0001
0100
0010
1000
0001
,  // measure 81
0000
0010
0100
0000
1000
0001
0100
0001
,  // measure 82
0010
0100
0010
0100
1000
0001
1000
0001
,  // measure 83
0000
0000
0100
0000
0000
0000
0001
0000
1001
0000
0000
1010
0000
0000
0110
0000
,  // measure 84
0102
0000
0000
0013
0200
0000
0000
0000
,  // measure 85
1000
0000
0000
0000
0001
0000
0000
0000
1300
0000
0100
0000
1000
0000
0100
0010
,  // measure 86
0001
0000
0000
0010
0000
0000
0001
0000
0000
0100
0000
0000
0010
0000
0000
1000
,  // measure 87
0000
0000
0100
0000
0000
1000
0000
0000
0001
0000
0000
0010
0000
0000
0001
0000
,  // measure 88
0100
0000
0000
0010
0000
0000
0100
0000
0002
0000
0000
0000
1003
0000
0100
0000
,  // measure 89
0000
0000
0011
0000
0101
0000
0110
0000
1010
0000
0000
1100
0000
0000
0110
0000
,  // measure 90
1001
0000
0000
0000
;

//---------------dance-single - ----------------
#NOTES:
     dance-single:
     :
     Medium:
     9:
     0.400,0.414,0.007,0.064,0.014: // measure 1
0000
0000
0000
0000
,  // measure 2
0000
0000
0000
0000
,  // measure 3
0000
0000
0000
0000
,  // measure 4
0000
0000
0000
0000
,  // measure 5
0000
0000
0000
0000
,  // measure 6
1000
0000
0001
0010
0100
0000
0010
0000
,  // measure 7
0001
0100
0010
0000
1000
0000
0100
0010
,  // measure 8
0100
1000
0100
0000
0010
0001
0010
0000
,  // measure 9
0001
0000
1000
0000
1000
0000
0100
0000
0100
0000
0000
0010
0000
0000
0100
0000
,  // measure 10
0010
0001
0100
0100
,  // measure 11
0010
1000
0001
0001
,  // measure 12
0010
0100
0010
0000
0001
0000
1000
0000
,  // measure 13
0010
0010
0100
0100
,  // measure 14
0001
1000
0100
0100
,  // measure 15
1000
0001
0100
0100
,  // measure 16
0010
1000
0010
0000
0100
0000
0001
0000
,  // measure 17
1000
0000
1000
0000
0100
0010
0000
0000
,  // measure 18
1001
0100
0001
1000
,  // measure 19
0100
0010
0010
0100
,  // measure 20
1000
0001
1000
0000
0001
0000
0100
0000
,  // measure 21
0010
0010
0100
0001
,  // measure 22
1000
0100
0010
0010
,  // measure 23
0100
1000
0001
0001
,  // measure 24
0100
0010
0100
0000
0001
0000
1000
0000
,  // measure 25
0100
0010
0100
1000
,  // measure 26
0001
0100
0010
0000
0100
0000
0001
0000
,  // measure 27
1000
0100
0010
0001
,  // measure 28
1000
0100
0010
0000
0100
0000
1000
0000
,  // measure 29
0010
0000
0100
0000
0001
0000
1000
0010
,  // measure 30
0100
0010
1000
0000
0001
0000
0010
0000
,  // measure 31
0001
0000
0100
0000
0010
0000
1000
0001
,  // measure 32
0010
0100
0010
0000
0001
1000
0001
0000
,  // measure 33
1000
0100
0010
0001
0000
0010
0100
1000
,  // measure 34
0000
0001
0100
0001
,  // measure 35
1000
1000
0100
0010
,  // measure 36
0100
0000
1000
0001
0100
0000
0010
0100
,  // measure 37
0000
0001
0010
0001
,  // measure 38
0100
0010
1000
0100
,  // measure 39
0010
0100
1000
0001
,  // measure 40
0100
0010
1000
0100
,  // measure 41
0010
0001
0010
0000
0100
0000
1000
0001
,  // measure 42
1000
0010
0100
0001
,  // measure 43
1000
0000
0100
0000
0010
0000
0001
0100
,  // measure 44
0010
1000
0001
0010
,  // measure 45
0100
1000
0100
0000
0010
0000
0100
0000
,  // measure 46
0002
0010
1000
0103
,  // measure 47
2000
0100
0001
3010
,  // measure 48
1000
0100
0010
0000
0001
0100
1000
0000
,  // measure 49
0010
1000
0100
0010
0001
0000
0100
0001
,  // measure 50
2000
0000
0000
0000
0000
0000
0000
3001
,  // measure 51
0100
0000
0010
0100
0001
0000
0010
0100
,  // measure 52
1000
0000
0010
0100
0000
0000
0001
1000
,  // measure 53
0100
0010
0100
1000
,  // measure 54
0001
0000
0100
0001
0100
0000
0010
0000
,  // measure 55
1000
0001
0010
0100
,  // measure 56
2000
0000
3000
0001
2000
0000
3000
0000
,  // measure 57
0020
0000
0000
0030
,  // measure 58
0100
0001
0000
1000
,  // measure 59
0000
0001
0000
0010
,  // measure 60
0100
1000
0000
0001
,  // measure 61
0000
0100
0000
0001
,  // measure 62
0010
0100
0000
1000
,  // measure 63
0000
0010
0000
0100
,  // measure 64
0001
1000
0000
0100
,  // measure 65
0000
0010
0000
0100
,  // measure 66
1000
0000
0001
0000
0100
0001
1000
0000
,  // measure 67
0100
0000
1000
0000
0001
1000
0100
0000
,  // measure 68
0010
0000
0001
0000
0100
1000
0100
0000
,  // measure 69
0010
0000
1000
0000
0100
0001
0100
0000
,  // measure 70
1000
0010
0100
0000
0001
0010
0100
0000
,  // measure 71
1000
0000
0000
0000
0001
0000
0000
0000
0100
0000
0000
0010
0000
0000
0100
0000
,  // measure 72
0001
0000
1000
0200
0000
0000
0000
0000
,  // measure 73
0001
1300
0002
0203
,  // measure 74
0310
0000
1000
0000
0001
0010
0100
0000
,  // measure 75
1000
0100
0010
0001
,  // measure 76
0100
0000
0010
1000
0100
0000
0010
0001
,  // measure 77
0100
0000
0001
0000
0010
0100
1000
0100
,  // measure 78
0010
0000
0001
0000
0100
0010
1000
0010
,  // measure 79
0100
0000
0001
0000
0010
0100
1000
0100
,  // measure 80
0010
0000
0001
0000
1000
0010
0100
0000
,  // measure 81
0001
1000
0100
0010
,  // measure 82
0100
0000
1000
0000
0001
0100
0001
0000
,  // measure 83
1000
0000
0000
0000
0100
0000
0000
0000
0010
0000
0000
0001
0000
0000
0100
0000
,  // measure 84
0010
0000
1000
0100
0010
0000
0001
0000
,  // measure 85
0100
0000
0010
0000
0100
0001
0010
0000
,  // measure 86
0001
0000
1000
0100
0010
0000
0100
0000
,  // measure 87
1000
0001
0010
0000
0001
0000
0100
0010
,  // measure 88
1000
0000
0001
0000
1000
0100
1000
0001
,  // measure 89
0000
0000
0100
0000
0001
0000
1000
0000
0010
0000
0000
0100
0000
0000
0001
0000
,  // measure 90
0010
0000
0000
0000
;

//---------------dance-single - ----------------
#NOTES:
     dance-single:
     :
     Easy:
     5:
     0.227,0.255,0.000,0.007,0.000: // measure 1
0000
0000
0000
0000
,  // measure 2
0000
0000
0000
0000
,  // measure 3
0000
0000
0000
0000
,  // measure 4
0000
0000
0000
0000
,  // measure 5
0000
0000
0000
0000
,  // measure 6
0100
0000
0000
0001
0000
0000
0100
0000
,  // measure 7
0000
0010
0000
0000
0100
0000
0000
0000
,  // measure 8
0001
0000
0010
0000
,  // measure 9
0100
1000
0010
0100
,  // measure 10
0001
0000
1000
0000
,  // measure 11
0001
0010
0100
1000
,  // measure 12
0001
0000
1000
0000
,  // measure 13
0001
0010
0100
1000
,  // measure 14
0001
0000
0100
0000
,  // measure 15
0010
0100
0010
0000
,  // measure 16
0100
0000
0001
0000
,  // measure 17
1000
0100
0010
0001
,  // measure 18
0100
0000
0010
0000
,  // measure 19
0100
0001
1000
0000
,  // measure 20
0100
0000
0010
0000
,  // measure 21
0100
0000
1000
0000
,  // measure 22
0010
0000
0100
0000
,  // measure 23
0001
0010
0100
1000
,  // measure 24
0010
0000
0001
0000
,  // measure 25
0100
0000
1000
0000
,  // measure 26
0001
0001
0010
0000
,  // measure 27
0100
0100
1000
0000
,  // measure 28
1000
0010
0100
0010
,  // measure 29
1000
0000
0001
0000
,  // measure 30
0010
0010
0100
0000
,  // measure 31
1000
1000
0001
0000
,  // measure 32
0100
0000
0010
0000
,  // measure 33
0100
0001
1000
0000
,  // measure 34
0100
0010
0100
0000
,  // measure 35
1000
0001
1000
0000
,  // measure 36
0001
0100
1000
0100
,  // measure 37
0001
0000
1000
0000
,  // measure 38
0001
0000
0010
0100
,  // measure 39
1000
0000
0010
0000
,  // measure 40
0100
0000
0001
0000
,  // measure 41
0010
0100
1000
0001
,  // measure 42
0100
0000
0001
0000
,  // measure 43
1000
0100
1000
0000
,  // measure 44
0001
0010
1000
0010
,  // measure 45
0001
0000
0100
0000
,  // measure 46
0010
1000
0100
0000
,  // measure 47
0010
0000
0100
0000
,  // measure 48
1000
0000
0001
0000
,  // measure 49
0100
0001
1000
0100
,  // measure 50
0010
0000
0100
0000
,  // measure 51
1000
0100
1000
0000
,  // measure 52
0001
0000
0100
0000
,  // measure 53
0010
0000
0100
0000
,  // measure 54
0001
0010
0001
0000
,  // measure 55
1000
0000
0010
0000
,  // measure 56
1000
0100
1000
0000
,  // measure 57
0002
0000
0000
0003
,  // measure 58
1000
0000
0000
0000
,  // measure 59
0100
0000
0010
0000
,  // measure 60
0001
0100
0010
0000
,  // measure 61
0000
0000
0000
0000
,  // measure 62
0100
0000
0000
0000
,  // measure 63
0001
0000
1000
0000
,  // measure 64
0100
0010
0001
0000
,  // measure 65
0000
0000
0000
0000
,  // measure 66
0100
0000
0001
0000
,  // measure 67
1000
0100
0010
0000
,  // measure 68
0100
0000
1000
0000
,  // measure 69
0010
0100
0001
0010
,  // measure 70
0100
0000
1000
0000
,  // measure 71
0001
1000
0001
1000
,  // measure 72
0010
0000
0100
0000
,  // measure 73
0001
0010
0100
0000
,  // measure 74
1000
0001
0100
0000
,  // measure 75
0001
1000
0100
0000
,  // measure 76
0010
0000
0010
0000
,  // measure 77
0100
1000
0010
0100
,  // measure 78
0001
0000
0001
0010
,  // measure 79
0100
0000
0100
1000
,  // measure 80
0010
0000
0010
0100
,  // measure 81
0001
0000
0001
1000
,  // measure 82
0100
0000
0100
0010
,  // measure 83
0001
0000
1000
0000
,  // measure 84
0010
0000
0100
0000
,  // measure 85
0001
0000
1000
1000
,  // measure 86
0100
0000
0000
0010
0000
0000
0100
0000
,  // measure 87
0000
1000
0000
0000
0001
0000
0000
0000
,  // measure 88
0100
0100
0010
0010
,  // measure 89
0000
1000
0000
0001
1000
0000
0001
0000
,  // measure 90
0010
0000
0000
0000
;
