#TITLE:ACCESS;
#SUBTITLE:;
#ARTIST:Sphazer;
#TITLETRANSLIT:;
#SUBTITLETRANSLIT:;
#ARTISTTRANSLIT:;
#GENRE:;
#CREDIT:;
#MENUCOLOR:;
#METERTYPE:DDR;
#BANNER:ACCESS.png;
#BACKGROUND:ACCESS-bg.png;
#LYRICSPATH:;
#CDTITLE:cdtitle.png;
#MUSIC:ACCESS.mp3;
#OFFSET:-0.025;
#SAMPLESTART:71.109;
#SAMPLELENGTH:15.000;
#SELECTABLE:YES;
#LISTSORT:;
#BPMS:0.000=135.000;
#STOPS:;
#BGCHANGES:0.000=ACCESS.avi=1.000=1=0=0,
99999=-nosongbg-=1.000=0=0=0 // don't automatically add -songbackground-
;
#ATTACKS:;

//---------------dance-single - ----------------
#NOTES:
     dance-single:
     :
     Hard:
     11:
     0.446,0.501,0.070,0.237,0.176:
0000
0000
0000
0000
,
0000
0000
0000
0000
,
0000
0000
0000
0000
,
0000
0000
0000
0000
,
1000
0001
0100
0000
1000
0001
0101
0000
,
0001
1000
0100
0000
0001
1000
1100
0000
,
1000
0010
0100
0000
1000
0010
0110
0000
,
2002
0000
0000
3003
,
0001
0000
0000
0001
0010
0000
0001
0000
1000
0000
0000
1000
0010
0000
1000
0000
,
0100
1000
0010
0001
,
0100
0000
0000
0100
0010
0000
0001
0000
0100
0000
0000
0100
0010
0000
1000
0000
,
0100
0001
0010
1000
,
0100
0000
0000
1000
0001
0000
0100
0000
0010
0000
0000
1000
0001
0000
0010
0000
,
0100
0001
0010
1000
,
0001
0000
0000
0010
0100
0000
1000
0000
0010
0000
0000
0100
0001
0000
1000
0000
,
2002
0000
0000
3003
,
0100
0000
0000
1000
0010
0000
0100
0000
0001
0000
0000
0010
0100
0000
1000
0000
,
0010
1000
0100
0001
,
0010
0000
0000
0010
0100
0000
1000
0000
0010
0000
0000
0010
0100
0000
0001
0000
,
0010
0000
1000
0000
0100
0000
0001
0010
,
0010
0000
0000
0010
0001
0000
1000
0000
0010
0000
0000
0010
1000
0000
0001
0000
,
0010
0001
0100
1000
,
0010
0000
0000
0010
0100
0000
1000
0000
0100
0000
0000
0100
0010
0000
0001
0000
,
2002
0000
0000
0000
0000
0000
3003
0001
,
0200
0000
0000
0010
0000
1000
0000
0301
,
0020
0100
0000
0100
0000
0001
0000
0031
,
2000
0000
0000
0100
0000
0001
0000
3010
,
0200
1000
0000
1000
0000
0001
0000
0301
,
0020
0000
0000
1000
0000
0100
0000
0031
,
0200
0010
0000
0010
0000
1000
0000
1300
,
0200
0000
0000
0010
0000
1000
0000
0301
,
0020
0100
0000
0100
0000
1000
0000
1030
,
0010
0000
0001
0100
0000
0001
0010
0100
,
1000
0000
0010
0100
0000
0001
1000
0100
,
0010
0000
0001
0100
0000
0001
0010
0100
,
1000
0000
0001
0100
0000
0001
0010
0100
,
1000
0000
0010
0100
0000
1000
0100
0001
,
1000
0000
0100
0001
0000
0100
1000
0010
,
0100
0000
0001
0010
0000
0001
0100
0010
,
1000
0000
0100
0001
0000
0100
1000
0010
,
0100
0000
0000
0100
0001
0000
0000
0001
0100
0000
0010
0000
1000
0000
0100
0000
,
0010
0000
0000
0010
0100
0000
0000
0100
0010
0000
0001
0000
1000
0000
0010
0000
,
0100
0000
0000
0100
0001
0000
0000
0001
0100
0000
0010
0000
1000
0000
0001
0000
,
0010
0000
0000
0010
0100
0000
0000
0100
0010
0000
0001
0000
1000
0000
0010
0000
,
0100
0000
0000
0100
0001
0000
0000
0001
1000
0000
0100
0000
0010
0000
0001
0000
,
0100
0000
0000
0100
0010
0000
0000
0010
1000
0000
0100
0000
0010
0000
0100
0000
,
1000
0000
0000
1000
0001
0000
0000
0001
0100
0000
0010
0000
0100
0000
0001
0000
,
0010
0000
0000
0010
0100
0000
0000
0100
1000
0000
0010
0000
0001
0000
0010
0000
,
0120
0000
0000
0000
1030
0000
0100
0000
0001
0000
0000
0001
0100
0000
0100
0000
,
2000
0000
0000
0000
3010
0000
0100
0000
0001
0000
0000
0001
1000
0000
1000
0000
,
0200
0000
0000
0000
0310
0000
0100
0000
1000
0000
0000
1000
0010
0000
0010
0000
,
0200
0000
0000
0000
0301
0000
0010
0000
1000
0000
0000
1000
0010
0000
0010
0000
,
0200
0000
0000
0000
1300
0000
0010
0000
0100
0000
0000
0100
0001
0000
0001
0000
,
2000
0000
0000
0000
3010
0000
0100
0000
1000
0000
0000
1000
0100
0000
0100
0000
,
0002
0000
0000
0000
0013
0000
0100
0000
1000
0000
0000
1000
0010
0000
0010
0000
,
0200
0000
0000
0000
0301
0000
0010
0000
0100
0000
1000
0001
1000
0000
0010
0000
,
2020
0000
0000
0030
,
0002
0000
0000
3000
,
0020
0000
0000
0003
,
0200
0000
0000
0000
,
0330
0000
0000
0000
;

//---------------dance-single - ----------------
#NOTES:
     dance-single:
     :
     Medium:
     7:
     0.340,0.395,0.343,0.220,0.000: // measure 1
0000
0000
0000
0000
,  // measure 2
0000
0000
0000
0000
,  // measure 3
0000
0000
0000
0000
,  // measure 4
0000
0000
0000
0000
,  // measure 5
0010
0101
0010
1100
,  // measure 6
0010
0101
0010
1100
,  // measure 7
0010
0101
0010
1100
,  // measure 8
2002
0000
0000
3003
,  // measure 9
0001
1000
1100
0000
1000
0001
0101
0000
,  // measure 10
0001
0010
0100
0000
1000
0010
0100
0000
,  // measure 11
1000
0100
0110
0000
0001
0100
0110
0000
,  // measure 12
1000
0010
0100
0000
0001
0010
0100
0000
,  // measure 13
1000
0100
1100
0000
0001
0100
0101
0000
,  // measure 14
1000
0010
0001
0000
0001
0010
1000
0000
,  // measure 15
0001
0010
0011
0000
1000
0010
1010
0000
,  // measure 16
2002
0000
0000
3003
,  // measure 17
0001
0000
0001
0010
0100
0000
0100
1000
,  // measure 18
0010
0110
1000
1001
,  // measure 19
0001
0000
1000
0100
0010
0000
0010
0001
,  // measure 20
0100
0110
0001
1001
,  // measure 21
1000
0000
0010
0100
0001
0000
0010
0100
,  // measure 22
1000
0110
0001
0110
,  // measure 23
1000
0000
0010
0100
0001
0000
1000
0100
,  // measure 24
0020
0000
0000
0000
0000
0000
0030
0001
,  // measure 25
0010
0000
0000
0001
0000
1000
0000
0010
,  // measure 26
0200
0000
0000
0000
0000
0000
0300
0001
,  // measure 27
0010
0000
0000
0100
0000
1000
0000
0001
,  // measure 28
0000
0200
0000
0000
0000
0000
0300
0001
,  // measure 29
1000
0000
0000
0100
0000
0010
0000
0001
,  // measure 30
0020
0000
0000
0000
0000
0000
0030
0100
,  // measure 31
1000
0000
0000
0010
0000
0100
0000
0001
,  // measure 32
0000
2000
0000
0000
0000
0000
3000
0001
,  // measure 33
0010
0011
0000
1100
,  // measure 34
0001
0000
0101
0000
0000
0000
1010
1000
,  // measure 35
0100
0011
0000
1010
,  // measure 36
0100
0000
0101
0000
0000
0000
1100
0100
,  // measure 37
0010
1001
0000
0110
,  // measure 38
1000
0000
1010
0000
0000
0000
0101
0001
,  // measure 39
1000
0110
0000
1001
,  // measure 40
0020
0000
0000
0030
,  // measure 41
1000
0000
1000
0100
0000
0100
0010
0001
,  // measure 42
0000
0001
0010
0100
0000
1000
0000
0020
,  // measure 43
0000
0000
0000
0030
0000
0100
0000
2002
,  // measure 44
0000
0000
0000
0000
3003
0000
0001
0010
,  // measure 45
0100
0000
0100
1000
0000
1000
0010
0100
,  // measure 46
0000
0100
0001
1000
0000
0100
0000
0020
,  // measure 47
0000
0000
0000
0030
0000
0001
0000
2002
,  // measure 48
0000
0000
0000
3003
,  // measure 49
0001
0000
0001
0100
0000
0100
0010
1000
,  // measure 50
0000
1000
0010
0100
0000
0001
0000
0020
,  // measure 51
0000
0000
0000
0030
0000
0100
0000
2002
,  // measure 52
0000
0000
0000
0000
3003
0000
1000
0010
,  // measure 53
0100
0000
0100
0001
0000
0001
0010
0100
,  // measure 54
0000
0100
1000
0001
0000
0100
0000
0020
,  // measure 55
0000
0000
0000
0130
0000
0001
0000
2000
,  // measure 56
0000
3000
0000
0100
0000
0010
0000
0001
,  // measure 57
2000
0000
0000
0000
,  // measure 58
3200
0000
0000
0000
,  // measure 59
0302
0000
0000
0000
,  // measure 60
0023
0000
0000
0000
,  // measure 61
0030
0000
0000
0000
;

//---------------dance-single - ----------------
#NOTES:
     dance-single:
     :
     Easy:
     4:
     0.203,0.237,0.000,0.070,0.000: // measure 1
0000
0000
0000
0000
,  // measure 2
0000
0000
0000
0000
,  // measure 3
0000
0000
0000
0000
,  // measure 4
0000
0000
0000
0000
,  // measure 5
1000
0100
0001
0100
,  // measure 6
1000
0100
0001
0100
,  // measure 7
1000
0010
0001
0010
,  // measure 8
2000
0000
0000
3000
,  // measure 9
0001
0001
0010
0100
,  // measure 10
1000
0000
0000
0000
,  // measure 11
1000
1000
0010
0100
,  // measure 12
0001
0000
0000
0000
,  // measure 13
0001
0001
0100
0010
,  // measure 14
1000
0000
0000
0000
,  // measure 15
1000
1000
0100
0010
,  // measure 16
0002
0000
0000
0003
,  // measure 17
1000
0100
0010
0100
,  // measure 18
1000
0001
0000
1000
,  // measure 19
0001
0100
0010
0100
,  // measure 20
0001
1000
0000
0001
,  // measure 21
1000
0010
0100
0010
,  // measure 22
1000
0001
0000
1000
,  // measure 23
0001
0010
0100
0010
,  // measure 24
0002
0000
0000
0003
,  // measure 25
0010
0000
0010
0000
,  // measure 26
0100
0000
0100
0000
,  // measure 27
1000
0000
1000
0000
,  // measure 28
0001
0000
0001
0000
,  // measure 29
0100
0000
0100
0000
,  // measure 30
0010
0000
0010
0000
,  // measure 31
1000
0000
1000
0000
,  // measure 32
0001
0010
0000
0010
,  // measure 33
0001
0100
0000
0100
,  // measure 34
0010
1000
0000
1000
,  // measure 35
0100
0010
0000
0010
,  // measure 36
0100
1000
0000
1000
,  // measure 37
0001
0100
0000
0100
,  // measure 38
1000
0100
0000
0100
,  // measure 39
0010
1000
0000
1000
,  // measure 40
0200
0000
0000
0300
,  // measure 41
0010
0001
0100
0000
,  // measure 42
0010
1000
0100
0000
,  // measure 43
0010
0001
0100
1000
,  // measure 44
0100
0010
1000
0000
,  // measure 45
0100
0010
0001
0000
,  // measure 46
0010
0100
1000
0000
,  // measure 47
0001
0100
1000
0100
,  // measure 48
0010
1000
0100
0000
,  // measure 49
0010
0001
0100
0000
,  // measure 50
1000
0100
0010
0000
,  // measure 51
1000
0100
0001
0100
,  // measure 52
0010
0001
0100
0000
,  // measure 53
0010
1000
0001
0000
,  // measure 54
0010
1000
0001
0000
,  // measure 55
0100
1000
0001
0010
,  // measure 56
0100
1000
0010
0000
,  // measure 57
0200
0000
0000
0300
,  // measure 58
0002
0000
0000
0003
,  // measure 59
0020
0000
0000
0030
,  // measure 60
2000
0000
0000
0000
,  // measure 61
3000
0000
0000
0000
;
