#TITLE:A.Q.Children Reincarnation;
#SUBTITLE:;
#ARTIST:t+pazolite;
#TITLETRANSLIT:;
#SUBTITLETRANSLIT:;
#ARTISTTRANSLIT:;
#GENRE:;
#CREDIT:;
#MENUCOLOR:;
#METERTYPE:DDR;
#BANNER:A.Q.Children Reincarnation.png;
#BACKGROUND:A.Q.Children Reincarnation-bg.png;
#LYRICSPATH:;
#CDTITLE:cdtitle.png;
#MUSIC:A.Q.Children Reincarnation.mp3;
#OFFSET:-0.025;
#SAMPLESTART:20.322;
#SAMPLELENGTH:15.000;
#SELECTABLE:YES;
#LISTSORT:;
#BPMS:0.000=260.000,252.000=220.000,252.500=175.000,253.000=155.000,253.500=140.000,254.000=130.000,254.500=120.000,255.000=105.000,255.500=95.000,256.000=120.000,256.500=130.000,257.000=140.000,257.500=155.000,258.000=175.000,258.500=222.500,259.000=130.000,291.500=260.000;
#DISPLAYBPM:130:260;
#STOPS:;
#BGCHANGES:;
#ATTACKS:;

//---------------dance-single - ----------------
#NOTES:
     dance-single:
     :
     Hard:
     17:
     0.893,1.000,0.430,0.223,0.191: // measure 1
0000
0000
0000
0000
,  // measure 2
0000
0000
0000
0000
,  // measure 3
0000
0000
0000
0000
,  // measure 4
0000
0000
0000
0000
,  // measure 5
0000
0000
0000
1000
,  // measure 6
1001
0001
0010
0100
,  // measure 7
1000
0010
0100
0001
,  // measure 8
0010
0100
1001
0100
,  // measure 9
0010
1000
0100
1000
,  // measure 10
0010
0100
0001
0110
,  // measure 11
1001
0010
0100
0001
,  // measure 12
0010
0100
1000
0001
,  // measure 13
0100
0010
0101
1000
,  // measure 14
0100
0010
0001
1000
,  // measure 15
0010
0100
0001
1001
,  // measure 16
0110
0001
1000
0100
,  // measure 17
0010
0100
1000
0001
,  // measure 18
0100
0010
1100
0010
,  // measure 19
0100
0001
0010
0100
,  // measure 20
1000
0001
0100
1010
,  // measure 21
0102
0003
0002
0003
0002
0003
0002
0003
,  // measure 22
0002
0003
0002
0003
0001
1000
0001
1000
,  // measure 23
0001
1000
0001
1000
1001
0000
1000
0100
,  // measure 24
0010
0001
0100
0010
0200
0000
0301
0010
,  // measure 25
0100
1000
0100
0010
0001
0100
0010
1000
,  // measure 26
1001
0000
0010
1000
0100
0010
0100
1000
,  // measure 27
0002
0000
0013
0100
1000
0100
0010
0001
,  // measure 28
0100
0010
1000
0100
0110
0000
0001
0010
,  // measure 29
0100
1000
0100
0010
0200
0000
1300
0010
,  // measure 30
0100
0001
0010
0100
1000
0100
0010
0001
,  // measure 31
0101
0000
0010
1000
0100
0010
0100
1000
,  // measure 32
0020
0000
0130
0001
0010
0100
1000
0010
,  // measure 33
0100
0001
1000
0100
1100
0000
0001
0100
,  // measure 34
0010
0100
1000
0100
0002
0000
0013
0100
,  // measure 35
1000
0100
0010
0100
0001
0100
1000
0001
,  // measure 36
0110
0000
1000
0010
0001
0010
0100
0010
,  // measure 37
2000
0000
3001
0010
1000
0010
0001
0100
,  // measure 38
0010
1000
0100
0010
1001
0000
0010
1000
,  // measure 39
0100
0001
0100
1000
0020
0000
0130
0001
,  // measure 40
0010
0100
0001
0100
1000
0010
0100
0001
,  // measure 41
1010
0000
0100
0001
0010
1000
0010
0001
,  // measure 42
0200
0000
0310
1000
0100
0001
0100
0010
,  // measure 43
1000
0010
0001
1000
0110
0001
1000
0001
,  // measure 44
1000
0010
0100
0001
0010
0100
1000
0000
,  // measure 45
0001
0100
0010
1000
0100
0100
0100
0100
,  // measure 46
0010
1000
0001
0010
0100
1000
0001
0000
,  // measure 47
0100
0100
0001
0000
1000
0001
0000
1000
,  // measure 48
0002
0000
0013
0000
0100
0000
1000
0100
,  // measure 49
0000
1000
0100
0000
0010
0100
1000
0000
,  // measure 50
0001
0100
0000
0001
0100
0000
0010
0100
,  // measure 51
1000
0000
0100
0001
0000
0100
0001
0000
,  // measure 52
1000
0100
0010
0000
0100
0001
0000
0100
,  // measure 53
0001
0000
0100
1000
0010
0000
0100
0001
,  // measure 54
1000
0100
0010
0000
0100
0010
0001
0000
,  // measure 55
0010
0100
1000
0001
0100
0000
2001
0000
,  // measure 56
3010
0000
0100
0001
0010
0100
1000
0000
,  // measure 57
0001
0000
0010
0000
0100
1000
0001
0100
,  // measure 58
0020
0000
0000
0000
0000
0000
1030
0000
0001
0000
1000
0000
0001
0000
0000
0000
0000
0000
0010
0000
0000
0100
0000
0000
,  // measure 59
1000
0001
0100
0000
0020
0000
0130
0000
,  // measure 60
0001
0100
1000
0100
0001
0000
1001
0000
,  // measure 61
0110
0000
0001
0010
1000
0010
0001
0000
,  // measure 62
0100
0000
0000
0020
0000
0000
1030
0001
1000
0001
0000
0000
,  // measure 63
0010
0100
0010
0000
0001
0000
1000
0000
1020
0000
0000
0000
0000
0000
0000
0000
,  // measure 64
0200
0000
0000
0000
0000
0000
0000
0330
,  // measure 65
0000
0000
0000
1001
,  // measure 66
0000
0000
0100
0000
0000
0000
0001
0000
0000
0000
1000
0000
0100
0000
0010
0100
,  // measure 67
1000
0000
0001
0100
0010
1000
0000
0001
,  // measure 68
0010
0000
0100
1000
0001
0000
0000
0000
0000
0000
0000
0000
0000
0000
1000
0000
,  // measure 69
0100
0000
1000
0000
0100
0000
0010
0001
1000
0000
0001
0000
1000
0000
0001
0000
,  // measure 70
0100
0010
1000
0000
0100
0000
1000
0000
0100
0000
0010
0001
1000
0000
0001
0000
,  // measure 71
0100
0000
0001
0000
0010
0000
0100
0000
1000
0000
0001
0000
0010
0000
0100
1000
,  // measure 72
0001
0000
0100
0000
0010
0000
1000
0000
0100
0010
1000
0000
0010
0000
0100
0000
,  // measure 73
0001
0000
0100
1000
0010
0000
0100
0000
0001
0000
2000
0000
3002
0000
0013
0000
,  // measure 74
0100
1000
0001
0100
0000
0110
0000
0010
,  // measure 75
1000
0001
0010
0100
1000
0001
0000
0101
,  // measure 76
0000
0100
0010
1000
0100
0001
0100
1000
,  // measure 77
0000
1010
0000
0010
0100
0001
0000
0010
,  // measure 78
0000
1000
0010
0001
0010
0100
1000
0001
,  // measure 79
0000
0100
0010
1000
0000
1100
0000
0100
,  // measure 80
0010
0001
0000
0100
0010
1000
0100
0001
,  // measure 81
0000
0100
1000
0001
0000
0001
0100
1000
,  // measure 82
0100
0010
0000
0001
0010
0100
0000
0001
,  // measure 83
0000
0010
0100
1000
0100
0010
0000
1001
,  // measure 84
0000
0001
0100
0010
0000
1000
0000
0100
,  // measure 85
0010
0011
0000
0001
1000
0100
0000
0010
,  // measure 86
0000
0100
1000
1001
0000
0001
0100
0010
,  // measure 87
0000
1000
0000
0001
0100
0120
0000
0001
,  // measure 88
0000
1000
0000
0230
0000
0000
0300
0101
,  // measure 89
0000
0001
1000
0100
0000
0110
0000
0010
,  // measure 90
0001
1001
0000
1000
0010
0100
0000
0101
,  // measure 91
0000
0001
1000
1100
0000
0100
0010
0001
,  // measure 92
0000
1001
0000
1000
0010
0110
1000
0001
,  // measure 93
1000
0001
0010
0100
0010
0100
1000
0001
,  // measure 94
0010
0001
0010
0100
0000
1000
0000
0001
,  // measure 95
0100
1000
0100
0010
1000
0100
0000
0001
,  // measure 96
0000
0100
1000
0010
0100
1000
0100
0001
,  // measure 97
0000
0010
0000
0100
1000
0020
0000
0001
,  // measure 98
0000
0230
0000
1000
0000
0301
0000
0010
,  // measure 99
0000
0100
1000
0001
0100
0010
0000
0100
,  // measure 100
0001
0010
0000
0100
1000
0100
0001
0100
,  // measure 101
0000
0010
1000
0010
0000
0001
0100
1000
,  // measure 102
0100
0001
0000
0010
0100
1000
0000
0002
,  // measure 103
0000
0100
0000
0013
0000
0001
0000
1100
,  // measure 104
0000
0100
0010
0001
0000
0101
0000
0100
,  // measure 105
0010
1000
0000
1100
0000
0100
0010
0001
,  // measure 106
0000
0101
0000
0100
0010
1000
0000
1100
,  // measure 107
0000
0100
0010
0001
0000
0101
0000
0100
,  // measure 108
0010
1000
0000
0011
0000
0010
0100
1000
,  // measure 109
0000
1010
0000
0010
0100
0001
0000
1001
,  // measure 110
0001
0010
0100
0010
0000
1001
1000
0100
,  // measure 111
0010
0100
0000
1001
0001
0100
1000
0100
,  // measure 112
0000
1001
1000
0100
0001
0100
0000
1001
,  // measure 113
0001
0010
1000
0010
0000
1001
1000
0010
,  // measure 114
0001
0000
0000
0010
0000
0000
0000
0000
0000
0110
0000
0000
0010
0000
0000
0100
0000
0000
0001
0000
0000
0010
0000
0100
,  // measure 115
0000
0010
0000
0100
0000
0010
0000
0100
0000
0010
0000
0100
0000
0010
0000
0100
0000
0010
0000
0100
0000
0010
0000
0100
,  // measure 116
0000
0010
0000
0100
0000
0010
0000
0100
0000
0010
0000
0100
0000
0010
0000
0100
0000
0010
0000
0100
0000
0010
0000
0100
,  // measure 117
0000
0010
0000
0100
0000
0010
0000
0100
0000
0010
0000
0100
0000
0010
0000
0100
0000
0010
0000
0100
0000
0010
0000
0100
,  // measure 118
0000
0010
0000
0100
0000
0010
0000
0100
0000
0010
0000
0100
0000
0010
0000
0100
0000
0010
0000
0100
0000
0010
0000
0100
,  // measure 119
0000
0010
0000
0100
0000
0010
0000
0000
0000
0000
0000
0000
0000
0000
0000
0000
0000
0000
0000
0000
0000
0000
0000
0000
;

//---------------dance-single - ----------------
#NOTES:
     dance-single:
     :
     Medium:
     13:
     0.664,0.893,0.008,0.119,0.092: // measure 1
0000
0000
0000
0000
,  // measure 2
0000
0000
0000
0000
,  // measure 3
0000
0000
0000
0000
,  // measure 4
0000
0000
0000
0000
,  // measure 5
0000
0000
0000
1000
,  // measure 6
0100
0010
0100
1000
,  // measure 7
0001
0010
0100
0010
,  // measure 8
0001
1000
0100
0010
,  // measure 9
0100
1000
0001
0010
,  // measure 10
0100
0010
0001
1000
,  // measure 11
0100
1000
0010
0100
,  // measure 12
0010
1000
0001
0010
,  // measure 13
0100
0010
0001
0100
,  // measure 14
1000
0100
0001
1000
,  // measure 15
0100
0001
0100
1000
,  // measure 16
0001
0010
1000
0010
,  // measure 17
0001
1000
0010
0001
,  // measure 18
0010
1000
0001
0010
,  // measure 19
1000
0010
0001
1000
,  // measure 20
0100
0001
0100
1000
,  // measure 21
0002
0010
0010
0010
,  // measure 22
0013
2000
0010
0010
,  // measure 23
0010
0000
3010
0000
0100
0000
0001
0010
,  // measure 24
0000
0001
0100
0010
1000
0000
0100
0000
,  // measure 25
0010
0100
0000
0010
0100
1000
0001
0000
,  // measure 26
0100
0000
0001
0010
0000
0001
0100
0010
,  // measure 27
1000
0000
0100
0000
1000
0010
0000
0100
,  // measure 28
0001
0010
0100
0000
1000
0000
0100
0010
,  // measure 29
0000
0001
0100
0001
0010
0000
0100
0000
,  // measure 30
1000
0010
0000
0100
0010
1000
0100
0000
,  // measure 31
0010
0000
0100
1000
0000
0001
0100
0010
,  // measure 32
1000
0000
0001
0000
0010
0100
0000
0010
,  // measure 33
0001
1000
0100
0000
0010
0000
0001
0010
,  // measure 34
0100
1000
0001
0000
0100
0000
0010
0000
,  // measure 35
1000
0100
1000
0010
0100
0000
0010
0000
,  // measure 36
1000
0000
0100
1000
0001
0100
0010
0000
,  // measure 37
0100
0000
0001
0000
1000
0100
1000
0010
,  // measure 38
0100
0001
0010
0000
0001
0000
0100
0001
,  // measure 39
1000
0100
0010
0000
0100
0000
1000
0000
,  // measure 40
0001
0100
0010
1000
0100
0000
0010
0000
,  // measure 41
0001
0000
1000
0010
0100
0001
0010
0000
,  // measure 42
0001
0000
1000
0000
0100
0010
0001
0100
,  // measure 43
0010
1000
0100
0000
0010
0000
0100
1000
,  // measure 44
0100
1000
0100
0000
0010
0000
0001
0000
,  // measure 45
0100
0001
0100
0000
0010
1000
0010
1000
,  // measure 46
0010
0100
0001
1000
,  // measure 47
0100
0000
0010
0000
0001
1000
0000
0001
,  // measure 48
1000
0000
0010
0000
0100
0000
0001
0100
,  // measure 49
0000
0001
0100
0000
0010
0000
1000
0000
,  // measure 50
0100
1000
0000
0100
1000
0000
0010
0000
,  // measure 51
0100
0000
0001
0010
0000
0001
0010
0000
,  // measure 52
0001
0000
0100
0000
0010
1000
0000
0010
,  // measure 53
1000
0000
0100
0000
1000
0000
0010
1000
,  // measure 54
0000
0010
1000
0000
0001
0000
0010
0000
,  // measure 55
0100
0010
0000
0100
0010
0000
0002
0000
,  // measure 56
1003
0000
0010
0100
0000
0010
0100
0000
,  // measure 57
0001
0000
0010
0000
0100
1000
0000
0100
,  // measure 58
2000
0000
3001
0100
0001
0000
1000
0100
,  // measure 59
0000
1000
0100
0000
0010
0000
0100
0000
,  // measure 60
1000
0001
0000
1000
0001
0000
1001
0000
,  // measure 61
0100
0000
0010
1000
0000
0010
1000
0000
,  // measure 62
0002
0000
0023
0000
0130
1000
0001
0000
,  // measure 63
0010
0001
1000
0000
0010
0000
0100
0000
,  // measure 64
0002
0000
0000
0000
,  // measure 65
0000
0000
0000
1003
,  // measure 66
0000
0000
0100
0000
0000
0000
0010
0000
0000
0000
0001
0000
1000
0000
0010
0100
,  // measure 67
0010
0000
1000
0100
0010
0001
0000
0001
,  // measure 68
1000
0000
0010
0100
0010
0000
0000
0000
0000
0000
0000
0000
0000
0000
1000
0000
,  // measure 69
0001
0000
0010
0000
0100
0000
1000
0010
1000
0000
0100
0000
0010
0000
0001
0000
,  // measure 70
0100
0000
0010
0000
0100
0000
0001
0000
1000
0000
0100
0010
0100
0000
1000
0000
,  // measure 71
0010
0000
0100
0000
0001
0000
0010
0000
0001
0000
0100
0000
0010
0000
1000
0100
,  // measure 72
1000
0010
0100
0001
0010
0010
0001
0100
,  // measure 73
0010
0000
1000
0100
0010
0000
0000
0000
0000
0000
0001
0000
1000
0000
0010
0000
,  // measure 74
0000
0100
0001
0100
0000
0010
0000
1000
,  // measure 75
0001
1000
0000
0010
0000
0100
0000
0001
,  // measure 76
0000
1000
0000
0010
0000
1000
0100
1000
,  // measure 77
0000
0010
0000
0100
0001
1000
0000
0100
,  // measure 78
0000
0010
0000
0002
0003
0002
0003
1000
,  // measure 79
0000
0100
0010
0100
0000
1000
0000
0001
,  // measure 80
0100
0001
0000
1000
0000
0010
0000
0100
,  // measure 81
0000
0001
0010
0001
0000
0100
0000
0010
,  // measure 82
0000
1000
0000
0100
0010
0100
0000
1000
,  // measure 83
0000
0001
0000
0100
0000
0010
0000
1000
,  // measure 84
0000
0000
0001
0100
0000
0001
0000
0010
,  // measure 85
0000
0100
0000
0000
1000
0100
0000
1000
,  // measure 86
0000
0010
0000
0100
0000
0000
0001
0010
,  // measure 87
0000
0001
0000
0100
0000
0010
0000
0000
,  // measure 88
0000
0000
0000
2000
0000
0000
0000
3001
,  // measure 89
0000
1000
0100
1000
0000
0010
0000
1000
,  // measure 90
0100
1000
0000
0001
0100
0001
0000
0010
,  // measure 91
0000
0001
1000
0001
0000
0100
0010
0100
,  // measure 92
0000
0001
0000
1000
0100
2000
0000
0000
,  // measure 93
0000
0000
0000
0000
0000
3000
0000
0001
,  // measure 94
0010
0100
1000
0001
0000
1000
0000
0001
,  // measure 95
0010
0100
1000
0100
0010
0001
0000
1000
,  // measure 96
0000
0001
0100
0010
1000
0010
0100
0001
,  // measure 97
0000
1000
0000
0001
0010
0200
0000
0000
,  // measure 98
0000
0300
0000
2000
3000
2000
3000
0010
,  // measure 99
0000
0100
0001
0100
0000
0010
0000
1000
,  // measure 100
0100
1000
0000
0001
0100
0001
0000
0010
,  // measure 101
0000
0100
1000
0100
0000
0010
0001
0010
,  // measure 102
0000
0100
0000
1000
0010
2000
0000
0000
,  // measure 103
0000
0000
0000
0000
0000
3000
0000
0001
,  // measure 104
0000
0010
0100
1000
0000
0001
0000
0010
,  // measure 105
0100
1000
0000
0001
0000
0010
0100
1000
,  // measure 106
0000
0001
0000
0010
0100
1000
0000
1000
,  // measure 107
0000
0010
0100
0001
0000
1000
0000
0010
,  // measure 108
0100
0001
0000
1000
0000
0010
0100
0001
,  // measure 109
0000
1000
0000
0010
0100
0001
0000
1000
,  // measure 110
0000
1000
0100
0010
0000
0001
0000
0001
,  // measure 111
0100
0010
0000
1000
0000
1000
0010
0100
,  // measure 112
0000
0001
0000
0001
0010
0100
0000
0010
,  // measure 113
0000
0010
0001
0100
0000
0010
0000
0010
,  // measure 114
1000
0100
0000
1000
0000
1000
0001
0100
,  // measure 115
0000
0010
0000
0000
0000
0100
0000
0000
0000
0010
0000
0000
0000
0100
0000
0000
0000
0010
0000
0000
0000
0100
0000
0000
,  // measure 116
0000
0010
0000
0000
0000
0100
0000
0000
0000
0010
0000
0000
0000
0100
0000
0000
0000
0010
0000
0000
0000
0100
0000
0000
,  // measure 117
0000
0010
0000
0000
0000
0100
0000
0000
0000
0010
0000
0000
0000
0100
0000
0000
0000
0010
0000
0000
0000
0100
0000
0000
,  // measure 118
0000
0010
0000
0000
0000
0100
0000
0000
0000
0010
0000
0000
0000
0100
0000
0000
0000
0010
0000
0000
0000
0100
0000
0000
,  // measure 119
0000
0010
0000
0000
0000
0000
0000
0000
0000
0000
0000
0000
0000
0000
0000
0000
0000
0000
0000
0000
0000
0000
0000
0000
;

//---------------dance-single - ----------------
#NOTES:
     dance-single:
     :
     Easy:
     9:
     0.446,0.564,0.056,0.016,0.000: // measure 1
0000
0000
0000
0000
,  // measure 2
0000
0000
0000
0000
,  // measure 3
0000
0000
0000
0000
,  // measure 4
0000
0000
0000
0000
,  // measure 5
0000
0000
0000
1000
,  // measure 6
1001
0000
0000
0000
,  // measure 7
0000
0000
0000
0000
,  // measure 8
0000
0000
0110
0000
,  // measure 9
0000
0000
0000
0000
,  // measure 10
0000
0000
0000
0001
,  // measure 11
1001
0000
0000
0000
,  // measure 12
0000
0000
0000
0000
,  // measure 13
0000
0000
0110
0000
,  // measure 14
0000
0000
0000
0000
,  // measure 15
0000
0000
0000
0001
,  // measure 16
1001
0000
0000
0000
,  // measure 17
0000
0000
0000
0000
,  // measure 18
0000
0000
0110
0000
,  // measure 19
0000
0000
0000
0000
,  // measure 20
0000
0000
0000
1000
,  // measure 21
1001
0100
0100
0100
,  // measure 22
0100
0010
0010
0010
,  // measure 23
0010
0010
0001
0100
,  // measure 24
0001
0010
0100
1000
,  // measure 25
0010
1000
0100
0010
,  // measure 26
0001
0100
0001
0010
,  // measure 27
0100
1000
0001
1000
,  // measure 28
0100
0010
0001
0100
,  // measure 29
0010
1000
0100
1000
,  // measure 30
0010
0100
0001
0010
,  // measure 31
0001
0100
0010
1000
,  // measure 32
0100
0001
0100
1000
,  // measure 33
0010
0100
1000
0100
,  // measure 34
0001
0010
0100
1000
,  // measure 35
0100
0001
0100
1000
,  // measure 36
0010
0100
1000
0100
,  // measure 37
0001
0010
1000
0010
,  // measure 38
0100
1000
0001
0100
,  // measure 39
1000
0100
0010
1000
,  // measure 40
0100
0001
0100
1000
,  // measure 41
0010
0100
1000
0100
,  // measure 42
0001
0010
0100
1000
,  // measure 43
0100
0001
0100
1000
,  // measure 44
1000
1000
1000
0001
,  // measure 45
0100
0100
0100
0100
,  // measure 46
0010
1000
1000
1000
,  // measure 47
1000
0100
0010
0010
,  // measure 48
0010
0010
0001
0100
,  // measure 49
0100
0100
0100
0001
,  // measure 50
0010
0010
0010
0010
,  // measure 51
0100
1000
1000
1000
,  // measure 52
1000
0010
0100
0100
,  // measure 53
0100
0100
0001
0010
,  // measure 54
0010
0010
0001
1000
,  // measure 55
0100
0100
0100
1000
,  // measure 56
0001
0100
0100
0100
,  // measure 57
0001
1000
0010
0010
,  // measure 58
0010
1000
0001
0010
,  // measure 59
0100
0010
0001
1000
,  // measure 60
0010
0100
0010
1000
,  // measure 61
0001
0100
1000
0100
,  // measure 62
0001
1000
0100
0001
,  // measure 63
0100
1000
0010
0000
,  // measure 64
0200
0000
0000
0000
,  // measure 65
0000
0000
0000
0301
,  // measure 66
0000
0010
0000
0100
0000
1000
0010
0100
,  // measure 67
0001
0000
0001
0010
0100
1000
0000
1000
,  // measure 68
0010
0100
0001
0000
0000
0000
0000
1000
,  // measure 69
0000
0001
0100
0010
1000
0000
1000
0100
,  // measure 70
0010
0001
0000
0001
0010
0100
1000
0000
,  // measure 71
0000
0001
0000
0100
0000
0001
0010
0100
,  // measure 72
1000
0000
1000
0010
0100
0001
0000
0001
,  // measure 73
0100
0010
1000
0000
0000
0100
0010
0100
,  // measure 74
0000
1000
0000
1000
0000
0001
0000
0100
,  // measure 75
0000
0001
0000
0010
0000
0010
0000
0001
,  // measure 76
0000
0100
0000
0010
0000
1000
0000
1000
,  // measure 77
0000
0100
0000
0010
0000
0100
0000
1000
,  // measure 78
0000
1000
0000
0001
0000
0100
0000
0001
,  // measure 79
0000
0010
0000
0010
0000
0100
0000
1000
,  // measure 80
0000
0100
0000
0010
0000
0010
0000
0001
,  // measure 81
0000
0100
0000
0001
0000
1000
0000
1000
,  // measure 82
0000
0100
0000
0010
0000
0100
0000
1000
,  // measure 83
0000
1000
0000
0010
0000
0100
0000
0001
,  // measure 84
0000
0010
0000
0001
0000
0100
0000
0001
,  // measure 85
0000
1000
0000
0100
0000
1000
0000
0010
,  // measure 86
0000
1000
0000
0001
0000
0010
0000
0001
,  // measure 87
0000
0100
0000
0001
0000
1000
0000
0010
,  // measure 88
0000
1000
0000
0100
0000
0010
0000
0001
,  // measure 89
0000
0100
0000
0001
0000
0010
0000
0100
,  // measure 90
0000
1000
0000
0010
0000
1000
0000
0100
,  // measure 91
0000
0010
0000
0001
0000
0100
0000
1000
,  // measure 92
0000
0100
0000
0001
0000
1000
0000
0100
,  // measure 93
0000
0001
0000
0100
0000
1000
0000
0010
,  // measure 94
0000
0100
0000
0001
0000
0100
0000
0010
,  // measure 95
0000
1000
0000
0100
0000
0010
0000
0100
,  // measure 96
0000
1000
0000
0001
0000
0100
0000
0010
,  // measure 97
0000
0100
0000
0001
0000
1000
0000
0010
,  // measure 98
0000
0100
0000
0010
0000
1000
0000
0001
,  // measure 99
0000
1000
0000
0100
0000
1000
0000
0010
,  // measure 100
0000
0100
0000
0001
0000
0010
0000
0001
,  // measure 101
0000
1000
0000
0100
0000
0001
0000
0100
,  // measure 102
0000
1000
0000
0100
0000
0010
0000
1000
,  // measure 103
0000
0010
0000
0001
0000
0100
0000
0010
,  // measure 104
0000
0000
0000
0010
0000
0100
0000
0000
,  // measure 105
0000
0100
0000
0001
0000
0000
0000
0001
,  // measure 106
0000
1000
0000
0000
0000
1000
0000
0100
,  // measure 107
0000
0000
0000
0100
0000
0010
0000
0000
,  // measure 108
0000
0010
0000
0001
0000
0000
0000
0001
,  // measure 109
0000
1000
0000
0000
0000
1000
0000
0010
,  // measure 110
0000
1000
0000
0100
0000
0010
0000
0001
,  // measure 111
0000
1000
0000
0100
0000
0010
0000
0001
,  // measure 112
0000
1000
0000
0100
0000
0010
0000
0001
,  // measure 113
0000
0100
0000
0010
0000
1000
0000
0100
,  // measure 114
0000
0010
0000
0001
0000
0100
0000
0002
,  // measure 115
0000
0000
0000
0000
,  // measure 116
0000
0000
0000
0000
,  // measure 117
0000
0000
0000
0000
,  // measure 118
0000
0000
0000
0000
,  // measure 119
0000
0003
0000
0000
0000
0000
0000
0000
;
