#TITLE:7th Trigger;
#SUBTITLE:;
#ARTIST:UVERworld;
#TITLETRANSLIT:;
#SUBTITLETRANSLIT:;
#ARTISTTRANSLIT:;
#GENRE:;
#CREDIT:;
#MENUCOLOR:;
#METERTYPE:DDR;
#BANNER:7th Trigger.png;
#BACKGROUND:7th Trigger-bg.png;
#LYRICSPATH:;
#CDTITLE:cdtitle.png;
#MUSIC:7th Trigger.mp3;
#OFFSET:-0.025;
#SAMPLESTART:52.436;
#SAMPLELENGTH:15.000;
#SELECTABLE:YES;
#LISTSORT:;
#DISPLAYBPM:210;
#BPMS:0.000=210.000,183.500=186.000,184.500=210.000;
#STOPS:;
#BGCHANGES:;
#ATTACKS:;

//---------------dance-single - ----------------
#NOTES:
     dance-single:
     :
     Hard:
     14:
     0.706,0.813,0.519,0.073,0.009:
0000
0000
0000
0000
,
0000
0000
0000
0000
,
0000
0000
0000
0000
,
0000
0000
0000
0000
,
0000
0000
0000
0000
,
0000
0000
0000
0000
,
0000
0000
0000
0000
,
0000
0000
0000
0000
,
0011
0000
0000
1100
0000
0000
1010
0000
,
0000
0101
0000
0000
0001
1000
0100
0000
,
1100
0000
0000
0101
0000
0000
1001
0000
,
0000
0000
1000
0000
0001
0100
0000
0100
,
0010
0000
0010
1000
0000
0000
0010
0101
,
0000
0001
0100
0000
0010
0010
0100
0000
,
0001
0001
0010
0000
0100
0100
1100
0000
,
1001
1000
0100
0000
0010
0010
0100
0000
,
1000
1000
0001
0000
0010
0010
0100
1000
,
0010
0100
0010
0100
0001
0010
0100
1000
,
0010
0010
0100
0001
0010
0010
0100
0000
,
1000
0100
0001
0100
1000
0010
0100
0001
,
0010
0100
1000
0010
0100
0101
0000
1010
,
0000
0001
0100
0001
0100
1000
0100
0001
,
0100
1000
0100
0001
0100
0001
0010
0000
,
0100
1000
0010
1000
0010
1000
0100
1000
,
0010
0100
0001
0010
0100
1000
0001
0000
,
0100
1000
0100
0010
0100
1000
0100
0001
,
0100
1000
0100
1000
0100
0010
0100
0000
,
0101
0001
0001
1100
1000
1000
0110
0010
,
0010
0110
0100
0100
1001
0000
0110
0000
,
1100
0100
0100
0100
,
0010
0010
0010
0010
,
0001
0001
0001
0001
,
1000
1000
1000
1000
,
0010
0010
0100
0100
,
0001
0001
1000
1000
,
0100
0010
0100
0010
,
0001
1000
0001
1000
,
0100
0000
0100
0000
0010
0000
0010
0001
,
1000
0000
1000
0000
0010
0000
0010
0100
,
0001
0000
0001
0000
0010
0000
0010
0100
,
1000
0000
1000
0000
0010
0000
0010
0100
,
1000
0000
0100
0000
0001
0000
1000
0100
,
0010
0000
0001
0000
0100
0000
0001
0010
,
0100
0000
1001
1000
0100
0010
0001
0000
,
0101
0000
1000
0100
0000
0100
1000
0000
,
0010
0000
0100
0001
0010
0100
0001
0100
,
0000
1001
0000
0000
0000
0101
0000
1100
,
0000
1010
0000
0011
0000
1001
0000
0110
,
0000
2002
0000
3003
0000
0001
0010
0001
,
0000
1000
0010
1000
0000
0001
0010
0001
,
0000
0100
0100
0000
0010
1000
0100
0010
,
0000
0001
0001
0000
1000
0100
0010
0001
,
1000
0001
1000
0100
0010
0100
0010
0100
,
0001
0100
1000
0010
0100
0001
0100
0110
,
0000
1001
0000
0100
0100
0000
0001
0010
,
0000
0100
0100
0000
1000
0001
0010
0001
,
0000
0100
0100
0000
0010
1000
0100
0010
,
0000
0001
0001
0000
0100
0010
1000
0100
,
0010
0001
0010
0001
1000
0010
1000
0000
,
0001
0010
0001
0010
0100
1000
0010
0000
,
1000
0100
0001
0100
1000
0010
0100
0002
,
0000
1003
1000
0000
0100
0010
0011
1100
,
0000
0000
0001
0100
0001
0010
0100
1100
,
0000
0001
1000
0100
1000
0010
0100
0101
,
0000
1000
0100
1000
0010
0100
0001
0011
,
0000
0001
0010
0000
0010
0001
1000
2200
,
0000
0000
0000
0000
,
0000
0000
0000
0300
,
0001
0000
0000
0000
0001
0000
0000
3000
,
0001
1000
0001
1000
0001
0000
0010
0000
0100
0000
1000
0000
0001
0000
0101
0000
,
0000
1000
0100
0001
0100
0000
0010
0110
,
0000
0001
1001
0000
0010
1000
0100
0110
,
0000
0001
0010
0001
0010
0100
1000
0100
,
1000
0010
0100
0001
1000
1100
0000
0000
,
0001
0100
0001
0100
0001
0100
0010
1000
,
1100
0000
0010
0001
0101
0000
1000
0000
,
1100
0101
1100
0101
,
0011
0000
1010
1000
0200
0000
0300
0000
,
0010
0010
0001
0100
0010
0000
0010
1000
,
0000
0001
1000
0000
0100
0010
0100
0000
,
1000
0100
0010
0001
0010
0000
0100
1000
,
0000
0001
0100
0010
1000
0000
1001
0000
,
0001
0100
0001
0100
0001
0100
0010
1000
,
1100
0000
0010
0001
0101
0000
1000
0000
,
0201
1300
1200
0301
,
0100
0001
0010
0100
1000
0010
0100
1001
,
0000
0000
0001
0100
0000
0100
0001
0010
,
0000
0000
0100
1000
0000
1000
0010
0100
,
0000
0000
0001
0100
0000
0010
1000
0100
,
0000
0000
0100
0010
0000
0100
1000
0001
,
0100
0000
0010
0000
0100
0010
0000
0100
,
0000
0000
0001
0000
1000
0001
0000
1000
,
0000
0000
0100
0000
0010
0100
0000
0010
,
0000
0000
0001
0000
1000
0001
0000
0110
;

//---------------dance-single - ----------------
#NOTES:
     dance-single:
     :
     Medium:
     10:
     0.500,0.642,0.082,0.246,0.000: // measure 1
0000
0000
0000
0000
,  // measure 2
0000
0000
0000
0000
,  // measure 3
0000
0000
0000
0000
,  // measure 4
0000
0000
0000
0000
,  // measure 5
0000
0000
0000
0000
,  // measure 6
0000
0000
0000
0000
,  // measure 7
0000
0000
0000
0000
,  // measure 8
0000
0000
0000
0000
,  // measure 9
1000
0000
0000
0001
0000
0000
0100
0000
,  // measure 10
0000
0010
0000
0000
0100
0000
1001
0000
,  // measure 11
0020
0000
0000
2030
0000
0000
3001
0000
,  // measure 12
0000
0000
1000
0000
0001
0100
0000
0000
,  // measure 13
0001
0000
1000
0100
0000
0000
0000
0010
,  // measure 14
0000
0001
0100
0000
0001
0000
1000
0000
,  // measure 15
0100
0100
1000
0001
,  // measure 16
0100
0000
0010
0000
1000
0100
1000
0000
,  // measure 17
0100
0000
0010
0000
0001
0100
0001
0000
,  // measure 18
1000
0100
0010
0001
,  // measure 19
0010
0100
1000
0001
,  // measure 20
1000
0100
0010
0001
0010
0100
1000
0100
,  // measure 21
0010
0001
0010
0100
1000
0100
0000
0010
,  // measure 22
0000
0001
0100
0010
,  // measure 23
0010
0000
0100
0000
0001
1000
0001
0000
,  // measure 24
1000
0100
0010
0010
,  // measure 25
0100
1000
0100
0000
0010
0000
0001
0000
,  // measure 26
0100
0010
0100
0000
0001
0000
1000
0000
,  // measure 27
0100
0000
0100
0000
1000
0001
1000
0000
,  // measure 28
0001
0100
0010
1000
0010
0100
0001
1000
,  // measure 29
0010
0100
0010
1000
0001
0100
0010
0000
,  // measure 30
2000
0100
0100
0100
,  // measure 31
0100
0100
0100
3100
,  // measure 32
0002
0100
0100
0100
,  // measure 33
0100
0100
0100
0103
,  // measure 34
2000
0010
0010
0010
,  // measure 35
0010
0010
0010
3010
,  // measure 36
0002
0010
0010
0010
,  // measure 37
0010
0010
0010
0013
,  // measure 38
2000
0010
0100
0100
,  // measure 39
0010
0010
0100
3100
,  // measure 40
0002
0010
0100
0100
,  // measure 41
0010
0010
0100
0103
,  // measure 42
2000
0100
0010
0010
,  // measure 43
0100
0100
0010
3010
,  // measure 44
0001
0010
0100
2000
,  // measure 45
3100
0000
0100
0010
0000
0010
0100
0000
,  // measure 46
1000
0000
0001
0000
0100
0010
0100
0001
,  // measure 47
0000
1000
0000
0000
0000
0100
0000
0010
,  // measure 48
0000
0010
0000
0010
0000
0001
0000
0100
,  // measure 49
0000
0110
0000
0000
0000
1000
0100
1000
,  // measure 50
0000
0001
0000
0100
0000
0010
0000
0100
,  // measure 51
0000
0001
1000
0000
0000
0001
0100
0001
,  // measure 52
0000
0000
1000
0100
0000
0000
0010
0001
,  // measure 53
0000
1000
1000
1000
,  // measure 54
1000
0100
0010
0001
1000
0100
0010
0001
,  // measure 55
0000
1000
0000
0000
0010
0000
0000
0100
,  // measure 56
0000
0001
0000
0000
1000
0000
0000
0001
,  // measure 57
0000
0010
0000
0000
0100
0000
0000
1000
,  // measure 58
0000
0010
0000
0000
0100
0000
0000
0001
,  // measure 59
0010
0000
0001
0000
0010
0000
0000
0100
,  // measure 60
1000
0000
0100
0000
1000
0000
0000
0100
,  // measure 61
0001
0000
0100
0000
0001
0000
0000
1000
,  // measure 62
0010
1000
0010
0000
,  // measure 63
0100
0100
0001
1000
,  // measure 64
0100
0010
0100
0000
1000
0000
0000
0000
,  // measure 65
0001
0001
0100
0010
,  // measure 66
1000
0001
1000
0000
0100
0000
0010
0002
,  // measure 67
0000
0000
0000
0000
,  // measure 68
0000
0000
0000
0000
,  // measure 69
1000
0000
0000
0000
1000
0000
0000
0003
,  // measure 70
1000
0001
1000
0000
0001
0000
1000
0100
,  // measure 71
0000
0000
0100
0000
0010
0000
0001
0100
,  // measure 72
0001
0000
0010
0000
0100
0000
1000
0001
,  // measure 73
0000
0000
0100
0000
0010
1000
0000
0000
,  // measure 74
0100
0010
0000
0010
0100
0000
1000
0001
,  // measure 75
2000
3200
0320
0032
,  // measure 76
1003
0000
0010
0100
0010
0000
0000
0000
,  // measure 77
1000
1100
0001
0101
,  // measure 78
2002
3003
0220
0330
,  // measure 79
1000
0000
0100
0000
0010
0000
0100
1000
,  // measure 80
0000
1000
0100
0000
0010
0000
0001
0100
,  // measure 81
0000
0000
0001
0000
0010
0000
0100
1000
,  // measure 82
0000
1000
0001
0000
0100
0010
1000
0000
,  // measure 83
0002
0023
0230
2300
,  // measure 84
3001
0000
0100
0010
0100
0000
0000
0000
,  // measure 85
2002
3003
0220
0330
,  // measure 86
1000
0000
0100
0000
0010
0001
0000
1000
,  // measure 87
0000
0000
0001
0000
0000
0001
0000
0100
,  // measure 88
0000
0000
1000
0000
0000
1000
0000
0100
,  // measure 89
0000
0000
0010
0000
0000
0010
0000
1000
,  // measure 90
0000
0000
0100
0000
0000
0100
0000
1000
,  // measure 91
0000
0000
0001
0000
0000
0001
0000
0010
,  // measure 92
0000
0000
0100
0000
0000
0100
0000
0010
,  // measure 93
0000
0000
0001
0000
0000
0001
0000
0100
,  // measure 94
0000
0000
0010
0000
0000
0010
0000
1001
;

//---------------dance-single - ----------------
#NOTES:
     dance-single:
     :
     Easy:
     7:
     0.318,0.470,0.009,0.082,0.000: // measure 1
0000
0000
0000
0000
,  // measure 2
0000
0000
0000
0000
,  // measure 3
0000
0000
0000
0000
,  // measure 4
0000
0000
0000
0000
,  // measure 5
0000
0000
0000
0000
,  // measure 6
0000
0000
0000
0000
,  // measure 7
0000
0000
0000
0000
,  // measure 8
0000
0000
0000
0000
,  // measure 9
0001
0000
0000
0100
0000
0000
0010
0000
,  // measure 10
0000
1000
0000
0000
0001
0000
0001
0000
,  // measure 11
1000
0000
0000
0100
0000
0000
0010
0000
,  // measure 12
0000
0000
0000
0000
,  // measure 13
0000
0000
0000
0000
0000
0000
0000
0001
,  // measure 14
0000
1000
1000
0100
,  // measure 15
0100
0010
0001
0010
,  // measure 16
0100
0100
1000
0010
,  // measure 17
0100
0100
0001
1000
,  // measure 18
0001
0001
0010
0100
,  // measure 19
1000
1000
0010
0100
,  // measure 20
0001
1000
0001
0000
1000
0001
0000
1000
,  // measure 21
0001
0000
1000
0000
0001
1000
0000
0001
,  // measure 22
0000
0100
0010
1000
,  // measure 23
0100
0100
0010
0001
,  // measure 24
0010
0010
0100
1000
,  // measure 25
0001
0100
0010
0100
,  // measure 26
0001
0001
1000
0100
,  // measure 27
0010
0010
0100
1000
,  // measure 28
0001
0000
1000
0001
0000
1000
0001
0000
,  // measure 29
1000
0001
0000
1000
0001
0000
1000
0000
,  // measure 30
0002
0000
0000
0000
,  // measure 31
0000
0000
0000
0000
,  // measure 32
2003
0000
0000
0000
,  // measure 33
0000
0000
0000
0000
,  // measure 34
3200
0000
0000
0000
,  // measure 35
0000
0000
0000
0000
,  // measure 36
0320
0000
0000
0000
,  // measure 37
0000
0000
0000
0000
,  // measure 38
0032
0000
0000
0000
,  // measure 39
0000
0000
0000
0000
,  // measure 40
0203
0000
0000
0000
,  // measure 41
0000
0000
0000
0000
,  // measure 42
0320
0000
0000
0000
,  // measure 43
0000
0000
0000
0000
,  // measure 44
1030
0100
0010
0001
,  // measure 45
1000
0100
0100
0100
,  // measure 46
0010
0000
0100
0000
1000
0000
0000
0001
,  // measure 47
0000
1000
0000
0000
0000
0001
0000
0010
,  // measure 48
0000
0100
0000
0010
0000
0001
0000
1000
,  // measure 49
0000
0100
0000
0000
0000
0001
0000
0010
,  // measure 50
0000
0100
0000
0010
0000
0001
0000
1000
,  // measure 51
0000
0100
0000
0000
0000
1000
0000
0010
,  // measure 52
0000
0100
0000
0001
0000
1000
0000
0100
,  // measure 53
0000
0000
0000
0000
,  // measure 54
1000
1000
0001
0100
,  // measure 55
0010
0010
0100
0000
,  // measure 56
0001
0001
0100
0010
,  // measure 57
1000
1000
0100
0000
,  // measure 58
1000
1000
0010
0000
,  // measure 59
0100
0001
0100
0010
,  // measure 60
1000
0010
0100
0000
,  // measure 61
0001
0010
0100
1000
,  // measure 62
0100
0010
0001
0000
,  // measure 63
1000
0010
0100
0100
,  // measure 64
0001
0010
0100
0000
,  // measure 65
0010
0001
0100
0000
,  // measure 66
0010
0000
1000
0000
0100
0000
0000
0020
,  // measure 67
0000
0000
0000
0000
,  // measure 68
0000
0000
0000
0000
,  // measure 69
0000
0000
0000
0000
0000
0000
0000
0030
,  // measure 70
0000
0000
0000
0000
0000
0000
0000
1000
,  // measure 71
0000
0001
1000
0000
,  // measure 72
0001
1000
0001
0000
,  // measure 73
1000
0001
1000
0001
,  // measure 74
0010
0100
1000
0000
,  // measure 75
0001
0010
0001
0010
,  // measure 76
0100
1000
0100
0000
,  // measure 77
0010
0001
0100
0001
,  // measure 78
0010
0100
1000
0000
,  // measure 79
0010
1000
0010
0000
,  // measure 80
0100
0001
0100
0000
,  // measure 81
0010
1000
0100
0010
,  // measure 82
0001
0010
0100
0000
,  // measure 83
1000
0001
1000
0001
,  // measure 84
0100
0010
1000
0000
,  // measure 85
0100
0010
0001
0010
,  // measure 86
0100
0000
1000
0000
0001
0000
0000
0200
,  // measure 87
0000
0000
0010
0000
0000
0010
0000
0000
,  // measure 88
0000
0000
0010
0000
0000
0010
0000
0000
,  // measure 89
0000
0000
0010
0000
0000
0010
0000
0000
,  // measure 90
0000
0000
0010
0000
0000
0010
0000
0300
,  // measure 91
0000
0000
0010
0000
0000
0010
0000
0000
,  // measure 92
0000
0000
0010
0000
0000
0010
0000
0000
,  // measure 93
0000
0000
0010
0000
0000
0010
0000
0000
,  // measure 94
0000
0000
0010
0000
0000
0010
0000
0110
;
