#TITLE:[none] [8 progress remix];
#SUBTITLE:;
#ARTIST:KRX remixed by 削除;
#TITLETRANSLIT:[none] [8 progress remix];
#SUBTITLETRANSLIT:;
#ARTISTTRANSLIT:KRX remixed by SAKUJO;
#GENRE:;
#CREDIT:;
#MENUCOLOR:;
#METERTYPE:DDR;
#BANNER:[none] [8 progress remix].png;
#BACKGROUND:[none] [8 progress remix]-bg.png;
#LYRICSPATH:;
#CDTITLE:cdtitle.png;
#MUSIC:[none] [8 progress remix].mp3;
#OFFSET:-0.025;
#SAMPLESTART:46.880;
#SAMPLELENGTH:15.000;
#SELECTABLE:YES;
#LISTSORT:;
#BPMS:0.000=128.000;
#STOPS:;
#BGCHANGES:;
#ATTACKS:;

//---------------dance-single - ----------------
#NOTES:
     dance-single:
     :
     Hard:
     14:
     0.645,0.723,0.000,0.000,0.999:
0000
0000
0000
0000
,
0000
0000
0000
0000
,
0000
0000
0000
0000
,
0000
0000
0000
0000
,
0000
0000
0000
0000
,
0001
0000
0000
0100
0000
0000
0100
0000
0000
0000
0000
0010
0000
0000
0010
0000
,
0000
0000
0000
1000
0000
0000
1000
0000
0000
0000
0000
0100
0000
1000
0100
0000
,
0010
0000
0000
0010
0000
0000
0010
0000
0000
0000
0000
0001
0000
0000
0001
0000
,
0000
0000
0000
0100
0000
0000
0100
0000
0000
0000
0000
0010
0000
1000
0010
0000
,
1000
0001
0000
0100
0000
0000
0001
0010
0000
0001
0000
0010
0000
0000
0100
1000
,
0000
0100
0000
1000
0000
0000
0010
0100
0000
0010
0000
0100
0000
0000
0001
0010
,
0000
0001
0000
0100
0000
0000
0001
1000
0000
0001
0000
1000
0000
0000
0100
1000
,
0000
0100
0000
0010
0000
0000
0100
1000
0000
0001
0000
0100
0000
0000
0010
0100
,
0000
0001
0000
0100
0000
0000
0010
1000
0000
0001
0000
1000
0000
0000
0100
0010
,
0000
0100
0000
1000
0000
0000
0001
0100
0000
0001
0000
0010
0000
0000
0100
1000
,
0000
0010
0000
0100
0000
0000
0001
0100
0000
0001
0000
0010
0000
0000
0001
0100
,
0000
0010
0000
1000
0000
0000
0100
0010
0000
0100
0000
1000
0000
0000
0001
0100
,
0010
0000
1000
0000
0100
0000
0010
0100
1000
0000
0001
0000
0100
0000
0010
0100
,
0001
0000
1000
0000
0010
0000
0100
0010
1000
0000
0001
0000
0010
0000
0100
0010
,
0001
0000
1000
0000
0001
0000
0100
0001
1000
0000
0001
0000
1000
0000
0010
1000
,
0001
0000
0010
0000
0001
0000
1000
0001
0100
0000
0010
0000
1000
0000
0001
1000
,
0100
0010
0000
0100
1000
0000
0001
0100
0010
1000
0000
0010
0100
0000
0001
0010
,
0100
1000
0000
0100
0010
0000
0001
0100
0010
1000
0000
0010
0100
0000
0001
1000
,
0100
0010
0000
0100
1000
0000
0001
0100
0010
1000
0000
0010
0100
0000
0001
1000
,
0100
0010
0000
0100
1000
0000
0001
0100
0010
1000
0000
0001
0010
0000
0100
1000
,
0001
0000
0100
0001
0100
0000
0010
0000
1000
0000
0100
0010
0100
0000
1000
0000
,
0001
0000
0010
0100
0010
0000
0001
0000
0100
0000
0010
1000
0000
0010
1000
0000
,
0100
0000
0010
0100
0010
0000
0100
0000
1000
0000
0001
0100
0001
0000
0010
0000
,
0100
0000
1000
0010
1000
0000
0001
0000
0100
0000
0010
1000
0000
0010
1000
0000
,
0100
0000
1000
0001
0100
0000
0010
0000
0100
0000
0001
0010
0100
0000
1000
0000
,
0010
0000
0100
0001
1000
0000
0100
0000
0010
0000
0100
1000
0000
0001
0100
0000
,
0001
0000
0010
0100
1000
0000
0001
0000
0100
0000
0010
1000
0001
0000
0010
0000
,
0100
0000
1000
0010
0100
0000
0001
0000
0010
0000
0001
0100
0000
0010
0100
0000
,
0001
0000
0010
0100
1000
0000
0100
0000
0010
0000
0001
0010
0100
0000
1000
0000
,
0010
0000
1000
0010
0100
0000
0001
0000
0100
0000
0010
1000
0000
1000
0001
0000
,
0100
0000
0001
0010
0100
0000
1000
0000
0100
0000
0010
0001
1000
0000
0001
0000
,
0010
0000
0001
0100
0010
0000
1000
0000
0010
0000
0100
0001
0000
0001
1000
0000
,
0100
0000
0010
0100
1000
0000
0001
0000
0100
0000
0010
0100
0001
0000
0010
0000
,
0100
0000
1000
0001
0100
0000
0010
0000
0100
0000
0001
0010
0000
0010
0100
0000
,
1000
0000
0010
0100
0001
0000
0100
0000
1000
0000
0100
0010
1000
0000
0100
0000
,
0001
0000
0100
0010
0001
0000
0100
0000
1000
0000
0100
0010
0000
0010
1000
0000
,
0001
0000
1000
0100
0000
0000
1000
0100
0000
0000
0010
0100
0000
1000
0000
0001
,
0000
0000
0100
0010
0000
1000
0000
1000
0000
0001
0000
0001
0000
0010
0100
0000
,
0000
0000
1000
0001
0000
0000
1000
0001
0000
0000
0010
0100
0000
1000
0000
1000
,
0000
0000
0001
0100
0000
0001
0000
0001
0000
0010
0000
0010
0000
0100
1000
0000
,
0000
0000
0010
0100
0000
0000
0010
0100
0000
0000
0001
1000
0000
0010
0000
0010
,
0000
0000
0100
0001
0000
0010
0000
0010
0000
0100
0000
0100
0000
1000
0010
0000
,
0000
0000
0100
0001
0000
0000
0100
0001
0000
0000
0010
0100
0000
1000
0000
1000
,
0000
0000
0010
0100
0000
0001
0000
0001
0000
1000
0000
1000
0000
0100
0010
0000
,
0001
0000
1000
0100
0000
0100
0010
0000
0010
0001
0000
0001
0100
0000
0100
0010
,
1000
0000
0001
0010
0000
0010
0100
0000
0100
1000
0000
1000
0010
0000
0010
0100
,
0001
0000
1000
0100
0010
0000
0100
0010
0000
0100
0100
1000
0001
0000
0100
0010
,
1000
0001
1000
0001
0100
0001
0100
0001
1000
0001
1000
0001
1000
0100
0010
0001
,
0100
0000
0001
0010
0100
0000
1000
0100
0000
0010
0100
0000
1000
0100
0000
0010
,
0100
0000
1000
0001
0010
0100
1000
0000
0001
0100
0001
0010
0100
1000
0100
0010
,
0001
0000
1000
0100
1000
0100
0010
0000
0001
0100
0001
0100
0010
0000
1000
0100
,
0010
0000
0001
0100
0001
0100
0010
0000
1000
0100
1000
0100
0010
0000
0001
0100
,
0010
1000
0000
0100
0000
0000
1000
0010
0000
1000
0000
0010
0000
0000
0100
0001
,
0000
0100
0000
0001
0000
0000
0001
0010
0000
0001
0000
0010
0000
0000
0100
1000
,
0000
0100
0000
1000
0000
0000
1000
0010
0000
1000
0000
0010
0000
0000
0100
0001
,
0000
0100
0000
0001
0000
0000
0001
0010
0000
0001
0000
0010
0100
0000
0100
0000
,
0100
0000
1000
0100
0001
0000
0000
0000
0100
0000
1000
0100
0001
0000
0000
0000
,
0100
0000
1000
0100
0001
0000
0000
0000
0100
0000
1000
0100
0001
0000
0000
0000
,
0100
0000
1000
0010
0001
0000
0000
0000
0010
0000
1000
0010
0001
0000
0000
0000
,
0010
0000
1000
0010
0001
0000
0000
0000
0010
0000
1000
0010
0001
0010
0100
1000
;

//---------------dance-single - ----------------
#NOTES:
     dance-single:
     :
     Medium:
     9:
     0.382,0.387,0.000,0.000,0.000: // measure 1
0000
0000
0000
0000
,  // measure 2
0000
0000
0000
0000
,  // measure 3
0000
0000
0000
0000
,  // measure 4
0000
0000
0000
0000
,  // measure 5
0000
0000
0000
0000
,  // measure 6
1000
1000
0001
0001
,  // measure 7
0100
0100
0010
0010
,  // measure 8
1000
0100
0001
0010
,  // measure 9
0001
0100
1000
0010
,  // measure 10
0100
0000
0001
0000
0100
0001
0100
0000
,  // measure 11
0001
0000
1000
0000
0001
1000
0001
0000
,  // measure 12
1000
0000
0100
0000
1000
0100
1000
0000
,  // measure 13
0100
0000
0001
0000
0100
0001
0100
0000
,  // measure 14
0001
0000
0010
0000
0001
0010
0001
0000
,  // measure 15
0010
0000
1000
0000
0010
1000
0010
0000
,  // measure 16
1000
0000
0001
0000
1000
0001
1000
0000
,  // measure 17
0001
0000
0100
0000
0001
0100
0001
0000
,  // measure 18
1000
0000
0100
0000
0010
0100
1000
0000
,  // measure 19
0001
0000
0100
0000
0010
0100
0001
0000
,  // measure 20
1000
0000
0010
0000
0100
0010
1000
0000
,  // measure 21
0001
0000
0010
0000
0100
0010
0001
0000
,  // measure 22
1000
0000
0100
0000
0001
0100
1000
0000
,  // measure 23
0001
0000
0100
0000
1000
0100
0001
0000
,  // measure 24
1000
0000
0010
0000
0001
0010
1000
0000
,  // measure 25
0001
0000
0010
0000
1000
0010
0001
0000
,  // measure 26
1000
0100
1000
0000
1000
0100
1000
0000
,  // measure 27
0001
0100
0001
0000
0001
0100
0010
0000
,  // measure 28
0100
0010
0100
0000
0100
0001
0100
0000
,  // measure 29
0010
0100
0010
0000
0010
1000
0100
0000
,  // measure 30
1000
0100
0010
0000
0010
0100
1000
0000
,  // measure 31
0001
0100
0010
0000
0010
0100
0010
0000
,  // measure 32
1000
0001
0100
0000
0100
0001
1000
0000
,  // measure 33
0001
1000
0100
0000
0100
1000
0010
0100
,  // measure 34
0001
0010
0001
0000
0001
0010
0001
0000
,  // measure 35
0001
0010
0100
1000
0100
0010
0001
0000
,  // measure 36
1000
0100
1000
0000
1000
0100
1000
0000
,  // measure 37
1000
0100
0010
0001
0010
0100
1000
0000
,  // measure 38
0001
0100
0001
0000
0001
0100
0001
0000
,  // measure 39
0001
0100
0010
1000
0010
0100
0001
0000
,  // measure 40
1000
0010
1000
0000
1000
0010
1000
0000
,  // measure 41
1000
0010
0100
0001
0100
0010
1000
0000
,  // measure 42
0001
0010
0100
0000
0100
0010
0001
0001
,  // measure 43
1000
0010
0100
0000
0100
0010
1000
0000
,  // measure 44
0001
0100
0010
0000
0010
0100
0001
0001
,  // measure 45
1000
0100
0010
0000
0010
0100
1000
0000
,  // measure 46
0010
1000
0100
0000
0010
0001
0100
0100
,  // measure 47
0001
0010
0100
0000
1000
0010
0100
0000
,  // measure 48
0001
0100
1000
0000
1000
0100
0001
0001
,  // measure 49
1000
0100
0010
0000
0010
0100
1000
0000
,  // measure 50
0001
0100
0001
0000
0100
0001
0100
0000
,  // measure 51
0001
0010
0100
1000
0001
0010
0100
1000
,  // measure 52
0010
0000
0010
0000
0010
0100
0001
0010
,  // measure 53
0100
0000
0100
1000
0010
0000
1000
0100
,  // measure 54
0001
0000
0001
0100
1000
0000
1000
0010
,  // measure 55
0000
0001
0010
0000
1000
0000
0001
0100
,  // measure 56
0001
1000
0100
0000
0010
0100
1000
0000
,  // measure 57
0001
0100
0001
0100
1000
0100
1000
0100
,  // measure 58
0001
0010
1000
0010
,  // measure 59
0001
0100
1000
0100
,  // measure 60
0001
0010
1000
0100
,  // measure 61
0001
0100
1000
0010
,  // measure 62
0001
0100
0100
0000
0000
0010
0010
0000
,  // measure 63
0000
1000
1000
0000
0000
0001
0001
0000
,  // measure 64
0000
0010
0010
0000
0000
0100
0100
0000
,  // measure 65
1000
0100
0010
0000
0010
0100
1000
0001
;

//---------------dance-single - ----------------
#NOTES:
     dance-single:
     :
     Easy:
     5:
     0.277,0.283,0.000,0.000,0.000: // measure 1
0000
0000
0000
0000
,  // measure 2
0000
0000
0000
0000
,  // measure 3
0000
0000
0000
0000
,  // measure 4
0000
0000
0000
0000
,  // measure 5
0000
0000
0000
0000
,  // measure 6
0001
0001
0001
0001
,  // measure 7
0010
0010
0010
0010
,  // measure 8
1000
1000
1000
1000
,  // measure 9
0100
0100
0100
0100
,  // measure 10
0001
0010
0001
0010
,  // measure 11
0100
1000
0100
1000
,  // measure 12
0010
0100
0010
0100
,  // measure 13
0001
1000
0001
1000
,  // measure 14
0001
0100
0001
0100
,  // measure 15
1000
0010
1000
0010
,  // measure 16
1000
0100
1000
0100
,  // measure 17
0001
0010
0001
0010
,  // measure 18
0100
1000
0100
0000
0100
0000
0100
0000
,  // measure 19
0010
0001
0100
0100
,  // measure 20
0010
0001
0010
0010
,  // measure 21
1000
0100
0010
0010
,  // measure 22
0001
0100
0001
0000
0010
0000
0010
0000
,  // measure 23
0100
1000
0010
0010
,  // measure 24
0100
0001
1000
1000
,  // measure 25
0100
0001
0100
0100
,  // measure 26
1000
0010
0100
0000
0001
0000
0001
0000
,  // measure 27
0010
0100
1000
1000
,  // measure 28
0001
0100
0010
0000
0100
0000
0100
0000
,  // measure 29
0001
0010
0100
0100
,  // measure 30
1000
0001
0100
0000
0010
0000
0010
0000
,  // measure 31
0100
0001
1000
1000
,  // measure 32
0100
0010
0001
0000
0100
0000
0100
0000
,  // measure 33
0010
1000
0100
0100
,  // measure 34
1000
0001
1000
0000
1000
0001
1000
0000
,  // measure 35
1000
0100
0010
0001
,  // measure 36
0001
1000
0001
0000
0001
1000
0001
0000
,  // measure 37
0001
0010
0100
1000
,  // measure 38
1000
0100
1000
0000
1000
0100
1000
0000
,  // measure 39
1000
0010
0100
0001
,  // measure 40
0001
0010
0001
0000
0001
0010
0001
0000
,  // measure 41
0001
0100
0010
1000
,  // measure 42
1000
0100
0001
0010
,  // measure 43
1000
0100
0001
0010
,  // measure 44
1000
0010
0001
0100
,  // measure 45
1000
0010
0001
0100
,  // measure 46
1000
0001
1000
0001
,  // measure 47
0010
0100
0010
0100
,  // measure 48
1000
0001
1000
0001
,  // measure 49
0100
0010
0100
0010
,  // measure 50
1000
0100
0001
0010
,  // measure 51
0001
0100
1000
0010
,  // measure 52
1000
0100
0001
0010
,  // measure 53
1000
0100
1000
0010
,  // measure 54
0001
0100
0001
0010
,  // measure 55
0001
0100
1000
0010
,  // measure 56
0001
0010
1000
0100
,  // measure 57
0001
0010
1000
0100
,  // measure 58
1000
0000
1000
0000
,  // measure 59
1000
0100
0010
0001
,  // measure 60
0001
0000
0001
0000
,  // measure 61
0001
0100
0010
1000
,  // measure 62
1000
0000
1000
0000
,  // measure 63
1000
0000
0100
0000
,  // measure 64
0001
0000
0001
0000
,  // measure 65
0001
0100
1000
0001
;
