#TITLE:super highway;
#SUBTITLE:;
#ARTIST:nouvo nude;
#TITLETRANSLIT:super highway;
#SUBTITLETRANSLIT:;
#ARTISTTRANSLIT:nouvo nude;
#GENRE:;
#CREDIT:;
#MENUCOLOR:;
#METERTYPE:DDR;
#BANNER:super highway.png;
#BACKGROUND:super highway-bg.png;
#LYRICSPATH:;
#CDTITLE:cdtitle.png;
#MUSIC:super highway.mp3;
#OFFSET:-0.034;
#SAMPLESTART:7.490;
#SAMPLELENGTH:12.500;
#SELECTABLE:YES;
#LISTSORT:;
#BPMS:0.000=160.000;
#STOPS:;
#BGCHANGES:;
#ATTACKS:;

//---------------dance-single - ----------------
#NOTES:
     dance-single:
     :
     Hard:
     11:
     0.580,0.556,0.131,0.143,0.036:
0000
0000
0000
0000
,
0000
0000
0000
0000
,
0000
0000
0000
0000
,
0000
0000
0000
0000
,
0000
0000
0000
0000
,
1001
0001
0010
0100
0000
1000
0010
0000
,
1000
0100
1000
0001
0000
0100
0100
0000
,
0110
0100
0001
1000
0000
0100
0010
0000
,
0100
1000
0001
0100
0000
0010
0010
0000
,
1010
1000
0001
0100
0000
0010
0100
0000
,
0001
0010
0100
1000
0000
0001
0001
0000
,
0101
0100
0010
1000
0000
0100
0010
0000
,
0100
1000
0001
0100
0000
0010
0010
0000
,
0010
0010
1000
0010
0000
0100
0001
0100
,
0010
0000
0010
0000
1000
0000
0100
0000
0000
0000
1000
0000
0000
0010
0000
0000
,
0100
0100
0001
0010
0000
0001
0100
1000
,
0100
0000
0100
0000
0010
0000
1000
0000
0000
0000
0100
0000
0000
0010
0000
0000
,
0001
0001
0100
0010
0000
1000
0100
0010
,
0001
0000
0001
0000
1000
0000
0100
0000
0000
0000
1000
0000
0000
0010
0000
0000
,
0100
0100
0001
0010
0000
0100
1000
0010
,
0100
0000
0110
0000
0010
0100
0100
0000
,
0020
0000
0130
0000
,
0100
1000
0001
0100
0000
0001
0010
0000
,
0100
0000
1000
0000
0100
0000
0000
0010
0000
0000
0001
0000
0100
0000
0000
0000
,
0001
1000
0100
0010
0000
0100
1000
0000
,
0100
0100
0010
0010
0001
0010
0100
1000
,
0001
0100
0001
0010
0000
0100
1000
0000
,
0100
0000
0010
0000
0100
0000
0000
1000
0000
0000
0001
0000
0100
0000
0000
0000
,
0010
1000
0010
0100
0000
0001
0100
0000
,
0001
0010
0100
1000
0001
0100
0010
1000
,
0002
0000
0013
0001
0000
0100
0001
0000
,
2000
0000
3010
1000
0000
0100
1000
0100
,
0020
0000
0130
1000
0000
0001
0100
0000
,
0002
0000
0013
0100
0000
1000
0100
0001
,
0200
0000
1300
0010
0000
0100
0001
0000
,
0020
0000
0130
1000
0000
0100
0010
0001
,
0200
0000
0310
1000
0000
0001
0010
0000
,
0100
0000
0010
0000
0001
0000
1000
0000
0100
0000
0010
0100
0000
0000
0000
0000
,
1000
0000
0100
2002
0000
0000
3003
0000
,
0110
1000
0100
0010
0000
0100
1000
0010
,
0100
1000
0200
0000
0301
0010
0100
1000
,
1100
0010
0001
0100
0000
0001
1000
0100
,
0010
0001
0100
0001
0000
0010
0001
0100
,
0110
0001
0100
0010
0000
1000
0100
1000
,
0010
0100
0002
0000
1003
0001
0010
0100
,
0110
0001
1000
0100
0000
0010
0100
1000
,
0001
0100
0001
0010
0000
0100
1000
0001
,
0100
0010
0100
0010
0100
0001
0100
0001
,
0100
0010
1000
0100
0000
0100
1000
0010
,
1000
0100
1000
0100
0001
0100
0001
0100
,
1000
0010
0100
0001
0000
0010
0001
0100
,
0010
1000
0010
0100
0010
1000
0010
0100
,
0001
0010
0100
1000
0000
0001
0100
0001
,
0010
0100
1000
0100
0010
0100
1000
0001
,
0100
0010
0100
0001
0000
1000
0100
0010
,
1001
0000
0000
0000
;

//---------------dance-single - ----------------
#NOTES:
     dance-single:
     :
     Medium:
     8:
     0.403,0.393,0.012,0.131,0.000:
0000
0000
0000
0000
,
0000
0000
0000
0000
,
0000
0000
0000
0000
,
0000
0000
0000
0000
,
0000
0000
0000
0000
,
1000
0000
0001
0100
0000
0000
0001
0000
,
1000
0100
0010
0010
,
0100
0000
1000
0001
0000
0000
1000
0000
,
0010
0100
0001
0001
,
1000
0000
0010
0100
0000
0000
0001
0000
,
0010
0100
1000
1000
,
0010
0000
0100
0001
0000
0000
0100
0000
,
0010
1000
0001
0001
,
0010
0000
0100
0010
0000
0000
0100
0000
,
1000
0000
0010
0100
0000
0000
0010
0000
,
0100
0000
0001
0010
0000
0000
0001
0000
,
0100
0000
0010
1000
0000
0000
0010
0000
,
0100
0000
0001
0010
0000
0000
0001
0000
,
1000
0000
0100
0010
0000
0000
0100
0000
,
1000
0000
0001
0100
0000
0000
0010
0000
,
0100
0000
0001
0000
0000
1000
0010
0000
,
0220
0000
0330
0000
,
0010
1000
0001
0000
0100
0000
0001
0000
,
1000
0100
0010
0000
0100
0000
0100
0000
,
1000
0010
0100
0000
0001
0000
0100
0000
,
0010
1000
0001
0000
0100
0000
0100
0000
,
0001
0010
0100
0000
1000
0000
0001
0000
,
0010
0100
1000
0000
0010
0000
0010
0000
,
0100
0001
1000
0000
0001
0000
0100
0000
,
0010
1000
0100
0000
0010
0001
0100
0000
,
0010
0000
2000
0200
0000
0000
3300
0000
,
0010
0000
0001
0100
0000
0001
0100
0001
,
0010
0000
0002
0200
0000
0000
0303
0000
,
0010
0000
1000
0100
0000
1000
0010
0100
,
0010
0000
2000
0020
0000
0000
3030
0000
,
0100
0000
0001
0010
0000
0001
1000
0100
,
0010
0000
0002
0020
0000
0000
0033
0000
,
0100
0000
0100
0000
0100
0100
0000
0000
,
2000
0000
3001
0100
0000
0000
0000
0000
,
0010
0000
1000
0100
0000
0001
0100
0000
,
0010
1000
0100
0001
,
0010
0000
0001
0100
0000
1000
0100
0000
,
0001
0100
1000
0010
,
0001
0000
1000
0100
0000
0001
0100
0000
,
1000
0100
0001
0010
,
1000
0000
0001
0100
0000
1000
0100
0000
,
0010
0001
0100
1000
,
0010
0000
0100
0001
0000
0100
1000
0000
,
0100
0001
0010
0000
0100
1000
0010
0000
,
0100
0000
0001
0010
0000
1000
0010
0000
,
0001
0100
0010
0000
1000
0100
0010
0000
,
0001
0000
1000
0100
0000
0001
0100
0000
,
1000
0010
0100
0000
0001
0010
0100
0000
,
1000
0000
0001
0100
0000
1000
0100
0000
,
0001
0010
0100
1000
0000
0001
0100
0010
,
1000
0000
0000
0000
;

//---------------dance-single - ----------------
#NOTES:
     dance-single:
     :
     Easy:
     5:
     0.211,0.229,0.012,0.000,0.000:
0000
0000
0000
0000
,
0000
0000
0000
0000
,
0000
0000
0000
0000
,
0000
0000
0000
0000
,
0000
0000
0000
0000
,
1000
0000
0001
0000
,
0100
0010
0100
0000
,
0001
0000
1000
0000
,
0100
0010
0100
0000
,
1000
0000
0001
0000
,
0100
0010
0100
0000
,
0001
0000
1000
0000
,
0100
0010
0100
0000
,
1000
0000
1000
0000
,
0001
0001
0001
0000
,
0100
0000
0100
0000
,
0010
0010
0010
0000
,
0100
0000
0100
0000
,
0001
0001
0001
0000
,
1000
0000
1000
0000
,
0010
0010
0010
0000
,
0100
0000
1001
0000
,
0001
0000
0001
0000
,
1000
0100
0010
0000
,
1000
0000
1000
0000
,
0001
0100
0010
0000
,
0001
0000
0001
0000
,
1000
0010
0100
0000
,
1000
0000
1000
0000
,
0001
0010
0100
0000
,
1000
0000
0000
1000
,
0001
0000
0000
0001
,
1000
0000
0000
1000
,
0010
0000
0000
0010
,
0100
0000
0000
0100
,
0001
0000
0000
0001
,
1000
0000
0000
1000
,
0100
0000
0000
0000
,
0100
0000
0000
0000
,
1000
0000
1000
0000
,
0001
0100
0001
0000
,
0001
0000
0001
0000
,
1000
0100
1000
0000
,
0010
0000
0010
0000
,
0100
0001
0100
0000
,
0100
0000
0100
0000
,
0010
1000
0010
0000
,
0100
0000
0001
0000
,
1000
0100
0010
0001
,
0100
0000
0001
0000
,
1000
0100
0010
0001
,
0100
0000
0001
0000
,
1000
0100
0010
0001
,
0100
0000
0010
0000
,
1000
0100
0010
0001
,
0100
0000
0000
0000
;

//---------------dance-single - ----------------
#NOTES:
     dance-single:
     :
     Beginner:
     3:
     0.126,0.164,0.036,0.000,0.000: // measure 1
0000
0000
0000
0000
,  // measure 2
0000
0000
0000
0000
,  // measure 3
0000
0000
0000
0000
,  // measure 4
0000
0000
0000
0000
,  // measure 5
0000
0000
0000
0000
,  // measure 6
1000
0000
0000
0000
,  // measure 7
0001
0000
0001
0000
,  // measure 8
0001
0000
0000
0000
,  // measure 9
1000
0000
1000
0000
,  // measure 10
1000
0000
0000
0000
,  // measure 11
0100
0000
0100
0000
,  // measure 12
0100
0000
0000
0000
,  // measure 13
0001
0000
0001
0000
,  // measure 14
0001
0000
0000
0000
,  // measure 15
1000
0000
0000
0000
,  // measure 16
0001
0000
0000
0000
,  // measure 17
1000
0000
0000
0000
,  // measure 18
0001
0000
0000
0000
,  // measure 19
1000
0000
0000
0000
,  // measure 20
0001
0000
0000
0000
,  // measure 21
0100
0000
0000
0000
,  // measure 22
1001
0000
0000
0000
,  // measure 23
1000
0000
0000
0000
,  // measure 24
0001
0000
0001
0000
,  // measure 25
0001
0000
0000
0000
,  // measure 26
1000
0000
1000
0000
,  // measure 27
1000
0000
0000
0000
,  // measure 28
0100
0000
0100
0000
,  // measure 29
0100
0000
0000
0000
,  // measure 30
0010
0000
0010
0000
,  // measure 31
0010
0000
0000
0000
,  // measure 32
0010
0000
0000
0000
,  // measure 33
0100
0000
0000
0000
,  // measure 34
0100
0000
0000
0000
,  // measure 35
0001
0000
0000
0000
,  // measure 36
0001
0000
0000
0000
,  // measure 37
1000
0000
0000
0000
,  // measure 38
1000
0000
0000
0000
,  // measure 39
1001
0000
0000
0000
,  // measure 40
0001
0000
0001
0000
,  // measure 41
0001
0000
0000
0000
,  // measure 42
1000
0000
1000
0000
,  // measure 43
1000
0000
0000
0000
,  // measure 44
0100
0000
0100
0000
,  // measure 45
0100
0000
0000
0000
,  // measure 46
0010
0000
0010
0000
,  // measure 47
0010
0000
0000
0000
,  // measure 48
1000
1000
1000
0000
,  // measure 49
1000
0000
0000
0000
,  // measure 50
0001
0001
0001
0000
,  // measure 51
0001
0000
0000
0000
,  // measure 52
0100
0100
0100
0000
,  // measure 53
0100
0000
0000
0000
,  // measure 54
0001
0001
0001
0000
,  // measure 55
0001
0000
0000
0000
,  // measure 56
1001
0000
0000
0000
;
