#TITLE:jet coaster☆girl;
#SUBTITLE:;
#ARTIST:TOMOSUKE feat. Three Berry Icecream;
#TITLETRANSLIT:jet coaster girl;
#SUBTITLETRANSLIT:;
#ARTISTTRANSLIT:TOMOSUKE feat. Three Berry Icecream;
#GENRE:;
#CREDIT:;
#MENUCOLOR:;
#METERTYPE:DDR;
#BANNER:jet coaster girl.png;
#BACKGROUND:jet coaster girl-bg.png;
#LYRICSPATH:;
#CDTITLE:cdtitle.png;
#MUSIC:jet coaster girl.mp3;
#OFFSET:-0.030;
#SAMPLESTART:2.738;
#SAMPLELENGTH:15.000;
#SELECTABLE:YES;
#LISTSORT:;
#BPMS:0.000=177.000;
#STOPS:;
#BGCHANGES:;
#ATTACKS:;

//---------------dance-single - ----------------
#NOTES:
     dance-single:
     :
     Hard:
     12:
     0.655,0.609,0.604,0.072,0.041: // measure 1
0000
0000
0000
0000
,  // measure 2
0000
0000
0000
0000
,  // measure 3
1001
0000
0000
0000
0110
0000
0000
1000
0001
0000
1000
0000
0100
0000
0010
0000
,  // measure 4
0000
0011
0000
1100
0000
1010
0000
0101
,  // measure 5
0000
0000
0001
0000
0100
0000
0000
0010
0100
0000
0001
0000
1000
0000
0100
0000
,  // measure 6
0000
0110
0000
0011
0000
0001
0100
0000
,  // measure 7
1001
0000
0000
0000
0110
0000
0000
0001
1000
0000
0001
0000
0100
0000
0010
0000
,  // measure 8
0000
1010
0000
0101
0000
0011
0000
1100
,  // measure 9
0000
0000
1000
0000
0100
0000
0000
0010
0100
0000
1000
0000
0001
0000
0100
0000
,  // measure 10
0000
0110
0000
1010
0000
1000
0100
0000
,  // measure 11
1000
0100
0010
0001
1000
0100
0001
0000
,  // measure 12
0100
1000
0001
0010
0100
1000
0010
0000
,  // measure 13
0100
0001
1000
0010
0100
1000
0100
0000
,  // measure 14
0001
0010
0100
1000
0100
0001
0100
0000
,  // measure 15
1000
0001
1000
0010
0001
0010
0100
0000
,  // measure 16
1000
0100
0001
0100
0010
1000
0001
0000
,  // measure 17
1000
0100
0001
0100
0010
0001
0100
0000
,  // measure 18
0010
1000
0010
0100
1000
0100
0001
0000
,  // measure 19
1100
0000
0001
0100
0010
1000
0100
0000
,  // measure 20
0011
0000
0100
1000
0001
0100
0010
0000
,  // measure 21
1010
0000
0100
0001
0010
0100
1000
0000
,  // measure 22
0101
0000
0001
1000
0100
0010
0100
1000
,  // measure 23
1001
0000
0001
0100
0010
1000
0100
0000
,  // measure 24
0110
0000
0001
1000
0100
0010
0100
0000
,  // measure 25
1100
0000
0010
0001
1000
0010
0100
0000
,  // measure 26
1001
0000
1000
0010
0100
0001
0010
0100
,  // measure 27
2100
0000
0000
0001
0001
0000
0000
0010
,  // measure 28
0000
0010
0000
0001
3001
0000
0100
1000
,  // measure 29
0002
0000
0000
1000
1000
0000
0000
0010
,  // measure 30
0000
0010
0000
1000
1003
0000
0100
0001
,  // measure 31
2000
0000
0000
0001
0001
0000
0000
0100
,  // measure 32
0000
0100
0000
0001
3001
0000
0010
1000
,  // measure 33
0002
0000
0000
1000
1000
0000
0000
0100
,  // measure 34
0000
0100
0000
1000
1003
0000
0010
0001
,  // measure 35
1000
0001
1000
0001
0100
0010
0100
0010
,  // measure 36
1000
0100
1000
0100
0010
0001
0010
0001
,  // measure 37
1000
0010
1000
0010
0100
0001
0100
0001
,  // measure 38
1000
0100
0010
0100
1000
0001
0100
0010
,  // measure 39
1000
0100
0010
0100
1000
0100
0001
0100
,  // measure 40
1000
0010
0100
0010
1000
0010
0001
0010
,  // measure 41
1000
0001
0010
0100
1000
0001
0100
0101
,  // measure 42
0000
1100
0000
1010
0000
0011
0000
1001
,  // measure 43
0000
0001
0100
0000
0010
1000
0000
1100
,  // measure 44
0000
0101
0000
1001
0000
0110
0000
0000
,  // measure 45
1001
0000
1001
0000
0001
0100
0000
0100
,  // measure 46
0000
0100
0010
0000
1000
0100
0001
0000
,  // measure 47
0200
0000
0300
0000
1000
0010
0100
0001
,  // measure 48
0000
1000
0000
0001
0000
1000
0100
0000
,  // measure 49
0011
0000
0011
0000
0001
0100
0010
1000
,  // measure 50
0100
0010
0001
1000
0100
0100
0100
0000
,  // measure 51
1100
0000
0101
0000
1000
0010
0000
0100
,  // measure 52
0000
0001
0000
1000
0100
0010
0001
0000
,  // measure 53
0001
0100
0000
0100
0000
0100
0000
0100
,  // measure 54
0010
1000
0000
1000
0000
1000
0000
1000
,  // measure 55
0100
0010
0000
0010
0000
0010
0000
0010
,  // measure 56
0001
0100
0000
0100
0000
0100
0000
0100
,  // measure 57
0010
0001
0000
0001
0000
0001
0000
0001
,  // measure 58
0010
1000
0000
1000
0000
1000
0000
1000
,  // measure 59
0100
0001
0000
0001
0000
0001
0000
0001
,  // measure 60
1100
0000
1100
0000
1000
0001
1000
0001
,  // measure 61
1001
0000
0000
0000
0110
0000
0000
1000
0001
0000
1000
0000
0100
0000
0010
0000
,  // measure 62
0000
0011
0000
1100
0000
1010
0000
0101
,  // measure 63
0000
0000
0001
0000
0100
0000
0000
0010
0100
0000
0001
0000
1000
0000
0100
0000
,  // measure 64
0000
0110
0000
0011
0000
0001
0100
0000
,  // measure 65
1001
0000
0000
0000
0110
0000
0000
0001
1000
0000
0001
0000
0100
0000
0010
0000
,  // measure 66
0000
1010
0000
0101
0000
0011
0000
1100
,  // measure 67
0000
0000
1000
0000
0100
0000
0000
0010
0100
0000
1000
0000
0001
0000
0100
0000
,  // measure 68
0000
0110
0000
1010
0000
1000
0100
0000
,  // measure 69
2002
0000
0000
0000
,  // measure 70
0000
0000
0000
0000
,  // measure 71
3003
0000
0000
0000
;

//---------------dance-single - ----------------
#NOTES:
     dance-single:
     :
     Medium:
     10:
     0.500,0.537,0.010,0.020,0.000:
0000
0000
0000
0000
,
0000
0000
0000
0000
,
0001
0000
0100
0000
0001
0000
1000
0100
,
0000
0010
0000
0100
0000
1000
0000
0001
,
0100
0000
0010
0000
1000
0000
0100
0010
,
0000
0100
0000
1000
0000
0001
0100
0000
,
0010
0000
1000
0000
0001
0000
0100
0010
,
0000
1000
0000
0100
0000
0010
0000
0001
,
0100
0000
0001
0000
1000
0000
0100
0010
,
0000
0100
0000
1000
0001
0000
1000
0000
,
0001
0000
0001
0000
0001
0100
0010
0000
,
1000
0000
1000
0000
1000
0100
0010
0000
,
0001
1000
0100
0000
0010
1000
0001
0000
,
0100
0010
1000
0100
0000
0001
0100
0000
,
0010
0000
1000
0000
0001
0100
0010
0000
,
1000
0000
0001
0000
1000
0100
0000
0010
,
0000
0100
1000
0000
0001
0000
0100
0010
,
0000
0100
0001
0000
1000
0100
0010
0000
,
0001
0000
0100
0001
0100
0000
0010
0000
,
1000
0000
0100
0010
0100
0000
1000
0000
,
0001
0100
1000
0000
1000
0100
0001
0000
,
0010
0100
1000
0001
0010
0001
0100
0000
,
1000
0010
0100
0000
0001
1000
0100
0000
,
1000
0001
0000
0010
0000
0100
0000
0001
,
0000
1000
0100
0000
0010
0000
0001
0100
,
0000
0001
1000
0000
0100
0000
0010
0100
,
1000
0000
0001
0000
0100
0000
0000
0001
,
0000
1000
0000
0100
0010
0000
0001
0000
,
0100
0000
0010
0000
1000
0000
0000
0001
,
0000
1000
0000
0100
0010
0000
0100
0000
,
1000
0000
0001
0000
0010
0000
0000
1000
,
0000
0001
0000
0100
1000
0000
0100
0000
,
0001
0010
1000
0100
,
0001
0100
1000
0010
0100
0001
1000
0000
,
0001
0100
0010
0000
0010
0100
0001
0000
,
1000
0100
0010
0000
0010
0100
1000
0000
,
0010
0100
1000
0000
0001
0010
0100
0000
,
0001
0100
0010
0000
1000
0010
0100
0000
,
0001
0100
0001
0100
0010
1000
0010
0000
,
1000
0100
1000
0100
0010
0001
0010
0000
,
0001
0100
0010
0000
1000
0100
0010
0100
,
0000
1000
0000
0001
0000
0100
0000
0010
,
0000
1000
0100
0000
1000
0001
0000
0100
,
0000
0010
0000
0100
0000
0001
0000
0000
,
1000
0000
1000
0000
0100
0010
0000
0100
,
0000
0010
0100
0000
1000
0001
0100
0000
,
0010
0000
0010
0000
0010
0000
0100
0010
,
0000
0100
0000
0001
0000
1000
0100
0000
,
0010
0100
0001
0000
1000
0010
0100
0000
,
0001
1000
0100
0010
0000
0100
1000
0000
,
0001
0000
1000
0000
0001
0100
0000
0010
,
0000
1000
0000
0001
1000
0000
0100
0000
,
0010
0000
0010
0100
0000
1000
0100
0010
,
0001
0000
1000
0010
0000
0100
0001
1000
,
0100
0000
0100
1000
0000
0001
0100
0010
,
1000
0000
0001
1000
0000
0001
0100
0010
,
1000
0000
0001
0010
0000
1000
0100
0010
,
0001
0000
1000
0100
0000
0001
0010
0100
,
1000
0000
0001
0100
0000
0010
0100
0001
,
1000
0000
0001
0000
1000
0100
0001
0010
,
0001
0000
0100
0000
0001
0000
1000
0100
,
0000
0010
0000
0100
0000
1000
0000
0001
,
0100
0000
0010
0000
1000
0000
0100
0010
,
0000
0100
0000
1000
0000
0001
0100
0000
,
0010
0000
1000
0000
0001
0000
0100
0010
,
0000
1000
0000
0100
0000
0010
0000
0001
,
0100
0000
0001
0000
1000
0000
0100
0010
,
0000
0100
0000
1000
0001
0000
1000
0000
,
2002
0000
0000
0000
,
0000
0000
0000
0000
,
3003
0000
0000
0000
;

//---------------dance-single - ----------------
#NOTES:
     dance-single:
     :
     Easy:
     6:
     0.278,0.278,0.000,0.082,0.000:
0000
0000
0000
0000
,
0000
0000
0000
0000
,
1000
0000
0001
0000
,
1000
0100
0010
0001
,
1000
0000
0001
0000
,
1000
0010
0100
0001
,
1000
0000
0001
0000
,
1000
0100
0010
0001
,
1000
0000
0001
0000
,
1000
0010
0100
0001
,
1000
0000
0001
0000
,
1000
0100
0001
0100
,
1000
0000
0001
0000
,
1000
0100
0001
0100
,
1000
0000
0001
0000
,
1000
0100
0001
0000
,
0100
0000
1000
0000
,
0001
0100
1000
0000
,
0100
0000
0001
0000
,
1000
0000
0001
0000
,
1000
0000
0010
0000
,
0100
0001
0010
0100
,
1000
0000
0001
0000
,
0100
0000
0010
0000
,
1000
0000
0001
0000
,
0010
0100
1000
0001
,
0200
0000
0300
0000
,
0020
0000
0030
0000
,
2000
0000
3000
0000
,
0002
0000
0003
0000
,
0200
0000
0300
0000
,
0020
0000
0030
0000
,
2000
0000
3000
0000
,
0002
0000
0003
0000
,
0010
0100
1000
0100
,
0010
0001
0100
0000
,
0010
1000
0010
0100
,
0001
0010
0100
0000
,
1000
0001
0100
0001
,
0010
0100
1000
0000
,
0001
0100
0010
1000
,
0100
0010
0001
0000
,
0100
0001
1000
0100
,
0010
0000
0100
0000
,
0100
0000
1000
0001
,
0100
0000
0000
0000
,
0010
0000
0010
0100
,
0010
0100
0001
1000
,
0100
0100
0100
0000
,
0010
0100
1000
0000
,
1000
0000
0001
0000
,
1000
0001
0010
0000
,
0001
0100
0001
0100
,
1000
0100
1000
0000
,
0100
0001
0100
0001
,
1000
0100
1000
0000
,
0001
0010
0001
0010
,
1000
0010
1000
0000
,
0010
0001
0010
0001
,
1000
0010
0000
0000
,
1000
0000
0001
0000
,
1000
0100
0010
0001
,
1000
0000
0001
0000
,
1000
0010
0100
0001
,
1000
0000
0001
0000
,
1000
0100
0010
0001
,
1000
0000
0001
0000
,
1000
0010
0100
0001
,
1000
0000
0000
0000
;

//---------------dance-single - ----------------
#NOTES:
     dance-single:
     :
     Beginner:
     3:
     0.148,0.209,0.000,0.000,0.000:
0000
0000
0000
0000
,
0000
0000
0000
0000
,
1000
0000
0000
0000
,
0001
0000
0001
0000
,
0001
0000
0000
0000
,
0100
0000
0100
0000
,
0100
0000
0000
0000
,
0010
0000
0010
0000
,
0010
0000
0000
0000
,
1000
0000
1000
0000
,
1000
0000
0000
0000
,
0001
0000
0000
0000
,
1000
0000
0000
0000
,
0001
0000
0001
0000
,
0001
0000
0000
0000
,
0100
0000
0000
0000
,
0010
0000
0000
0000
,
0100
0000
0100
0000
,
0100
0000
0000
0000
,
0001
0000
0000
0000
,
1000
0000
0000
0000
,
0100
0000
0100
0000
,
0100
0000
0000
0000
,
0010
0000
0000
0000
,
0001
0000
0000
0000
,
1000
0000
1000
0000
,
1000
0000
0000
0001
,
0001
0000
0000
0100
,
0100
0000
0000
0010
,
0010
0000
0000
1000
,
1000
0000
0000
0100
,
0100
0000
0000
0010
,
0010
0000
0000
0001
,
0001
0000
0000
0000
,
0010
0000
0010
0000
,
0100
0000
0100
0000
,
0010
0000
0010
0000
,
0100
0000
0000
0000
,
0001
0000
0001
0000
,
1000
0000
1000
0000
,
0001
0000
0001
0000
,
0100
0000
0000
0000
,
0100
0000
0000
0000
,
0100
0000
0000
0000
,
0001
0000
0000
0000
,
0000
0000
0000
0000
,
0010
0000
0000
0000
,
0010
0000
0000
0000
,
0100
0000
0000
0000
,
0100
0000
0000
0000
,
0001
0000
0001
0000
,
0001
0000
0000
0000
,
1000
0000
1000
0000
,
0001
0000
0001
0000
,
1000
0000
1000
0000
,
0001
0001
0001
0000
,
1000
0000
1000
0000
,
0001
0000
0001
0000
,
1000
0000
1000
0000
,
0001
0001
0000
0000
,
1000
0000
0000
0000
,
0001
0000
0001
0000
,
0001
0000
0000
0000
,
0100
0000
0100
0000
,
0100
0000
0000
0000
,
0010
0000
0010
0000
,
0010
0000
0000
0000
,
1000
0000
1000
0000
,
1000
0000
0000
0000
;
