#TITLE:gentle stress;
#SUBTITLE:;
#ARTIST:DJ Swan;
#TITLETRANSLIT:gentle stress;
#SUBTITLETRANSLIT:;
#ARTISTTRANSLIT:DJ Swan;
#GENRE:;
#CREDIT:;
#MENUCOLOR:;
#METERTYPE:DDR;
#BANNER:gentle stress.png;
#BACKGROUND:gentle stress-bg.png;
#LYRICSPATH:;
#CDTITLE:;
#MUSIC:gentle stress.mp3;
#OFFSET:-0.029;
#SAMPLESTART:52.123;
#SAMPLELENGTH:12.000;
#SELECTABLE:YES;
#LISTSORT:;
#BPMS:0.000=175.000;
#STOPS:;
#BGCHANGES:;
#ATTACKS:;

//---------------dance-single - ----------------
#NOTES:
     dance-single:
     :
     Hard:
     11:
     0.535,0.566,0.267,0.042,0.000:
0000
0000
0000
0000
,
0000
0000
0000
0000
,
1000
0100
0000
0100
,
0000
0100
0000
0100
,
1000
0010
0000
0010
,
0000
0010
0000
0010
,
0100
0001
0000
0001
,
0000
0001
0000
0001
,
0010
0100
0000
0100
,
0000
0100
0000
0100
,
1000
0100
0000
0100
,
0000
0100
0000
0100
,
0010
0001
0000
0001
,
0000
0001
0000
0001
,
0100
0010
0000
0010
,
0000
0010
0000
0010
,
1000
0001
0000
0001
,
1000
0001
0000
0001
,
1000
0000
1001
0000
0000
0001
0100
0000
,
0010
1000
0100
0000
0010
0000
0011
0000
,
0100
0000
1100
0000
0000
0001
0100
0000
,
0001
0010
0100
0000
1000
0000
1100
0000
,
0001
0000
1001
0000
0000
1000
0010
0000
,
0100
0001
0010
0000
0100
0000
1100
0000
,
0010
0000
0011
0000
0000
0100
1000
0000
,
0010
1000
0100
0000
0001
0000
0101
0000
,
0100
1000
0010
0000
0100
0000
0001
0000
,
1000
0100
0010
0100
1000
0001
0100
0000
,
0010
0100
0001
0000
0010
0000
0100
0000
,
1000
0001
0100
0001
0010
0100
1000
0000
,
0001
0100
0010
0000
0100
0000
0001
0000
,
1000
0100
0010
0100
1000
0001
0100
0000
,
0010
1000
0001
0000
0100
0000
0010
0000
,
1000
0100
1000
0001
0100
0010
0100
0000
,
1001
0100
0000
0100
,
0000
0100
0000
0100
,
0001
1000
0001
1000
0001
1000
0001
1000
,
0010
0010
0100
0010
0010
0000
0110
0000
,
0001
1000
0100
0000
0010
0001
0010
0000
,
0100
0000
1000
0001
0100
0010
0100
0000
,
0001
0010
0100
0000
1000
0001
1000
0000
,
0010
0000
0100
0001
0010
0100
1000
0000
,
0001
0100
0001
0000
1000
0100
1000
0000
,
0010
0000
0100
0001
0010
0100
1000
0000
,
0001
0100
0001
0000
1000
0010
0000
0010
,
0220
0000
0000
0330
,
0110
0000
1001
0000
0010
1000
0100
0000
,
0010
0001
0100
0010
0100
0001
0010
0100
,
1000
0000
1001
0000
0100
0010
0100
0000
,
0001
0000
1001
0000
0000
1001
0000
0000
,
0110
0000
1001
0000
0001
0010
0100
0000
,
1000
0000
0001
0100
0010
0100
0001
1000
,
0010
1000
0001
0000
0100
0010
0000
1000
,
2002
0000
0000
3003
,
1000
0100
0010
0001
1000
0100
0010
0001
,
1000
0100
0010
0001
0000
0100
0001
0010
,
0001
0100
0010
1000
0001
0100
0010
1000
,
0001
0100
0010
1000
0000
0001
0100
0001
,
0010
0000
0110
0000
0000
1100
0000
0000
,
0110
0000
0000
0011
0000
0000
0101
0000
,
0001
0100
0010
1000
0100
0010
0001
1000
,
0200
0000
0000
0300
,
1000
0001
0100
0010
1000
0001
0100
0010
,
1000
0001
0100
0010
0000
1000
0001
1000
,
0100
0010
0001
1000
0100
0010
0001
1000
,
0100
0010
0001
1000
0000
0100
0010
0001
,
0100
0000
0101
0000
0000
1100
0000
0000
,
1010
0000
0000
0011
0000
0000
1001
0000
,
0010
0100
0010
0010
1000
0001
1000
1000
,
0100
0100
0010
0100
0100
0000
1001
0000
,
0010
1000
0100
0000
0010
0001
0000
0100
,
0010
0000
1000
0100
0001
0100
1000
0000
,
0001
1000
0100
0000
0010
0100
0000
1000
,
0001
0000
0100
0010
0001
0010
0100
0000
,
0001
0010
0100
0000
1000
0100
0000
0001
,
0100
0000
1000
0010
0000
0001
0010
1000
,
0100
0010
0001
0000
1000
0010
0100
0000
,
0001
1000
0100
0010
0100
1000
0001
0000
,
1001
0001
1000
0000
0100
0010
0000
0001
,
1000
0000
0010
0100
0001
0100
0010
0000
,
1000
0100
0010
0000
0001
0100
0000
1000
,
0100
0000
0010
0001
0010
1000
0010
0000
,
0100
0001
0010
0000
0100
1000
0000
0100
,
0001
0000
0100
1000
0000
0010
0100
0001
,
1000
0001
0100
0000
0010
0100
0000
0110
;

//---------------dance-single - ----------------
#NOTES:
     dance-single:
     :
     Medium:
     7:
     0.320,0.424,0.008,0.033,0.000:
0000
0000
0000
0000
,
0000
0000
0000
0000
,
0010
0100
0000
0100
,
0000
0100
0000
0100
,
0000
1000
0000
1000
,
0000
1000
0000
1000
,
0010
0100
0000
0100
,
0000
0100
0000
0100
,
0000
0001
0000
0001
,
0000
0001
0000
0001
,
0010
0100
0000
0100
,
0000
0100
0000
0100
,
0000
1000
0000
1000
,
0000
1000
0000
1000
,
0010
0100
0000
0100
,
0000
0100
0000
0100
,
0000
0001
0000
0001
,
0000
0001
0000
0001
,
1000
0100
0000
0100
,
0010
0000
0001
0000
1000
0001
1000
0000
,
0010
0100
0000
0100
,
0001
0000
1000
0000
0100
0010
0100
0000
,
1000
0001
0000
0001
,
0100
0000
0010
0000
0100
0001
0100
0000
,
0010
1000
0000
1000
,
0100
0000
0010
0000
0100
1000
0100
0000
,
0010
0001
1000
0100
,
0010
0000
0001
0000
1000
0010
1000
0000
,
0001
0100
0010
1000
,
0001
0000
0100
0000
0010
1000
0010
0000
,
0100
0001
1000
0100
,
0010
0000
0001
0000
1000
0001
1000
0000
,
0010
1000
0001
0010
,
0100
0000
1000
0000
0001
1000
0001
0000
,
0200
0000
0000
0000
,
0000
0000
0000
0300
,
0001
1000
0001
1000
,
0001
1000
0001
1000
0001
0000
1000
0000
,
0010
0000
0100
0000
0000
0001
0000
0000
,
0100
0000
0000
0001
0000
0000
0000
0000
,
1000
0000
0100
0000
0000
1000
0000
0000
,
0100
0000
0000
1000
0000
0000
0000
0000
,
0010
0000
0100
0000
0000
0010
0000
0000
,
0100
0000
0000
0010
0000
0000
0000
0000
,
1000
0000
0001
0000
0000
1000
0000
0000
,
0001
0000
0000
1000
0000
0000
0000
0000
,
0010
0000
0100
0000
0000
0001
0000
0000
,
0100
0000
0000
0010
0000
0000
1000
0000
,
0100
0000
0010
0000
0000
0100
0000
0000
,
1000
0000
0000
0001
0000
0000
0100
0000
,
0010
0000
1000
0000
0000
0001
0000
0000
,
0100
0000
0000
0001
0000
0000
1000
0000
,
0100
0000
0010
0000
0000
0001
0000
0000
,
0200
0000
0000
0300
,
0010
0100
0010
0100
,
0010
0100
0000
0100
,
0001
1000
0001
1000
,
0001
1000
0000
1000
,
0100
0000
0010
0000
0000
0001
0000
0000
,
1000
0000
0000
0100
0000
0000
0010
0000
,
0001
0100
0010
1000
,
0002
0000
0000
0003
,
1000
1000
0001
0001
,
1000
0001
0000
1000
,
0010
0010
0100
0100
,
0010
0100
0000
0100
,
0001
0000
0010
0000
0000
0100
0000
0000
,
1000
0000
0000
0001
0000
0000
0100
0000
,
0010
1000
0001
0100
,
0010
1000
0001
0100
0010
0000
0110
0000
,
0001
0100
0001
0100
,
0010
1000
0000
1000
,
0100
0010
0100
0010
,
0001
0100
0000
0100
,
0010
1000
0010
1000
,
0100
0010
0000
0010
,
0001
0100
0001
0100
,
0020
0000
0000
0030
,
1000
0100
0010
0001
,
1000
0100
0000
0010
,
0001
0100
0010
1000
,
0001
0100
0000
0010
,
1000
0100
0010
0001
,
1000
0100
0000
0010
,
0001
0000
0100
0000
0010
0000
0100
0010
;

//---------------dance-single - ----------------
#NOTES:
     dance-single:
     :
     Easy:
     5:
     0.220,0.248,0.017,0.058,0.000:
0000
0000
0000
0000
,
0000
0000
0000
0000
,
0010
0000
0000
0000
,
0100
0000
0000
1000
,
0100
0000
0000
0000
,
0010
0000
0000
0001
,
0100
0000
0000
0000
,
0010
0000
0000
1000
,
0100
0000
0000
0000
,
0010
0000
0000
0001
,
0100
0000
0000
0000
,
0001
0000
0000
0010
,
0100
0000
0000
0000
,
1000
0000
0000
0010
,
0100
0000
0000
0000
,
0001
0000
0000
0010
,
0100
0000
0000
0000
,
1000
0000
0000
0010
,
0100
0000
0100
0000
,
0001
0100
1000
0000
,
0100
0000
0100
0000
,
1000
0100
0001
0000
,
0100
0000
0100
0000
,
0001
0100
1000
0000
,
0100
0000
0100
0000
,
1000
0100
0001
0000
,
0010
0000
0010
0000
,
0001
0010
1000
0000
,
0010
0000
0010
0000
,
1000
0010
0001
0000
,
0010
0000
0010
0000
,
0001
0010
1000
0000
,
0010
0000
0010
0000
,
1000
0010
0001
0000
,
0200
0000
0000
0000
,
0300
0000
0000
0000
,
2002
0000
0000
0000
,
0000
0000
0000
3003
,
0010
0000
0010
0000
,
0100
0100
0100
0000
,
0001
0000
0001
0000
,
1000
1000
1000
0000
,
0100
0000
0100
0000
,
0010
0010
0010
0000
,
0001
0000
0001
0000
,
2000
0000
0000
3000
,
0010
0000
0100
0000
,
0010
0100
0000
0100
,
0001
0000
0001
0000
,
0001
0010
0000
0010
,
0100
0000
0100
0000
,
0100
1000
0000
1000
,
0010
0000
0010
0000
,
0020
0000
0000
0030
,
1000
1000
1000
1000
,
1000
1000
0000
0000
,
0001
0001
0001
0001
,
0001
0001
0000
0000
,
1000
0000
0100
0000
,
0010
0000
0001
0000
,
1000
1000
1000
1000
,
2000
0000
0000
3000
,
0100
0100
0100
0100
,
0100
0100
0000
0000
,
0010
0010
0010
0010
,
0010
0010
0000
0000
,
0001
0000
0100
0000
,
0010
0000
1000
0000
,
0200
0000
0000
0000
,
0000
0000
0000
0300
,
0010
0000
0010
0000
,
0001
0001
0001
0000
,
1000
0000
1000
0000
,
0001
0001
0001
0000
,
0100
0000
0010
0000
,
1000
0000
0001
0000
,
0010
0000
0100
0000
,
1000
0000
0001
0000
,
0100
0000
0100
0000
,
0010
1000
0010
0000
,
0100
0000
0100
0000
,
0001
0010
0001
0000
,
0100
0000
0100
0000
,
0010
1000
0010
0000
,
0100
0000
0001
0000
,
1001
0000
0000
0000
;

//---------------dance-single - ----------------
#NOTES:
     dance-single:
     :
     Beginner:
     2:
     0.113,0.142,0.000,0.017,0.000: // measure 1
0000
0000
0000
0000
,  // measure 2
0000
0000
0000
0000
,  // measure 3
0000
0000
0000
0000
,  // measure 4
0000
0000
0000
0000
,  // measure 5
0000
0000
0000
0000
,  // measure 6
0000
0000
0000
0000
,  // measure 7
1000
0000
0000
0000
,  // measure 8
1000
0000
0000
0000
,  // measure 9
0001
0000
0000
0000
,  // measure 10
0001
0000
0000
0000
,  // measure 11
1000
0000
0000
0000
,  // measure 12
1000
0000
0000
0000
,  // measure 13
0001
0000
0000
0000
,  // measure 14
0001
0000
0000
0000
,  // measure 15
1000
0000
0000
0000
,  // measure 16
1000
0000
0000
0000
,  // measure 17
0001
0000
0000
0000
,  // measure 18
0001
0000
0000
0000
,  // measure 19
0100
0000
0100
0000
,  // measure 20
0100
0000
0000
0000
,  // measure 21
0100
0000
0000
0000
,  // measure 22
0100
0000
0000
0000
,  // measure 23
0001
0000
0001
0000
,  // measure 24
0001
0000
0000
0000
,  // measure 25
0001
0000
0000
0000
,  // measure 26
0001
0000
0000
0000
,  // measure 27
1000
0000
1000
0000
,  // measure 28
1000
0000
0000
0000
,  // measure 29
1000
0000
0000
0000
,  // measure 30
1000
0000
0000
0000
,  // measure 31
0001
0000
0001
0000
,  // measure 32
0001
0000
0000
0000
,  // measure 33
0001
0000
0000
0000
,  // measure 34
0001
0000
0000
0000
,  // measure 35
0100
0000
0000
0000
,  // measure 36
0000
0000
0000
0000
,  // measure 37
0200
0000
0000
0000
,  // measure 38
0300
0000
0000
0000
,  // measure 39
1000
0000
1000
0000
,  // measure 40
1000
0000
0000
0000
,  // measure 41
0001
0000
0001
0000
,  // measure 42
0001
0000
0000
0000
,  // measure 43
0100
0000
0100
0000
,  // measure 44
0100
0000
0000
0000
,  // measure 45
0001
0000
0001
0000
,  // measure 46
0001
0000
0000
0000
,  // measure 47
1000
0000
1000
0000
,  // measure 48
1000
0000
0000
0000
,  // measure 49
0001
0000
0001
0000
,  // measure 50
0001
0000
0000
0000
,  // measure 51
1000
0000
1000
0000
,  // measure 52
1000
0000
0000
0000
,  // measure 53
0100
0000
0100
0000
,  // measure 54
0100
0000
0000
0000
,  // measure 55
0100
0000
0000
0000
,  // measure 56
0100
0000
0000
0000
,  // measure 57
0100
0000
0000
0000
,  // measure 58
0100
0000
0000
0000
,  // measure 59
1000
0000
0000
0000
,  // measure 60
1000
0000
0000
0000
,  // measure 61
0001
0000
0000
0000
,  // measure 62
0001
0000
0000
0000
,  // measure 63
1000
0000
0000
0000
,  // measure 64
1000
0000
0000
0000
,  // measure 65
0001
0000
0000
0000
,  // measure 66
0001
0000
0000
0000
,  // measure 67
0100
0000
0000
0000
,  // measure 68
0100
0000
0000
0000
,  // measure 69
0200
0000
0000
0000
,  // measure 70
0300
0000
0000
0000
,  // measure 71
1000
0000
0000
0000
,  // measure 72
0001
0000
0000
0000
,  // measure 73
1000
0000
1000
0000
,  // measure 74
1000
0000
0000
0000
,  // measure 75
0001
0000
0000
0000
,  // measure 76
1000
0000
0000
0000
,  // measure 77
0001
0000
0001
0000
,  // measure 78
0001
0000
0000
0000
,  // measure 79
0100
0000
0000
0000
,  // measure 80
0100
0000
0000
0000
,  // measure 81
0001
0000
0001
0000
,  // measure 82
0001
0000
0000
0000
,  // measure 83
1000
0000
0000
0000
,  // measure 84
1000
0000
0000
0000
,  // measure 85
0100
0000
0100
0000
,  // measure 86
0100
0000
0000
0000
;
