#TITLE:brave!;
#SUBTITLE:;
#ARTIST:TЁЯRA;
#TITLETRANSLIT:brave!;
#SUBTITLETRANSLIT:;
#ARTISTTRANSLIT:TERRA;
#GENRE:;
#CREDIT:;
#MENUCOLOR:;
#METERTYPE:DDR;
#BANNER:brave!.png;
#BACKGROUND:brave!-bg.png;
#LYRICSPATH:;
#CDTITLE:cdtitle.png;
#MUSIC:brave!.mp3;
#OFFSET:-0.037;
#SAMPLESTART:49.190;
#SAMPLELENGTH:15.000;
#SELECTABLE:YES;
#LISTSORT:;
#BPMS:0.000=180.000;
#STOPS:;
#BGCHANGES:;
#ATTACKS:;

//---------------dance-single - ----------------
#NOTES:
     dance-single:
     :
     Hard:
     12:
     0.657,0.665,0.349,0.041,0.015:
0000
0000
0000
0000
,
0000
0000
0000
0000
,
0000
0000
0000
0000
,
0000
0000
0000
0000
,
0000
1000
0001
1000
0001
0100
0010
0100
,
0001
0000
0010
0100
1000
0100
0001
0000
,
0100
0000
1000
0010
0001
0010
0100
0000
,
0001
0000
1000
0010
0100
0010
0001
0000
,
0010
0000
1000
0001
0100
1000
0100
0000
,
0001
0000
1000
0001
0010
0001
1000
0000
,
0010
0000
1000
0010
0100
1000
0100
0000
,
0010
0000
1000
0100
0001
0100
1000
0000
,
0001
0100
0001
0100
0010
1000
0100
0010
,
0001
1000
1001
0000
0000
0100
0110
0000
,
1001
0000
0110
0000
0010
1000
0100
0000
,
0010
0001
0100
1000
0100
0001
0010
0001
,
0100
0001
0010
1000
0000
0010
0001
0100
,
0010
1000
0010
1000
0100
0010
0000
0001
,
0100
0001
0100
1000
0100
0010
0000
1000
,
0100
0001
0100
0010
0100
1000
0010
0001
,
0010
0100
0001
0000
1100
0000
0101
0000
,
1000
0000
0001
1000
0100
0100
0010
0000
,
0001
0000
0100
0000
0010
1000
0001
0010
,
0100
0000
1000
0100
0010
0010
0001
0000
,
0010
0000
0100
0001
0100
1000
0100
0010
,
0001
0000
0100
0010
1000
1000
0001
0000
,
1000
0100
0001
0100
1000
0001
0100
0000
,
0010
0100
1000
0100
0010
0100
0001
0100
,
0110
0101
1001
1100
,
0001
0000
1000
0001
0100
0100
0010
0000
,
1000
0000
0100
0000
0010
0001
1000
0010
,
0100
0000
0001
0100
0010
0010
1000
0000
,
0010
0000
0100
1000
0100
0001
0100
0010
,
1000
0000
0100
0010
0001
0001
1000
0000
,
0001
0100
1000
0100
0001
1000
0100
0000
,
0010
0100
1000
0100
0010
0100
0001
0100
,
0110
0000
1100
0000
1001
0000
0000
0010
,
0010
0100
0100
0000
0000
1100
0101
0000
,
0010
0000
0100
0001
0100
1000
0100
0000
,
0010
0000
1000
0100
0001
0100
1000
0010
,
0100
0001
0100
0010
0000
1000
1000
0100
,
0010
0000
0100
1000
0001
0100
0010
0000
,
0100
0000
0001
0010
0100
0001
0100
0000
,
1000
0000
0010
0100
1000
0100
0001
1000
,
0100
0001
0100
1000
0000
0010
0010
0100
,
0001
0000
0011
0010
0100
1000
0010
0000
,
0100
0000
1010
0010
0100
0001
1000
0000
,
0110
0000
0001
0100
1000
0000
0100
0001
,
0010
0100
0010
0100
0000
1000
0001
1000
,
0010
0000
0101
0001
1000
0100
0010
0000
,
0100
0000
1100
1000
0001
0100
0010
0100
,
0001
0100
0001
1000
0100
0010
0100
0010
,
2002
0000
0000
3003
,
1000
0000
0001
0100
0000
1000
0100
0000
,
0001
0000
1000
0010
0000
0001
0010
0000
,
1000
0000
0100
0001
0000
0100
1000
0000
,
0010
0000
0100
0001
0000
0100
1000
0100
,
0010
0000
1000
1100
0000
0001
0101
0000
,
0010
0000
0001
0011
0000
1000
1010
0000
,
0100
0000
0001
1001
0000
0100
0110
0000
,
0000
0010
0100
0110
1001
0000
0110
0000
,
0010
1000
0100
1000
0010
0100
0001
0000
,
0010
0001
0010
0100
1000
0001
0100
0000
,
1000
0100
0001
0010
0100
1000
0001
0000
,
0100
1000
0100
0010
0100
0001
0010
0000
,
1000
0010
0001
0100
0010
1000
0100
0000
,
0010
0100
1000
0100
0001
0100
1000
0000
,
0001
0100
0010
0000
1000
0100
0010
0000
,
0100
1000
0000
0000
0001
0100
0000
0000
0101
0000
0000
0000
1100
0000
0000
0000
,
1001
0000
0000
0000
0000
0000
0000
0100
,
0110
0000
0000
0000
0000
0000
0000
0000
0010
0000
1000
0000
0000
0000
0001
2000
,
0002
0000
0000
0000
,
3003
0000
0000
0000
;

//---------------dance-single - ----------------
#NOTES:
     dance-single:
     :
     Medium:
     10:
     0.509,0.518,0.103,0.144,0.000:
0000
0000
0000
0000
,
0000
0000
0000
0000
,
0000
0000
0000
0000
,
0000
0000
0000
0000
,
0000
0001
1000
0001
1000
0010
0100
0000
,
0001
0000
1000
0000
0001
0010
0100
0000
,
1000
0000
0001
0000
1000
0010
0100
0000
,
0001
0000
0010
0000
0100
1000
0010
0000
,
1000
0000
0100
0000
0010
0001
0100
0010
,
0001
0000
0010
0000
0100
0010
1000
0000
,
0001
0000
1000
0000
0100
0010
0001
0000
,
1000
0001
1000
0000
0001
1000
0001
0000
,
0100
0010
0100
0000
0010
0100
0010
0100
,
0010
1000
0001
0000
0000
1000
0001
0000
,
0100
0000
0010
0000
0100
0001
1000
0000
,
0100
0000
0010
0000
0100
1000
0001
0000
,
0001
0100
0001
0100
0000
0010
1000
0000
,
0001
0000
1000
0000
0100
0010
0001
0000
,
0010
0000
0100
0000
1000
0001
0100
0000
,
0010
0000
1000
0000
0001
1000
0100
0000
,
0100
1000
0001
1000
0000
0010
0100
0000
,
0001
1000
0100
0100
,
0010
0100
1000
0000
0001
0010
0100
0000
,
1000
0010
0100
0100
,
0010
1000
0001
0000
0010
0100
1000
0000
,
0001
0100
1000
0100
,
0010
1000
0001
0000
0010
0001
0100
0000
,
0010
0000
1000
0000
0001
0010
0100
0000
,
2000
3020
0230
0302
,
1003
0000
0100
0000
0001
0100
1000
0000
,
0001
0000
0100
0000
0010
1000
0001
0000
,
1000
0000
0100
0000
0001
0100
1000
0000
,
0001
0000
0100
0000
0010
0100
0001
0000
,
1000
0000
0010
0000
0001
0010
1000
0000
,
0001
0000
0010
0000
0100
0001
0100
0000
,
1000
0000
0010
0000
0100
0010
1000
0000
,
0001
0000
1000
0000
1001
0000
0000
0100
,
0010
0100
0010
0000
0000
1000
0001
0000
,
0010
0000
0100
0000
1000
0010
0001
0000
,
0100
0000
0010
0000
0100
0001
1000
0000
,
0100
0010
0100
0010
0000
0100
1000
0000
,
0001
0000
0100
0000
0010
0001
1000
0000
,
0001
0000
0010
0000
0100
0010
1000
0000
,
0010
0000
0001
0000
0100
0010
1000
0000
,
0001
1000
0001
1000
0000
0100
0010
0000
,
0200
0000
1300
0001
0100
0000
0010
0000
,
0200
0000
0301
1000
0100
0000
0010
0000
,
0100
1000
0100
0000
0010
0001
0010
0000
,
0100
1000
0001
0000
0100
0000
0110
0000
,
0020
0000
1030
0001
0010
0000
0100
0000
,
0020
0000
0031
1000
0010
0000
0100
0000
,
0001
0101
1000
1100
,
2002
0000
0000
3003
,
1000
0000
0000
1000
0000
0000
1000
0000
,
0100
0000
0000
0100
0000
0000
0100
0000
,
0001
0000
0000
0001
0000
0000
0001
0000
,
0010
0000
0000
0010
0000
0010
0010
0000
,
1000
0000
0000
0100
0000
0000
0010
0000
,
0001
0000
0000
0100
0000
0000
1000
0000
,
0001
0000
0000
0010
0000
0000
1000
0000
,
0000
0001
1000
0001
1000
0000
1001
0000
,
0001
0000
0100
0000
0010
0100
0001
0000
,
1000
0000
0100
0000
0010
0100
1000
0000
,
0001
0000
0100
0000
1000
0100
0001
0000
,
1000
0100
0010
0100
0000
1000
0001
0000
,
0100
0000
0010
0000
1000
0100
0010
0000
,
0001
0000
0100
0000
0001
0010
0100
0000
,
1000
0100
0001
0000
0001
0100
1000
0000
,
1020
0031
0021
1030
,
1001
0000
0000
0000
0000
0000
0000
0100
,
0100
0000
0000
0000
0001
1000
0000
0100
,
2002
0000
0000
0000
,
3003
0000
0000
0000
;

//---------------dance-single - ----------------
#NOTES:
     dance-single:
     :
     Easy:
     6:
     0.329,0.370,0.051,0.021,0.000:
0000
0000
0000
0000
,
0000
0000
0000
0000
,
0000
0000
0000
0000
,
0000
0000
0000
0000
,
0000
0000
0000
0000
,
1000
0100
0010
0100
,
1000
0100
0010
0100
,
1000
0100
0001
0100
,
1000
0100
0001
0000
,
0100
0010
0001
0010
,
0100
0010
0001
0010
,
0100
1000
0001
0100
,
0010
0010
0010
0010
,
0010
0000
0000
0000
,
0100
0001
0100
0001
,
1000
0100
0010
0100
,
1000
0001
0000
0001
,
1000
0100
0010
0001
,
1000
0100
0010
0001
,
1000
0010
0100
0001
,
1000
0001
0000
0001
,
0100
0010
0100
0000
,
1000
0001
1000
0000
,
0100
0010
0100
0000
,
0001
1000
0001
0000
,
0010
0100
0010
0000
,
1000
0001
1000
0000
,
0010
0100
0010
0000
,
0001
1000
0001
0000
,
0100
0010
1000
0000
,
0100
0010
0001
0000
,
0010
0100
1000
0000
,
0001
0100
1000
0000
,
0001
0010
1000
0000
,
0010
0001
1000
0000
,
0100
0001
1000
0000
,
0100
0010
0110
0000
,
0100
0100
0000
0100
,
0100
1000
0100
1000
,
0100
0010
0100
1000
,
0001
0100
0000
0100
,
0001
1000
0100
0010
,
0100
1000
0001
0100
,
0010
1000
0100
0010
,
0001
0100
0000
0100
,
0001
1000
0100
0010
,
0100
1000
0001
0100
,
0010
0100
0001
1000
,
0100
0001
0000
0001
,
0100
1000
0010
0001
,
1000
0100
0001
0010
,
0100
0100
0100
0100
,
0200
0000
0000
0300
,
1000
0000
0000
1000
,
0100
0000
0000
0100
,
0010
0000
0000
0010
,
0001
0000
0000
0001
,
0100
0000
0000
0100
,
0010
0000
0000
0010
,
1000
0000
0000
1000
,
0000
0001
1000
1001
,
0100
0001
0100
0001
,
1000
0100
1000
0100
,
0010
0001
0100
0001
,
0010
0100
1000
0000
,
0010
0100
0010
0100
,
0001
0100
0001
0100
,
1000
0100
0001
1000
,
0001
1000
1001
1001
,
1001
0000
0000
0000
0000
0000
0000
0100
,
0100
0000
0000
0000
0010
0000
0000
0100
,
0200
0000
0000
0000
,
0300
0000
0000
0000
;

//---------------dance-single - ----------------
#NOTES:
     dance-single:
     :
     Beginner:
     3:
     0.129,0.182,0.010,0.000,0.000: // measure 1
0000
0000
0000
0000
,  // measure 2
0000
0000
0000
0000
,  // measure 3
0000
0000
0000
0000
,  // measure 4
0000
0000
0000
0000
,  // measure 5
0000
0000
0000
0000
,  // measure 6
1000
0000
0000
0000
,  // measure 7
0001
0000
0000
0000
,  // measure 8
1000
0000
0000
0000
,  // measure 9
0001
0000
0000
0000
,  // measure 10
0100
0000
0000
0000
,  // measure 11
0010
0000
0000
0000
,  // measure 12
0100
0000
0100
0000
,  // measure 13
0100
0100
0100
0000
,  // measure 14
0100
0000
0000
0000
,  // measure 15
0100
0000
0000
0000
,  // measure 16
0001
0000
0000
0000
,  // measure 17
0001
0000
0000
0000
,  // measure 18
1000
0000
0000
0000
,  // measure 19
1000
0000
0000
0000
,  // measure 20
0100
0000
0000
0000
,  // measure 21
0100
0000
0000
0000
,  // measure 22
0010
0000
0000
0000
,  // measure 23
0001
0000
0001
0000
,  // measure 24
0001
0000
0000
0000
,  // measure 25
1000
0000
1000
0000
,  // measure 26
1000
0000
0000
0000
,  // measure 27
0010
0000
0010
0000
,  // measure 28
0010
0000
0000
0000
,  // measure 29
0100
0000
0100
0000
,  // measure 30
0100
0000
0000
0000
,  // measure 31
1000
0000
1000
0000
,  // measure 32
0001
0000
0000
0000
,  // measure 33
0001
0000
0001
0000
,  // measure 34
0100
0000
0000
0000
,  // measure 35
0100
0000
0100
0000
,  // measure 36
0010
0000
0000
0000
,  // measure 37
0010
0000
0010
0000
,  // measure 38
0010
0000
0000
0000
,  // measure 39
0100
0000
0000
0000
,  // measure 40
0100
0000
0100
0000
,  // measure 41
0100
0000
0000
0000
,  // measure 42
0001
0000
0001
0000
,  // measure 43
1000
0000
0000
0000
,  // measure 44
0001
0000
0001
0000
,  // measure 45
0001
0000
0000
0000
,  // measure 46
0100
0000
0100
0000
,  // measure 47
0010
0000
0000
0000
,  // measure 48
0100
0000
0100
0000
,  // measure 49
0100
0000
0000
0000
,  // measure 50
0001
0000
0000
0000
,  // measure 51
1000
0000
0000
0000
,  // measure 52
0100
0000
0100
0000
,  // measure 53
0100
0000
0000
0000
,  // measure 54
0100
0000
0000
0000
,  // measure 55
1000
0000
0000
0000
,  // measure 56
0001
0000
0000
0000
,  // measure 57
0100
0000
0000
0000
,  // measure 58
0001
0000
0000
0000
,  // measure 59
1000
0000
0000
0000
,  // measure 60
0100
0000
0000
0000
,  // measure 61
0000
1000
1000
0000
,  // measure 62
1000
0000
0000
0000
,  // measure 63
0001
0000
0000
0000
,  // measure 64
0100
0000
0000
0000
,  // measure 65
0010
0000
0010
0000
,  // measure 66
0010
0000
0000
0000
,  // measure 67
0100
0000
0000
0000
,  // measure 68
0001
0000
0000
0000
,  // measure 69
1000
0000
1000
0000
,  // measure 70
1000
0000
0000
0000
,  // measure 71
0001
0000
0000
0000
,  // measure 72
1001
0000
0000
0000
;
