#TITLE:White tornado;
#SUBTITLE:;
#ARTIST:Trick Trap;
#TITLETRANSLIT:White tornado;
#SUBTITLETRANSLIT:;
#ARTISTTRANSLIT:Trick Trap;
#GENRE:;
#CREDIT:;
#MENUCOLOR:;
#METERTYPE:DDR;
#BANNER:White tornado.png;
#BACKGROUND:White tornado-bg.png;
#LYRICSPATH:;
#CDTITLE:cdtitle.png;
#MUSIC:White tornado.mp3;
#OFFSET:-0.037;
#SAMPLESTART:15.373;
#SAMPLELENGTH:15.000;
#SELECTABLE:YES;
#LISTSORT:;
#BPMS:0.000=133.000;
#STOPS:;
#BGCHANGES:;
#ATTACKS:;

//---------------dance-single - ----------------
#NOTES:
     dance-single:
     :
     Hard:
     13:
     0.696,0.696,0.519,0.231,0.721:
0000
0000
0000
0000
,
0000
0000
0000
0000
,
0010
0000
0001
0000
1000
0001
1000
0001
0000
0000
0100
0000
0001
1000
0001
1000
,
0000
0000
0010
0000
1010
0000
0000
1000
0000
0000
0001
0000
0011
0000
0000
0010
,
0000
0000
0100
0000
1100
0000
0000
1000
0000
0000
0001
0000
0101
0000
0000
0100
,
0000
0000
0010
0000
0110
0000
0000
0100
0000
0000
0001
0000
1001
0000
0000
0000
,
0100
0010
0100
2000
0002
0000
0000
0000
0000
0000
0000
0000
0000
0000
0000
0000
,
3003
0000
0000
0000
0010
0000
1000
0100
0000
0001
0100
0000
1000
0100
0000
0001
,
0100
0000
1000
0000
0001
0100
0000
1000
0100
0000
0010
0000
0010
0000
1000
0000
,
0001
0100
0000
0100
0000
0000
1001
0000
0000
0000
0010
0000
0010
0000
1000
0000
,
0100
0000
0001
0100
0001
0000
0100
1000
0100
0000
1000
0000
0010
0000
0100
0000
,
0001
0010
0000
0001
0000
0000
1000
0010
1000
0000
0100
0000
0001
0100
0000
0010
,
0000
0000
0001
0000
1000
0010
1000
0000
0001
0000
0100
0000
0100
0000
0010
0000
,
1000
0100
0000
0100
0000
0000
1001
0000
0000
0000
0010
0000
0010
0000
0100
0000
,
0001
0000
1000
0010
1000
0000
0001
0010
0001
0000
0100
0000
0010
0000
1000
0000
,
0100
0010
0000
0100
0000
0000
1000
0001
1000
0000
0010
0000
0100
0001
0000
1000
,
0000
0000
0001
0000
1000
0100
1000
0001
0100
0000
0010
1000
0010
0000
0100
0000
,
0001
0100
0000
0001
0000
0000
1000
0000
0100
1000
0100
0000
0010
0001
0000
0100
,
0000
0000
0010
1000
0010
0100
0001
0010
0100
0000
1000
0100
1000
0000
0001
0000
,
0100
0010
0000
1000
0000
0000
0010
0000
0100
0001
0100
0000
0010
0001
0000
0010
,
0000
0000
1000
0000
0001
1000
0000
0001
0100
0000
0001
0000
1000
0000
0100
1000
,
0000
0001
0100
0001
0000
1000
0100
1000
0000
0010
0001
0000
0010
0100
0000
0001
,
0000
1000
0001
0000
1000
0000
0100
0000
0010
0001
0010
0001
0100
0000
0010
1000
,
0010
1000
0100
0000
0010
0001
0010
0001
1000
0000
0000
1010
0000
0000
0001
0000
,
0000
0011
0000
0000
0110
0000
1001
0000
2000
0000
0000
3010
0000
0000
0002
0000
,
0000
0103
0000
0000
2000
0000
0000
3010
0000
0000
0002
0000
0000
0103
0000
0000
,
1000
0000
0010
0000
0001
0000
0010
0000
2000
0000
0000
3100
0000
0000
0002
0000
,
0000
0013
0000
0000
2000
0000
0000
3100
0000
0000
0002
0000
0000
0013
0000
0000
,
1000
0100
0010
0100
1000
0000
0000
0101
0000
0000
0001
0000
0000
1100
0000
0000
,
1000
0000
0000
0011
0000
0000
0001
0000
0000
1000
0010
1000
0001
0000
0000
0101
,
0000
0000
1000
0000
0000
1100
0000
0000
0001
0000
0000
0011
0000
0000
1000
0000
,
0000
1010
0000
1000
0001
1000
0000
0000
0220
0000
0000
0000
0330
0000
0000
0000
,
0001
1000
0001
1000
0001
0000
0100
0000
1000
0000
0100
0000
0001
0000
0100
0000
,
1000
0100
0001
0010
1000
0010
0001
0010
,
1000
0010
0001
1000
0100
0001
0100
0010
,
0001
0000
0100
0000
0101
0000
0000
1100
0000
0000
1010
0000
0000
0011
0000
0000
,
1000
0010
0100
0010
1000
0000
0100
0000
0100
0000
1000
0001
1000
0010
0000
0100
,
0000
0000
1001
0000
0000
0000
0100
0000
0100
0000
0001
0010
0001
0000
1000
0100
,
1000
0000
0001
0100
0001
0000
1000
0000
0100
0000
0001
0000
0100
0010
0000
0001
,
0000
0000
1000
0010
1000
0000
0001
0000
0100
1000
0000
0100
0000
0000
0001
0000
,
1000
0100
1000
0001
0100
0000
0001
0000
1000
0100
1000
0001
0000
0000
0100
0000
,
0001
0100
0001
1000
0000
0000
0110
0000
0110
0000
0000
1000
0000
0000
0101
0000
,
0101
0000
0000
0010
0000
0000
1100
0000
1100
0000
0000
1000
0000
0000
0110
0000
,
0210
0000
0000
0301
0000
0000
1100
0000
1002
0000
0000
0103
0000
0000
0011
0000
,
2001
0000
0000
3100
0000
0000
0011
0000
1002
0000
0000
0103
0000
0000
0110
0000
,
1200
0000
0000
0310
0000
0000
1010
0000
0102
0000
0000
0013
0000
0000
0110
0000
,
2002
0000
0000
3003
0000
0000
0000
0000
;

//---------------dance-single - ----------------
#NOTES:
     dance-single:
     :
     Medium:
     9:
     0.410,0.401,0.046,0.069,0.144:
0000
0000
0000
0000
,
0000
0000
0000
0000
,
0010
0000
0000
0000
0100
0000
0000
0001
0000
0000
1000
0000
0100
0000
0000
0010
,
0000
0000
0001
0000
0100
0000
0000
0100
0000
0000
0100
0000
0010
0000
0000
0010
,
0000
0000
0010
0000
1000
0000
0000
1000
0000
0000
1000
0000
0001
0000
0000
0001
,
0000
0000
0001
0000
0010
0000
0000
0010
0000
0000
0010
0000
0100
0000
0000
0000
,
0010
0002
2000
0000
0000
0000
0000
0000
,
3003
0000
0000
0000
0010
0000
0000
1000
0000
0000
0010
0000
0000
0100
0000
0000
,
0001
0000
0010
0000
0000
0100
0000
0000
1000
0000
0100
0000
0100
0000
0000
0000
,
0010
0100
1000
0001
0000
0100
0100
0000
,
0010
0100
0001
0000
1000
0100
0001
0100
,
1000
0001
0100
0000
1000
0100
0001
0010
,
1000
0000
0011
0000
1000
0010
0100
0000
,
0010
0100
1000
0100
0000
0001
0001
0000
,
0010
0100
1000
0000
0001
0100
1000
0100
,
0001
0010
0100
0000
0001
0100
1000
0010
,
0001
0000
1010
0000
0010
0100
0001
0000
,
0001
0100
0010
0100
0001
0000
0001
1000
,
0100
0000
0010
0000
0001
0000
0100
0010
,
1000
0000
1000
0010
0100
0010
1000
0000
,
1000
0001
0200
0000
0310
0000
0200
0000
,
1300
0000
0100
0001
1000
0000
0100
0001
,
0100
0000
0010
0001
1000
1000
0000
0010
,
0010
0000
0000
0000
0100
0000
0100
0000
0001
0000
0000
1000
0000
0000
0001
0000
,
0000
0100
0000
0000
0010
0000
1000
0000
0100
0000
0000
0000
0000
0000
0010
0000
,
0000
0000
0001
0000
0000
1000
0000
0000
,
0010
0000
0100
0000
0010
0000
0000
1000
,
0000
0000
0001
0000
0000
0010
0000
0000
,
0100
0000
1000
0000
0000
0001
0000
0000
,
1000
0000
0000
0010
0000
0000
0100
0000
,
0000
0001
0000
0000
1000
0000
0000
0100
,
0000
0010
0001
0000
,
1000
0001
1000
0001
0100
0000
0010
1000
,
0100
0000
0010
0001
0100
0001
0010
0000
,
0100
1000
0010
0000
0100
0001
1000
0001
,
0010
0000
0000
0000
0100
0000
0000
1000
0000
0000
0001
0000
0000
0100
0000
0000
,
0010
1000
0001
0010
0010
0000
0100
0010
,
0001
1000
0000
0010
0010
0000
0100
0010
,
1000
0000
0001
0010
1000
0010
0001
1000
,
0010
0000
0001
0010
1000
0100
0001
0000
,
1100
0000
0000
0000
0001
0000
0100
0000
0001
0000
0000
1000
0000
0000
0001
0000
,
0100
0000
0000
0010
0000
0000
1000
0000
0100
0000
0000
0100
0000
0000
0100
0000
,
0010
0000
0000
0010
0000
0000
0010
0000
0001
0000
0000
0001
0000
0000
0001
0000
,
1000
0000
0000
1000
0000
0000
1000
0000
0010
0000
0000
0010
0000
0000
0010
0000
,
0001
0000
0000
0001
0000
0000
0001
0000
0100
0000
0000
0100
0000
0000
0100
0000
,
1000
0000
0000
1000
0000
0000
1000
0000
0001
0000
0000
0001
0000
0000
0001
0000
,
2002
0000
0000
3003
0000
0000
0000
0000
;

//---------------dance-single - ----------------
#NOTES:
     dance-single:
     :
     Easy:
     6:
     0.290,0.345,0.023,0.265,0.000: // measure 1
0000
0000
0000
0000
,  // measure 2
0000
0000
0000
0000
,  // measure 3
0010
0000
0100
0000
,  // measure 4
0001
1000
0001
1000
,  // measure 5
0010
0100
0010
0100
,  // measure 6
0001
1000
0100
0010
,  // measure 7
0001
2000
0000
0000
,  // measure 8
3000
0001
0000
0001
,  // measure 9
1000
0000
1000
0001
,  // measure 10
0100
0010
0100
0001
,  // measure 11
1000
0000
0100
1000
0200
0000
0310
0000
,  // measure 12
0001
0000
0100
0000
0001
0000
1000
0100
,  // measure 13
2000
3000
0001
0100
,  // measure 14
0010
0100
0001
1000
,  // measure 15
0100
0100
1000
0001
,  // measure 16
0100
0010
0100
0000
0001
0000
1000
0001
,  // measure 17
1000
0000
0010
0100
,  // measure 18
1000
0001
0010
0100
,  // measure 19
1000
0001
0100
0001
,  // measure 20
1000
0010
0100
0001
,  // measure 21
1000
0010
0200
0300
,  // measure 22
0002
0003
1000
0100
,  // measure 23
0020
0030
0001
1000
,  // measure 24
0001
1000
0010
0100
,  // measure 25
0001
1000
0200
0000
,  // measure 26
0310
0010
0020
0000
,  // measure 27
0031
0001
0002
0000
,  // measure 28
1003
1000
2000
0000
,  // measure 29
3020
0130
0000
0000
,  // measure 30
1000
0000
0000
0010
,  // measure 31
0000
0000
1000
0000
,  // measure 32
0000
0100
0010
1000
,  // measure 33
0001
0100
0000
0001
,  // measure 34
0000
0010
0100
1000
,  // measure 35
0000
0001
0100
0001
,  // measure 36
0100
0010
0000
0110
,  // measure 37
1001
1000
0100
1000
,  // measure 38
0001
0100
0001
0100
,  // measure 39
0010
1000
0100
0020
,  // measure 40
0030
0001
0100
0020
,  // measure 41
0030
1000
0100
0010
,  // measure 42
0100
2000
3001
0200
,  // measure 43
0310
2000
3100
0020
,  // measure 44
0031
0200
0301
2000
,  // measure 45
3100
0020
0031
2000
,  // measure 46
3001
0200
0310
0002
,  // measure 47
1003
0000
0000
0000
;

//---------------dance-single - ----------------
#NOTES:
     dance-single:
     :
     Beginner:
     3:
     0.148,0.159,0.000,0.046,0.000: // measure 1
0000
0000
0000
0000
,  // measure 2
0000
0000
0000
0000
,  // measure 3
0010
0000
0000
0000
,  // measure 4
0100
0000
0000
0000
,  // measure 5
0001
0000
0000
0000
,  // measure 6
1000
0000
0000
0000
,  // measure 7
0100
0100
0000
0000
,  // measure 8
0000
1000
0000
0001
,  // measure 9
0000
1000
0000
0001
,  // measure 10
0000
0100
0100
0000
,  // measure 11
0010
0010
0010
0000
,  // measure 12
1000
0000
0001
0000
,  // measure 13
1000
0000
0001
1000
,  // measure 14
0000
0001
0000
1000
,  // measure 15
0000
0001
0000
0100
,  // measure 16
0100
0000
0010
0010
,  // measure 17
0010
0000
1000
0000
,  // measure 18
0001
0000
1000
0000
,  // measure 19
0100
0100
0100
0000
,  // measure 20
0100
0000
0010
0000
,  // measure 21
0010
0000
0002
0000
,  // measure 22
0003
0000
2000
0000
,  // measure 23
3000
0000
0010
0000
,  // measure 24
0010
0000
0200
0000
,  // measure 25
0000
0300
0001
0000
,  // measure 26
0000
1000
0000
0000
,  // measure 27
0100
0000
0010
0000
,  // measure 28
0000
0001
0000
0000
,  // measure 29
1000
1000
0000
0000
,  // measure 30
0010
0000
0000
0100
,  // measure 31
0000
0000
0001
0000
,  // measure 32
0000
1000
1000
0000
,  // measure 33
0001
0001
0001
0000
,  // measure 34
0100
0000
0010
0000
,  // measure 35
1000
1000
0000
0001
,  // measure 36
0000
0200
0000
0300
,  // measure 37
0000
0010
0000
0010
,  // measure 38
0000
0010
0010
0010
,  // measure 39
0000
0100
0000
0100
,  // measure 40
0000
0001
1000
0001
,  // measure 41
0000
1000
0000
0001
,  // measure 42
0000
1000
1000
0000
,  // measure 43
0100
0000
0010
0000
,  // measure 44
0001
0000
1000
0000
,  // measure 45
0010
0000
0100
0000
,  // measure 46
0001
0000
1000
0000
,  // measure 47
0001
0000
0000
0000
;
