#TITLE:透明なマニキュア;
#SUBTITLE:;
#ARTIST:Kiyommy+Seiya;
#TITLETRANSLIT:Toumei na manicure;
#SUBTITLETRANSLIT:;
#ARTISTTRANSLIT:Kiyommy+Seiya;
#GENRE:;
#CREDIT:;
#MENUCOLOR:;
#METERTYPE:DDR;
#BANNER:Toumei na manicure.png;
#BACKGROUND:Toumei na manicure-bg.png;
#LYRICSPATH:;
#CDTITLE:cdtitle.png;
#MUSIC:Toumei na manicure.mp3;
#OFFSET:-0.028;
#SAMPLESTART:61.727;
#SAMPLELENGTH:15.000;
#SELECTABLE:YES;
#LISTSORT:;
#BPMS:0.000=140.000;
#STOPS:;
#BGCHANGES:;
#ATTACKS:;

//---------------dance-single - ----------------
#NOTES:
     dance-single:
     :
     Hard:
     11:
     0.552,0.514,0.044,0.407,0.099:
0000
0000
0000
0000
,
0000
0000
0000
0000
,
0000
0000
0000
0000
,
0000
0000
0000
0000
,
0010
0100
0010
0001
0000
1000
0010
0100
,
0000
0001
1000
0000
0002
0000
2003
0000
,
3010
0000
0100
0001
0000
1000
0100
1000
,
0000
0010
0100
0000
0001
0002
1000
2003
,
3010
0100
0010
1000
0000
0001
0010
0001
,
0000
1000
0010
0000
0200
0000
0320
0000
,
1030
0000
0100
0010
0000
0100
1000
0001
,
0000
0100
0001
0000
1000
2000
0001
3002
,
0103
1000
0100
0001
0000
0010
0100
1000
,
0000
0100
0001
0000
0200
0000
0320
0000
,
0031
0000
0100
1000
0000
0100
0001
0010
,
0000
0100
1000
0000
0010
0020
0100
0230
,
0301
1000
0100
0001
0000
0100
1000
0100
,
0000
1000
0010
0000
0200
0000
0302
0000
,
1003
0000
0010
0100
0000
0001
0100
1000
,
0000
0100
0001
0000
1000
2000
0001
3002
,
1003
0000
0001
0100
0010
0100
0001
0010
,
0011
0000
1000
0010
0100
0010
1000
0001
,
0011
0000
0010
0100
0000
1000
0010
0100
,
0001
0000
0100
0010
0000
0010
0010
0100
,
0100
0000
0001
1000
0100
1000
0001
0010
,
0011
0000
0001
0100
1000
0100
0001
0010
,
0110
0000
0100
1000
0000
0001
0100
0001
,
0010
0000
0100
1000
0000
0001
0100
1000
,
0200
0000
0310
1000
0100
0001
0100
1000
,
0020
0000
0130
0001
0010
1000
0010
0001
,
0200
0000
0310
1000
0100
0010
1000
0010
,
0002
0000
0000
0000
0103
0000
0100
0000
0000
0000
0010
1000
0010
0000
0100
0001
,
0200
0000
0301
0100
1000
0100
0010
1000
,
0200
0000
0310
0100
1000
0100
0001
0100
,
0020
0000
0031
0100
0010
1000
0001
0010
,
0200
2300
3002
0203
,
0310
1000
0010
0100
0000
0001
0000
1000
,
0000
0000
0001
0000
0010
0000
0000
0000
0100
1000
0000
0000
0100
0001
0000
0000
,
0200
0000
1300
0020
0000
0130
0001
0020
,
0000
0000
0130
0000
1000
0000
0000
0000
0001
0100
0001
0000
1000
0100
1000
0000
,
0001
0010
0001
0100
0000
0010
0000
1000
,
0000
0000
0001
0000
0010
0000
0000
0000
0001
0100
0000
0000
1000
0100
0000
0000
,
0002
0000
0013
0200
0000
1300
0010
0200
,
0000
0000
0301
0000
0100
0000
0000
0000
0010
1000
0010
0000
0100
0001
0100
0000
,
0001
0010
0100
1000
0100
0010
0001
0200
,
0000
0000
0010
0000
0310
0000
0000
0000
1000
0100
0000
0000
0010
0001
0000
0000
,
0100
0001
1000
0100
0001
0100
0010
0002
,
0000
0000
1000
0000
1003
0000
0000
0000
0001
0100
0001
0000
1000
0100
1000
0000
,
0001
0100
0010
1000
0010
0100
0001
2000
,
0000
0000
0100
0000
3100
0000
0000
0000
1000
0001
0000
0000
0010
0100
0000
0000
,
1000
0100
0001
0100
1000
0010
0100
0002
,
0000
0000
1000
0000
1003
0000
0000
0000
0010
1000
0001
0000
0010
0001
1000
0000
;

//---------------dance-single - ----------------
#NOTES:
     dance-single:
     :
     Medium:
     7:
     0.306,0.285,0.000,0.132,0.000:
0000
0000
0000
0000
,
0000
0000
0000
0000
,
0000
0000
0000
0000
,
0000
0000
0000
0000
,
1000
0001
0100
0100
,
0020
0000
0100
0130
,
0001
1000
0100
0100
,
0020
0000
0001
0031
,
0100
0010
1000
1000
,
0200
0000
1000
1300
,
0010
0100
0001
0001
,
0200
0000
0010
0310
,
1000
0100
0010
0010
,
0002
0000
0100
0103
,
0010
1000
0001
1000
,
0200
0000
0010
0310
,
0001
0100
0001
0001
,
0020
0000
0100
0130
,
1000
0001
1000
0010
,
0200
0000
0010
0310
,
1000
0001
0100
0010
,
1000
0100
0010
0001
,
1000
0001
0100
0010
,
0200
0000
0000
0300
,
0001
0010
0100
1000
,
0001
0100
0010
1000
,
0001
0100
1000
0100
,
0002
0000
0000
0003
,
1000
0100
0010
0001
,
1000
0010
0100
0001
,
1000
0100
0001
0100
,
2000
0000
0000
3000
,
0010
0100
0010
1000
,
0100
0010
0100
0001
,
0100
1000
0010
0100
,
0002
0000
1000
1003
,
0001
0100
0001
0000
1000
0000
0010
0000
,
0100
0100
0010
0010
,
1000
0000
0100
0000
0010
0001
0010
0000
,
0100
1000
0010
0010
,
0100
0001
0100
0000
0010
0000
1000
0000
,
0001
0001
0100
0100
,
0010
0000
1000
0000
0001
0100
0001
0000
,
0010
0100
1000
1000
,
0001
0100
0001
0000
1000
0000
0010
0000
,
0100
0001
1000
1000
,
0100
0000
0010
0000
0100
1000
0100
0000
,
0010
0001
1000
1000
,
0001
0100
0001
0000
1000
0000
0010
0000
,
0100
0100
0001
0001
,
1000
0000
0100
0000
0010
0100
0010
0000
,
0001
0000
1000
0000
0010
0000
0100
0001
;

//---------------dance-single - ----------------
#NOTES:
     dance-single:
     :
     Easy:
     4:
     0.209,0.199,0.000,0.000,0.000: // measure 1
0000
0000
0000
0000
,  // measure 2
0000
0000
0000
0000
,  // measure 3
0000
0000
0000
0000
,  // measure 4
0000
0000
0000
0000
,  // measure 5
1000
0001
0100
0000
,  // measure 6
0001
0000
1000
0000
,  // measure 7
0001
1000
0100
0000
,  // measure 8
1000
0000
0001
0000
,  // measure 9
1000
0001
0010
0000
,  // measure 10
0001
0000
1000
0000
,  // measure 11
0001
1000
0010
0000
,  // measure 12
1000
0000
0001
0000
,  // measure 13
1000
0000
0010
0010
,  // measure 14
0010
0000
0100
0100
,  // measure 15
0100
0000
0001
0001
,  // measure 16
0001
0000
1000
1000
,  // measure 17
1000
0000
0100
0100
,  // measure 18
0100
0000
0010
0010
,  // measure 19
0010
0000
0001
0001
,  // measure 20
0001
0000
1000
1000
,  // measure 21
1000
0000
0001
0000
,  // measure 22
1000
0000
0001
0000
,  // measure 23
0100
0010
0100
0010
,  // measure 24
0100
0000
0010
0000
,  // measure 25
1000
0000
0001
0000
,  // measure 26
1000
0000
0001
0000
,  // measure 27
0100
0000
0010
0000
,  // measure 28
0100
0001
0100
0001
,  // measure 29
0100
0000
0010
0000
,  // measure 30
1000
0000
0010
0000
,  // measure 31
0100
0000
0001
0000
,  // measure 32
0010
0100
0010
0100
,  // measure 33
0010
0000
0001
0000
,  // measure 34
0100
0000
0001
0000
,  // measure 35
1000
0000
0010
0000
,  // measure 36
1000
0100
0010
0001
,  // measure 37
1000
0001
1000
0000
,  // measure 38
0001
1000
0001
0000
,  // measure 39
0100
0010
0100
0000
,  // measure 40
0010
0100
0010
0000
,  // measure 41
1000
0100
0001
0000
,  // measure 42
0001
0100
1000
0000
,  // measure 43
1000
0010
0001
0000
,  // measure 44
0001
0010
1000
0000
,  // measure 45
0001
0100
1000
0000
,  // measure 46
1000
0100
0001
0000
,  // measure 47
0001
0010
1000
0000
,  // measure 48
1000
0010
0001
0000
,  // measure 49
0010
0001
0100
0000
,  // measure 50
0100
1000
0010
0000
,  // measure 51
0010
1000
0100
0000
,  // measure 52
0100
0001
0010
0100
;

//---------------dance-single - ----------------
#NOTES:
     dance-single:
     :
     Beginner:
     1:
     0.082,0.112,0.000,0.000,0.000: // measure 1
0000
0000
0000
0000
,  // measure 2
0000
0000
0000
0000
,  // measure 3
0000
0000
0000
0000
,  // measure 4
0000
0000
0000
0000
,  // measure 5
1000
0000
0000
0000
,  // measure 6
0001
0000
0000
0000
,  // measure 7
0100
0000
0000
0000
,  // measure 8
0010
0000
0000
0000
,  // measure 9
1000
0000
0000
0000
,  // measure 10
0100
0000
0000
0000
,  // measure 11
0010
0000
0000
0000
,  // measure 12
0001
0000
0000
0000
,  // measure 13
1000
0000
0000
0000
,  // measure 14
0001
0000
0000
0000
,  // measure 15
0100
0000
0000
0000
,  // measure 16
0010
0000
0000
0000
,  // measure 17
1000
0000
0000
0000
,  // measure 18
0100
0000
0000
0000
,  // measure 19
0001
0000
0000
0000
,  // measure 20
0100
0000
0000
0000
,  // measure 21
1000
0000
0000
0000
,  // measure 22
0001
0000
0000
0000
,  // measure 23
0100
0000
0100
0000
,  // measure 24
0100
0000
0000
0000
,  // measure 25
0001
0000
0000
0000
,  // measure 26
1000
0000
0000
0000
,  // measure 27
0100
0000
0100
0000
,  // measure 28
0100
0000
0000
0000
,  // measure 29
1000
0000
0000
0000
,  // measure 30
0001
0000
0000
0000
,  // measure 31
0010
0000
0010
0000
,  // measure 32
0010
0000
0000
0000
,  // measure 33
0001
0000
0000
0000
,  // measure 34
1000
0000
0000
0000
,  // measure 35
0010
0000
0010
0000
,  // measure 36
0010
0000
0000
0000
,  // measure 37
1000
0000
0000
0000
,  // measure 38
0100
0000
0000
0000
,  // measure 39
0010
0000
0000
0000
,  // measure 40
0001
0000
0000
0000
,  // measure 41
1000
0000
0000
0000
,  // measure 42
0010
0000
0000
0000
,  // measure 43
0100
0000
0000
0000
,  // measure 44
0001
0000
0000
0000
,  // measure 45
1000
0000
0000
0000
,  // measure 46
0100
0000
0000
0000
,  // measure 47
0010
0000
0000
0000
,  // measure 48
0001
0000
0000
0000
,  // measure 49
1000
0000
0000
0000
,  // measure 50
0010
0000
0000
0000
,  // measure 51
0100
0000
0000
0000
,  // measure 52
0001
0000
0000
0000
;
