#TITLE:STILL IN MY HEART;
#SUBTITLE:;
#ARTIST:NAOKI;
#TITLETRANSLIT:STILL IN MY HEART;
#SUBTITLETRANSLIT:;
#ARTISTTRANSLIT:NAOKI;
#GENRE:;
#CREDIT:;
#MENUCOLOR:;
#METERTYPE:DDR;
#BANNER:STILL IN MY HEART.png;
#BACKGROUND:STILL IN MY HEART-bg.png;
#LYRICSPATH:;
#CDTITLE:cdtitle.png;
#MUSIC:STILL IN MY HEART.mp3;
#OFFSET:-0.031;
#SAMPLESTART:79.940;
#SAMPLELENGTH:14.000;
#SELECTABLE:YES;
#LISTSORT:;
#BPMS:0.000=150.000;
#STOPS:;
#BGCHANGES:;
#ATTACKS:;

//---------------dance-single - ----------------
#NOTES:
     dance-single:
     :
     Hard:
     10:
     0.456,0.480,0.149,0.149,0.030:
0000
0000
0000
0000
,
0000
0000
0000
0000
,
0000
0000
0000
0000
,
0000
0000
0000
0000
,
0000
0000
0000
0000
,
1001
0000
0010
0000
1000
0001
0100
0000
,
0010
0000
0100
0001
1000
0001
0010
0000
,
0100
1000
0001
0000
0100
0001
1000
0000
,
0010
0000
0100
0000
0001
0010
0100
1000
,
0001
0000
0100
0000
0001
0010
0001
0000
,
1000
0000
0010
0000
0100
0001
0100
0000
,
0010
0000
1000
0000
0001
0010
0100
0000
,
1000
0100
0001
0100
1000
0000
0001
0100
,
1000
0000
0100
0000
0001
0000
0010
0100
,
1000
0000
0001
0000
0100
0010
0100
0000
,
0001
0000
0000
1100
0000
0000
0101
0000
,
0010
0000
0010
0000
0100
0001
0100
0001
,
0010
0000
0100
1000
0000
0010
0000
0100
,
0001
0000
1000
0010
0000
0100
0001
0100
,
0010
0000
1000
0100
0000
0010
0000
0100
,
0000
1000
0100
1000
0000
0001
0100
0001
,
0010
0000
0100
1000
0000
0001
0100
0010
,
0000
0100
0001
1000
0000
0100
0010
0100
,
1000
0000
0001
0100
0000
1000
0000
0100
,
0001
0000
1001
0000
1000
0100
0010
0001
,
1001
0000
0010
0000
0001
0010
0100
1000
,
1001
0000
0010
0000
1000
0100
0010
0001
,
1001
0000
0010
0100
0010
0100
0010
0000
,
1000
0100
0010
0100
0001
0100
0010
0100
,
1000
0000
0001
0000
1000
0010
0100
0001
,
1001
0000
0100
0000
0001
0100
0010
1000
,
1001
0000
0100
1000
0010
0100
0001
0000
,
1000
0100
0010
0001
0100
0010
0100
0001
,
0020
0000
0000
0000
,
0230
0000
0000
0000
,
2300
0000
3002
0000
,
0203
0000
0000
0300
,
2002
0000
0000
3003
,
0220
0000
0000
0330
,
2200
3300
0022
0033
,
2002
0000
0000
3003
,
0010
1000
0100
1000
0000
0001
0000
0100
,
0001
0010
0001
0100
0000
0010
1000
0100
,
0010
0100
1000
0001
0000
0100
0000
1000
,
0000
0100
0001
0000
0010
0100
1000
0100
,
0001
0000
0100
1000
0000
0010
0000
0001
,
0000
1000
0100
0001
0000
0010
0100
1000
,
0100
0000
0001
0100
0000
1000
0000
0010
,
0000
0100
0001
0010
0000
0100
0000
1000
,
0001
0000
0100
0001
0000
0010
0100
1000
,
0001
0000
1000
0100
0001
0100
1000
0000
,
1000
0000
0001
0100
1000
0100
0001
0000
,
1000
0100
0010
0001
0100
0010
1000
0000
,
0001
0100
1000
0100
0010
0100
0001
0000
,
1000
0000
0001
0010
1000
0010
0001
0000
,
0001
0000
1000
0010
0001
0010
1000
0000
,
0001
0010
0100
0000
1000
0010
0100
0001
,
0010
0100
0010
0100
1000
0001
1000
0001
,
0100
0000
0000
0001
0000
0000
1000
0000
0000
0100
0000
0000
1000
0000
0001
0000
,
0100
0000
0000
0010
0000
0000
0100
0000
0000
0001
0000
0000
1000
0000
0100
0000
,
0010
0000
0001
0000
1000
0000
1001
0000
0000
0000
0000
0000
;

//---------------dance-single - ----------------
#NOTES:
     dance-single:
     :
     Medium:
     7:
     0.288,0.360,0.040,0.198,0.000:
0000
0000
0000
0000
,
0000
0000
0000
0000
,
0000
0000
0000
0000
,
0000
0000
0000
0000
,
0000
0000
0000
0000
,
0010
1000
0010
1000
,
0001
0100
0001
0100
,
0001
0010
0100
1000
,
0001
0100
0010
0010
,
0220
0000
0330
0000
1000
0100
1000
0000
,
0001
0001
0100
0100
,
0010
1000
0001
0010
,
0100
1000
0001
0000
,
2002
0000
3003
0000
1000
0001
1000
0000
,
0010
0100
0001
0010
,
0100
0000
0000
1000
0000
0000
0100
0000
,
0000
0000
1000
0000
0100
0000
1000
0001
,
1000
0000
0010
0100
0000
0010
0000
1000
,
0000
0000
0000
0000
0000
0100
0001
0000
,
1000
0000
0100
1000
0000
0100
0000
0010
,
0000
0000
0000
0000
0000
1000
0001
0000
,
1000
0000
0100
0010
0000
0100
0000
1000
,
0000
0000
0000
0000
0000
1000
0001
0000
,
1000
0100
0010
0001
,
2002
0000
0000
3003
,
0010
0010
0100
0001
,
0100
0100
0010
1000
,
0001
0010
0100
1000
,
0002
2003
3002
0003
,
1000
1000
0100
0010
,
0001
0001
0100
0010
,
1000
0001
1000
0001
,
0200
0320
0230
0300
,
0001
0000
0000
0000
,
1000
0000
0000
0000
,
0001
0000
0000
0000
,
0100
0000
0000
0010
,
0010
0000
0000
0000
,
1000
0000
0000
0001
,
0001
0000
0000
0000
,
0010
0100
0010
0100
,
1000
0001
0100
0000
,
0001
1000
0100
0000
,
0010
0001
0100
0001
,
0010
0100
1000
0000
,
0010
1000
0100
0000
,
0010
0001
0100
0000
,
0001
1000
0100
0010
,
0000
0001
0000
0100
,
0001
0000
0000
1000
0000
0000
0001
0000
,
0100
0100
0010
1000
,
0001
0001
1000
0010
,
1000
0100
0001
0100
,
2000
3002
2003
3000
,
0010
0010
0100
0001
,
1000
1000
0001
0100
,
0010
1000
0001
0100
,
0020
0230
0320
0030
,
2000
0000
0000
0000
0000
0000
3000
0001
,
0200
0000
0000
0000
0000
0000
0300
0001
,
0010
0000
1001
0000
;

//---------------dance-single - ----------------
#NOTES:
     dance-single:
     :
     Easy:
     4:
     0.180,0.210,0.010,0.000,0.000:
0000
0000
0000
0000
,
0000
0000
0000
0000
,
0000
0000
0000
0000
,
0000
0000
0000
0000
,
0000
0000
0000
0000
,
0010
0000
1000
0000
,
0001
0100
0001
0000
,
1000
0000
0100
0000
,
0010
0001
0010
0000
,
0100
0000
1000
0000
,
0001
0000
0100
0000
,
0010
1000
0001
0000
,
0010
0001
1000
0000
,
0001
0000
0010
0000
,
0100
0000
1000
0000
,
0001
0100
0010
0000
,
1000
0100
0010
0000
,
0001
0000
0100
0000
,
0001
0100
0001
0000
,
1000
0000
0100
0000
,
1000
0100
1000
0000
,
0010
0100
0001
0000
,
0010
0100
1000
0000
,
0001
0000
1000
0000
,
1001
0000
0000
0000
,
0010
0100
0010
0000
,
1000
0100
0010
0000
,
0001
0100
0010
0000
,
1000
0001
0100
0000
,
0010
0100
0010
0000
,
1000
0100
0010
0000
,
0001
0100
0010
0000
,
1000
0001
0100
0000
,
0010
0000
0000
0000
,
0100
0000
0000
0000
,
0001
0000
1000
0000
,
0001
0000
0000
0000
,
0100
0000
0000
0000
,
0010
0000
0000
0000
,
1000
0000
0000
0000
,
0001
0000
0000
0000
,
0010
0000
0010
0000
,
0001
0000
0001
0000
,
0100
1000
0100
0000
,
0001
0000
0010
0000
,
0100
0000
0100
0000
,
1000
0000
1000
0000
,
0010
0001
0010
0000
,
1000
0000
0000
0000
,
0001
0000
0000
0000
,
1000
0000
1000
0000
,
0001
0100
0001
0000
,
0001
0000
0001
0000
,
1000
0100
1000
0000
,
0001
0000
0010
0000
,
0100
1000
0010
0000
,
1000
0000
0100
0000
,
0010
0001
0100
0000
,
0001
0000
0000
0000
0000
0000
0000
0001
,
1000
0000
0000
0000
0000
0000
0000
1000
,
0001
0000
1000
0000
;

//---------------dance-single - ----------------
#NOTES:
     dance-single:
     :
     Beginner:
     1:
     0.075,0.120,0.010,0.000,0.000: // measure 1
0000
0000
0000
0000
,  // measure 2
0000
0000
0000
0000
,  // measure 3
0000
0000
0000
0000
,  // measure 4
0000
0000
0000
0000
,  // measure 5
0000
0000
0000
0000
,  // measure 6
1000
0000
0000
0000
,  // measure 7
0001
0000
0000
0000
,  // measure 8
1000
0000
1000
0000
,  // measure 9
1000
0000
0000
0000
,  // measure 10
0001
0000
0000
0000
,  // measure 11
0001
0000
0000
0000
,  // measure 12
0100
0000
0000
0000
,  // measure 13
0100
0000
0000
0000
,  // measure 14
0001
0000
0000
0000
,  // measure 15
1000
0000
0000
0000
,  // measure 16
0001
0000
0000
0000
,  // measure 17
0000
0000
0000
0000
,  // measure 18
0100
0000
0000
0000
,  // measure 19
1000
0000
0000
0000
,  // measure 20
0001
0000
0000
0000
,  // measure 21
0100
0000
0000
0000
,  // measure 22
1000
0000
0000
0000
,  // measure 23
0100
0000
0000
0000
,  // measure 24
0100
0000
0000
0000
,  // measure 25
0000
0000
0000
0000
,  // measure 26
0100
0000
0000
0000
,  // measure 27
0001
0000
0000
0000
,  // measure 28
1000
0000
0000
0000
,  // measure 29
0001
0000
0000
0000
,  // measure 30
1000
0000
0000
0000
,  // measure 31
0100
0000
0000
0000
,  // measure 32
0001
0000
0000
0000
,  // measure 33
0100
0000
0000
0000
,  // measure 34
1000
0000
0000
0000
,  // measure 35
0000
0000
0000
0000
,  // measure 36
0001
0000
0000
0000
,  // measure 37
0000
0000
0000
0000
,  // measure 38
0100
0000
0000
0000
,  // measure 39
0100
0000
0000
0000
,  // measure 40
0100
0000
0000
0000
,  // measure 41
0100
0000
0000
0000
,  // measure 42
1000
0000
0000
0000
,  // measure 43
0001
0000
0000
0000
,  // measure 44
1000
0000
0000
0000
,  // measure 45
0001
0000
0000
0000
,  // measure 46
1000
0000
0000
0000
,  // measure 47
0001
0000
0000
0000
,  // measure 48
1000
0000
0000
0000
,  // measure 49
0100
0000
0000
0000
,  // measure 50
0000
0000
0000
0000
,  // measure 51
0001
0000
0000
0000
,  // measure 52
1000
0000
0000
0000
,  // measure 53
0001
0000
0000
0000
,  // measure 54
1000
0000
0000
0000
,  // measure 55
0100
0000
0000
0000
,  // measure 56
1000
0000
0000
0000
,  // measure 57
0001
0000
0000
0000
,  // measure 58
1000
0000
0000
0000
,  // measure 59
0001
0000
0000
0000
,  // measure 60
0100
0000
0000
0000
,  // measure 61
0000
0000
1001
0000
;
