#TITLE:La brise d'été;
#SUBTITLE:;
#ARTIST:Orange Lounge;
#TITLETRANSLIT:La brise d'ete;
#SUBTITLETRANSLIT:;
#ARTISTTRANSLIT:Orange Lounge;
#GENRE:;
#CREDIT:;
#MENUCOLOR:;
#METERTYPE:DDR;
#BANNER:La brise d'ete.png;
#BACKGROUND:La brise d'ete-bg.png;
#LYRICSPATH:;
#CDTITLE:cdtitle.png;
#MUSIC:La brise d'ete.mp3;
#OFFSET:-0.048;
#SAMPLESTART:14.440;
#SAMPLELENGTH:15.000;
#SELECTABLE:YES;
#LISTSORT:;
#DISPLAYBPM:100.000;
#BPMS:0.000=100.000,151.500=90.000;
#STOPS:;
#BGCHANGES:;
#ATTACKS:;

//---------------dance-single - ----------------
#NOTES:
     dance-single:
     :
     Hard:
     11:
     0.464,0.435,0.052,0.031,0.604:
0000
0000
0000
0000
,
0000
0000
0000
0000
,
1000
0000
0100
0000
1000
0001
0000
1001
0000
0000
0100
0000
0000
0100
0000
0000
,
0100
0000
0001
0000
0010
0100
0000
0110
0000
0000
1000
0000
0000
1000
0000
0000
,
1000
0000
0001
0000
1000
0100
0000
1100
0000
0000
0010
0000
0000
0010
0000
0000
,
0010
0000
0001
0000
0100
0001
0000
1001
0000
0000
0000
0000
0000
0000
0000
0000
,
0001
0000
0100
0000
0010
0100
0000
0010
0000
1000
0000
0000
0100
0000
0100
0000
,
1000
0000
0100
0000
0010
0100
0000
0010
0000
0001
0000
0200
0000
0000
0300
0000
,
0010
0000
1000
0000
0001
0100
0000
0001
0000
1000
0000
0000
0100
0000
0100
0000
,
0010
0000
0100
0000
0010
0001
0000
1000
0000
0010
0000
0200
0000
0000
0300
0000
,
0001
0000
0010
0000
0100
0010
0000
0100
0000
1000
0000
1000
0010
0000
0010
0000
,
1000
0000
0010
0000
0100
0010
0000
0100
0000
0001
0000
0020
0000
0000
0030
0000
,
0100
0000
1000
0000
0001
0010
0000
0001
0000
1000
0000
1000
0010
0000
0010
0000
,
0100
0000
0010
0000
0100
0001
0000
1000
0000
0000
0000
1000
0001
0000
0100
0000
,
0001
0000
0000
1000
0010
0000
0100
0000
0010
0000
0000
1000
0100
0000
0010
0000
,
0100
0000
0000
1000
0001
0000
0100
0000
0001
0000
0000
0010
0001
0000
0100
0000
,
0001
0000
0000
0010
0100
0000
1000
0000
0100
0000
0000
0010
0001
0000
1000
0000
,
0001
0000
0000
0100
0010
0000
1000
0000
0010
0000
0100
0000
0100
0000
0100
0000
,
0001
0000
1000
0100
0000
0010
0000
0100
0000
1000
0000
0001
0100
0000
0000
0000
,
0010
0000
1000
0001
0000
0010
0000
0100
0000
1000
0000
0010
0100
0000
0000
0000
,
0001
0000
0100
1000
0000
0100
0000
0001
0000
1000
0000
0100
0001
0000
0000
0000
,
0100
0000
1000
0010
0000
0100
0000
0001
0000
0010
0000
0100
1000
0000
0000
0000
,
0010
1000
0010
1000
0010
0000
1000
0001
1000
0001
1000
0000
0001
0100
0001
0100
,
0001
0100
0000
0100
,
0001
1000
0001
1000
0001
0000
1000
0100
1000
0100
1000
0000
0100
0010
0100
0010
,
0100
0010
0000
0010
,
0001
0100
0001
0100
0001
0000
1000
0100
1000
0100
1000
0000
0010
0100
0010
0100
,
0010
0100
0000
0100
,
0001
1000
0001
1000
0001
0000
0100
0001
0100
0001
0100
0000
0010
1000
0010
1000
,
0010
0000
0000
0000
0100
0000
0000
0000
0000
0000
0000
0010
0100
0000
0010
0000
,
1000
0100
0010
0100
1000
0000
0001
0100
0010
0100
0001
0000
1000
0100
0010
0100
,
1000
0000
0001
0000
1000
0100
0001
0100
,
1000
0010
0100
0010
1000
0000
0001
0010
0100
0010
0001
0000
1000
0010
0100
0010
,
1000
0000
0001
0000
1000
0100
0010
0001
,
0100
0010
1000
0010
0100
0000
0001
0010
0100
0010
0001
0000
0100
0010
1000
0010
,
0100
0000
0001
0000
1000
0010
0001
0010
,
1000
0001
0100
0001
1000
0000
0001
1000
0100
1000
0001
0000
1000
0001
0100
0001
,
1000
0000
0001
0000
0100
1000
0100
0001
,
1001
0000
0000
0000
;

//---------------dance-single - ----------------
#NOTES:
     dance-single:
     :
     Medium:
     7:
     0.306,0.277,0.021,0.000,0.042: // measure 1
0000
0000
0000
0000
,  // measure 2
0000
0000
0000
0000
,  // measure 3
1000
0100
0010
0000
0100
1000
0001
0000
,  // measure 4
0001
0100
0010
0000
0100
0001
1000
0000
,  // measure 5
1000
0100
0001
0000
0100
1000
0001
0000
,  // measure 6
0100
0000
0001
0000
1000
0000
0000
1001
0000
0000
0000
0000
0000
0000
0000
0000
,  // measure 7
0001
0100
0010
0100
0000
0010
0010
0000
,  // measure 8
1000
0100
0010
0100
0000
0010
0010
0000
,  // measure 9
0001
0010
0100
0010
0000
0100
0100
0000
,  // measure 10
1000
0010
0100
0010
0000
0100
0100
0000
,  // measure 11
0001
0000
0100
0000
1000
0000
0000
0100
0000
0000
0010
0000
0010
0000
0000
0000
,  // measure 12
1000
0000
0100
0000
0001
0000
0000
0100
0000
0000
0010
0000
0010
0000
0000
0000
,  // measure 13
0001
0000
0010
0000
1000
0000
0000
0010
0000
0000
0100
0000
0100
0000
0000
0000
,  // measure 14
1000
0000
0010
0000
0001
0000
0000
0010
0000
0000
0000
0100
0010
0000
0000
0000
,  // measure 15
1000
0000
0100
0000
0010
0100
1000
0000
,  // measure 16
0001
0000
0100
0000
0010
0100
0001
0000
,  // measure 17
1000
0000
0100
0000
0001
0100
1000
0000
,  // measure 18
0001
0000
0100
0000
1000
0100
0001
0000
,  // measure 19
1000
0000
0010
0000
0100
0010
1000
0000
,  // measure 20
0001
0000
0010
0000
0100
0010
0001
0000
,  // measure 21
1000
0000
0010
0000
0001
0010
1000
0000
,  // measure 22
0001
0000
0000
0000
0010
0000
0000
0100
0000
0000
0000
0000
0000
0000
0000
0000
,  // measure 23
1000
0100
1000
0001
0100
0001
1000
0100
,  // measure 24
1000
0000
0100
0000
0000
0000
0100
1000
,  // measure 25
0001
0010
0001
1000
0010
1000
0001
0010
,  // measure 26
0001
0000
0100
0000
0000
0100
0100
0001
,  // measure 27
1000
0010
1000
0001
0010
0001
1000
0010
,  // measure 28
1000
0000
0010
0000
0000
0010
0010
1000
,  // measure 29
0001
0100
0001
1000
0100
1000
0001
0100
,  // measure 30
0001
0000
0000
0000
1000
0000
0000
0000
0000
0000
0000
1000
0001
0000
0100
0000
,  // measure 31
0001
0001
0001
0100
0100
0100
0010
0010
,  // measure 32
0010
1000
0000
1000
,  // measure 33
0100
0100
0100
0010
0010
0010
0001
0001
,  // measure 34
0001
0100
0000
0100
,  // measure 35
0010
0010
0010
1000
1000
1000
0100
0100
,  // measure 36
0100
0010
0000
0010
,  // measure 37
0001
0001
0001
1000
1000
1000
0010
0010
,  // measure 38
0010
0100
0000
0100
,  // measure 39
1001
0000
0000
0000
;

//---------------dance-single - ----------------
#NOTES:
     dance-single:
     :
     Easy:
     4:
     0.219,0.237,0.125,0.000,0.000: // measure 1
0000
0000
0000
0000
,  // measure 2
0000
0000
0000
0000
,  // measure 3
1000
0000
0100
0000
,  // measure 4
0001
0100
1000
0000
,  // measure 5
0001
0000
0100
0000
,  // measure 6
1000
0100
0001
0000
,  // measure 7
1000
1000
0100
0000
,  // measure 8
0001
0001
0100
0000
,  // measure 9
1000
1000
0010
0000
,  // measure 10
0001
0001
0010
0000
,  // measure 11
1000
0001
0100
0000
,  // measure 12
0001
1000
0100
0000
,  // measure 13
0010
0001
0100
0000
,  // measure 14
0010
1000
0100
0000
,  // measure 15
0100
0100
1000
0001
,  // measure 16
0100
0000
1000
0100
0001
0000
0000
0000
,  // measure 17
0100
0100
0001
1000
,  // measure 18
0100
0000
0001
0100
1000
0000
0000
0000
,  // measure 19
0010
0010
1000
0001
,  // measure 20
0010
0000
1000
0010
0001
0000
0000
0000
,  // measure 21
0010
0010
0001
1000
,  // measure 22
0010
0000
0001
0010
1000
0000
0000
0000
,  // measure 23
0101
0000
0000
1100
0000
0000
1001
0000
,  // measure 24
0100
0000
0100
0000
0000
0100
0100
0000
,  // measure 25
1100
0000
0000
0101
0000
0000
1001
0000
,  // measure 26
0100
0000
0100
0000
0000
0100
0100
0000
,  // measure 27
1010
0000
0000
0011
0000
0000
1001
0000
,  // measure 28
0100
0000
0100
0000
0000
0100
0100
0000
,  // measure 29
0011
0000
0000
1010
0000
0000
1001
0000
,  // measure 30
0100
0000
0100
0000
0000
0100
0100
0000
,  // measure 31
0001
0000
0001
0100
0000
0100
0010
0000
,  // measure 32
0010
0000
1000
0000
0100
0010
0001
0000
,  // measure 33
0010
0000
0010
0100
0000
0100
1000
0000
,  // measure 34
1000
0000
0001
0000
0100
0010
1000
0000
,  // measure 35
0100
0000
0100
0010
0000
0010
0001
0000
,  // measure 36
0001
0000
0100
0000
1000
0100
0001
0000
,  // measure 37
1000
0000
1000
0100
0000
0100
0010
0000
,  // measure 38
0010
0000
0001
0000
0100
1000
0100
0000
,  // measure 39
0100
0000
0000
0000
;

//---------------dance-single - ----------------
#NOTES:
     dance-single:
     :
     Beginner:
     1:
     0.083,0.099,0.000,0.000,0.000: // measure 1
0000
0000
0000
0000
,  // measure 2
0000
0000
0000
0000
,  // measure 3
1000
0000
0000
0000
,  // measure 4
0100
0000
0000
0000
,  // measure 5
0010
0000
0000
0000
,  // measure 6
0001
0000
0000
0000
,  // measure 7
0010
0000
0000
0000
,  // measure 8
0100
0000
0100
0000
,  // measure 9
0100
0000
0000
0000
,  // measure 10
1000
0000
1000
0000
,  // measure 11
1000
0000
0000
0000
,  // measure 12
0010
0000
0010
0000
,  // measure 13
0010
0000
0000
0000
,  // measure 14
0100
0000
0000
0000
,  // measure 15
0100
0000
0000
0000
,  // measure 16
0100
0100
0100
0000
,  // measure 17
0001
0000
0000
0000
,  // measure 18
0001
0001
0001
0000
,  // measure 19
1000
0000
0000
0000
,  // measure 20
1000
1000
1000
0000
,  // measure 21
0010
0000
0000
0000
,  // measure 22
0010
0010
0010
0000
,  // measure 23
0100
0000
0000
0100
,  // measure 24
0100
0000
0000
0000
,  // measure 25
0001
0000
0000
0001
,  // measure 26
0001
0000
0000
0000
,  // measure 27
1000
0000
0000
1000
,  // measure 28
1000
0000
0000
0000
,  // measure 29
0100
0000
0000
0100
,  // measure 30
0100
0000
0000
0000
,  // measure 31
0010
0000
0010
0000
,  // measure 32
0010
0000
0000
0000
,  // measure 33
0001
0000
0001
0000
,  // measure 34
0001
0000
0000
0000
,  // measure 35
0100
0000
0100
0000
,  // measure 36
0100
0000
0000
0000
,  // measure 37
1000
0000
1000
0000
,  // measure 38
1000
0000
0000
0000
,  // measure 39
0010
0000
0000
0000
;
