#TITLE:High School Love;
#SUBTITLE:;
#ARTIST:DJ YOSHITAKA feat. DWP;
#TITLETRANSLIT:High School Love;
#SUBTITLETRANSLIT:;
#ARTISTTRANSLIT:DJ YOSHITAKA feat. DWP;
#GENRE:;
#CREDIT:;
#MENUCOLOR:;
#METERTYPE:DDR;
#BANNER:High School Love.png;
#BACKGROUND:High School Love-bg.png;
#LYRICSPATH:;
#CDTITLE:cdtitle.png;
#MUSIC:High School Love.mp3;
#OFFSET:-0.026;
#SAMPLESTART:44.513;
#SAMPLELENGTH:15.000;
#SELECTABLE:YES;
#LISTSORT:;
#BPMS:0.000=180.000;
#STOPS:;
#BGCHANGES:;
#ATTACKS:;

//---------------dance-single - ----------------
#NOTES:
     dance-single:
     :
     Hard:
     11:
     0.587,0.591,0.238,0.071,0.000:
0000
0000
0000
0000
,
0000
0000
0000
0000
,
0000
0000
0000
0000
,
0000
0000
0000
0000
,
2000
0000
0100
0000
3001
0100
0000
0110
,
0000
0010
1000
0010
0100
0000
0001
0010
,
0100
0000
1000
0100
0000
0110
0000
1001
,
0000
0001
0100
0010
0000
1000
0100
0010
,
0001
0200
0000
0001
0000
0010
0000
1000
,
0000
0310
0100
0001
0000
0100
0010
1000
,
0100
0020
0000
0001
0000
0100
0000
1000
,
0000
0130
1000
0100
0000
0010
1000
0010
,
0001
0200
0000
1000
0000
0010
0000
0001
,
0000
0310
1000
0100
0000
0010
0000
0001
,
1000
0100
1000
0000
0001
0100
0001
0000
,
1000
0100
0001
0100
1000
0010
0100
0000
,
0001
0000
1000
0000
0001
0100
1000
0000
,
0001
0000
1000
0100
0001
0010
0100
0000
,
1000
0000
0100
0000
0001
0100
1000
0000
,
0010
0000
0001
0010
1000
0010
0100
0000
,
0001
0000
1000
0000
0001
0100
0001
0010
,
0000
0100
1000
0000
0010
0000
1000
0000
,
0100
0000
0010
0000
0100
1000
0100
0010
,
0000
0001
0100
0000
0001
0010
0100
1100
,
0000
1000
0100
0000
1000
0001
0000
0101
,
0000
0001
0100
0000
0010
1000
0100
1100
,
0000
0100
0010
0000
0001
0100
0000
0101
,
0000
0010
1000
0000
0001
1000
0001
0100
,
0010
1000
0100
0000
0010
0010
0100
0000
,
1000
0001
0100
0000
0010
1000
0100
0000
,
1000
0100
0010
0100
0000
0100
0010
0000
,
0001
0100
0010
0100
0000
0100
0010
0000
,
1000
0100
0001
0000
0001
0100
1000
0000
,
0100
0020
0200
0000
0000
0000
0030
0300
,
0000
0000
1001
0000
0010
0100
0010
0001
,
0000
0100
0000
0010
1000
0000
0001
0000
,
1000
0100
0000
0100
0000
0010
0000
0100
,
1000
0000
0001
0100
0010
1000
0100
0010
,
0001
0000
1000
0100
0000
0001
0000
0100
,
0000
1000
0001
0100
1000
0000
0100
0000
,
0001
0000
1000
0100
0000
0010
0001
0100
,
0000
0010
1000
0100
1000
0001
0100
0001
,
0000
0000
1001
0000
0010
1000
0010
0100
,
0000
0001
0000
1000
0100
0000
0010
0000
,
0100
1000
0000
0001
0000
0100
0000
0001
,
1000
0000
0100
0010
0100
1000
0001
0000
,
1000
0100
0010
0001
0000
1100
0000
0011
,
0000
1100
0000
0001
0100
0000
0010
0000
,
1000
0010
0100
0001
0000
0101
0000
1010
,
0000
0101
0000
1000
0010
0000
1000
0000
,
0001
0010
0100
1000
0000
1001
0000
0110
,
0000
1001
0000
0001
0010
0000
0100
0000
,
1000
0001
1000
0000
0001
1000
0001
0000
,
1000
0100
0001
0100
1000
0010
0100
0001
,
0000
1000
0100
0000
0001
0100
1000
0100
,
0000
0100
1000
0000
0001
0100
1000
0100
,
0000
0010
1000
0000
0100
0001
0100
1000
,
0000
0010
0100
0000
0001
0010
0100
1000
,
0000
0010
0100
0000
0001
0100
0001
0000
,
0010
0001
0010
0000
1000
0010
1000
0000
,
0100
1000
0100
0001
1000
0100
1000
0001
,
0100
0010
0100
0001
0010
0100
1000
0000
,
0100
0100
0010
0010
0001
0001
1000
1000
,
0010
0200
0020
0000
0000
0000
0300
0030
,
0000
1000
0000
1000
,
0000
0001
0000
0001
,
0000
0100
0000
0100
,
0000
0010
0000
0010
,
0100
0001
1000
0100
,
0010
1000
0001
0100
,
1000
0001
0100
0000
0001
1000
0100
0000
,
0001
0100
0001
0100
1000
0100
1000
0100
,
0000
0000
1001
0000
0010
1000
0100
0010
,
0000
0100
0000
1000
0001
0000
0100
0000
,
0010
1000
0000
0100
0000
0010
0000
0100
,
1000
0000
0001
0100
0010
0100
0001
0000
,
1000
0100
0001
0100
0000
1100
0000
0101
,
0000
0010
0100
1000
0100
0000
0010
0000
,
0100
1000
0010
0100
0000
1100
0000
1010
,
0000
0001
0010
0100
0001
0000
1000
0000
,
0100
1000
0010
0100
0000
0101
0000
1100
,
0000
1000
0001
0100
0001
0000
1000
0000
,
0001
0001
1001
0000
1000
1000
1001
0000
,
0010
0100
1000
0100
0001
0010
0100
0000
;

//---------------dance-single - ----------------
#NOTES:
     dance-single:
     :
     Medium:
     9:
     0.384,0.406,0.018,0.018,0.000:
0000
0000
0000
0000
,
0000
0000
0000
0000
,
0000
0000
0000
0000
,
0000
0000
0000
0000
,
1000
0000
0001
0000
1000
0000
0001
0100
,
0000
0001
1000
0001
,
0010
0000
0100
0000
1000
0000
0001
0100
,
0000
0010
0100
0001
,
1000
0000
0000
0001
0000
1000
0000
0001
,
0000
0100
0010
1000
,
0001
0000
0000
0100
0000
0010
0000
0100
,
0000
0001
0010
0100
,
1000
0000
0000
0001
0000
0100
0000
0001
,
0000
0010
0100
1000
,
0001
0101
1000
1100
,
0001
1000
0001
0100
,
0010
0100
0001
0001
,
0010
0100
1000
1000
,
0001
0100
1000
0100
,
0001
1000
0100
0010
,
0001
0001
0001
1000
,
0100
0100
0100
0010
,
1000
0100
0010
0001
,
0100
0000
0001
0000
0010
0100
0000
0010
,
0000
0000
0001
0000
0100
0010
0000
0100
,
0000
0000
0001
0000
0010
0100
0000
1000
,
0000
0000
0001
0000
0100
0010
0000
1000
,
0000
0010
0100
0001
,
1000
1000
0001
0001
,
1000
1000
0001
0001
,
1000
0100
0001
0100
,
1000
0100
0001
0100
,
1000
0100
1000
0000
0001
0100
0001
0000
,
0100
0010
0100
0000
0000
0000
0000
0000
,
0000
1000
0001
0100
,
0001
1000
0100
0010
,
0100
1000
0000
0001
0000
0100
0000
0010
,
0100
0001
1000
0001
,
0100
0100
0010
0010
,
1000
1000
0001
0001
,
0200
0000
0320
0000
,
1030
0000
0000
0000
0001
0000
1000
0100
,
0000
0001
0100
0001
,
0010
0100
1000
0001
,
0100
0010
0000
0100
0000
0001
0000
1000
,
0100
0010
0100
1000
,
0001
0001
0100
1000
,
0100
0001
1000
0001
,
1000
1000
0100
0001
,
0100
1000
0001
1000
,
0001
0001
0100
1000
,
0100
0001
1000
0001
,
1000
1000
0001
0001
,
0100
0000
0010
0000
1000
0001
0000
0100
,
0000
0000
0001
0000
1000
0100
0000
0010
,
0000
0000
0001
0000
0100
0001
0000
1000
,
0000
0000
0010
0000
0100
1000
0000
0100
,
0000
0000
0001
0000
0010
0100
0000
1000
,
0000
0001
0100
0001
,
1000
0100
1000
0001
,
1000
1000
0001
0001
,
1000
1000
0001
0001
,
1000
0100
1000
0000
0001
0100
0001
0000
,
0100
0010
0100
0000
0000
0000
0000
0000
,
0000
0010
0000
0010
,
0000
0100
0000
0100
,
0000
0001
0000
0001
,
0000
1000
0000
1000
,
0001
0000
1000
0000
,
0001
0000
0100
0000
,
0010
0000
1000
0000
,
0001
0000
0000
0000
0010
0000
0100
1000
,
0000
0001
0100
0001
,
1000
0100
0010
0001
,
1000
0100
0000
0010
0000
0100
0000
1000
,
0001
0100
0010
0100
,
0001
0000
0000
1000
0000
0001
0000
1000
,
0000
0010
0100
0001
,
1000
0000
0000
0100
0000
0010
0000
0100
,
0000
1000
0001
0100
,
0010
0000
0000
1000
0000
0010
0000
1000
,
0000
0001
0100
0001
,
0010
0100
0010
0100
,
1000
0000
0001
0000
1000
0100
0001
0000
;

//---------------dance-single - ----------------
#NOTES:
     dance-single:
     :
     Easy:
     6:
     0.281,0.332,0.000,0.018,0.000: // measure 1
0000
0000
0000
0000
,  // measure 2
0000
0000
0000
0000
,  // measure 3
0000
0000
0000
0000
,  // measure 4
0000
0000
0000
0000
,  // measure 5
1000
1000
1000
0000
,  // measure 6
0001
0001
0001
0000
,  // measure 7
0100
0010
0100
0010
,  // measure 8
1000
0001
1000
0000
,  // measure 9
0001
0000
0100
0000
,  // measure 10
0001
0000
0010
0000
,  // measure 11
0100
0000
1000
0000
,  // measure 12
0100
0000
0010
0000
,  // measure 13
0001
0000
1000
0000
,  // measure 14
0001
0000
0100
0000
,  // measure 15
0010
0000
0010
0000
,  // measure 16
0100
0010
0100
0010
,  // measure 17
0100
0000
0001
0000
,  // measure 18
1000
0100
1000
0000
,  // measure 19
0001
0000
0100
0000
,  // measure 20
0001
0010
0001
0000
,  // measure 21
1000
0000
0100
0000
,  // measure 22
0010
0100
1000
0000
,  // measure 23
0001
0000
0100
0000
,  // measure 24
0010
0000
0100
0000
0001
0000
0000
1000
,  // measure 25
0000
0000
0001
0000
0100
0000
0000
0010
,  // measure 26
0000
0000
0100
0000
0001
0000
0000
1000
,  // measure 27
0000
0000
0100
0000
0010
0000
0000
0100
,  // measure 28
0000
1000
0001
0100
,  // measure 29
0010
0010
0010
0000
,  // measure 30
0100
0100
0100
0000
,  // measure 31
0001
1000
0001
1000
,  // measure 32
0010
0100
0010
0100
,  // measure 33
0001
1000
0001
1000
,  // measure 34
0010
0010
0000
0000
,  // measure 35
0000
0100
0000
0100
,  // measure 36
0000
0100
0001
1000
,  // measure 37
0100
0100
0100
0000
,  // measure 38
1000
0001
0100
0000
,  // measure 39
0010
0000
1000
0000
,  // measure 40
0001
0010
0100
0000
,  // measure 41
0001
0000
0100
0000
,  // measure 42
0010
1000
0100
0000
,  // measure 43
0000
1000
0000
1000
,  // measure 44
0000
0001
0000
0001
,  // measure 45
0100
0010
1000
0001
,  // measure 46
1000
0000
0010
0100
,  // measure 47
0001
0000
0010
0100
,  // measure 48
1000
0000
0001
1000
,  // measure 49
0001
0000
1000
0001
,  // measure 50
1000
0000
0010
0100
,  // measure 51
0010
0000
0100
0010
,  // measure 52
0100
0000
0100
0001
,  // measure 53
2000
3000
0002
0003
,  // measure 54
1000
0001
1000
0001
,  // measure 55
0000
1000
0100
1000
,  // measure 56
0000
0001
0100
0001
,  // measure 57
0000
1000
0010
1000
,  // measure 58
0000
0001
0010
0001
,  // measure 59
1000
0000
0001
0000
,  // measure 60
1000
0000
0001
0000
,  // measure 61
0100
0010
0100
0010
,  // measure 62
1000
0001
1000
0001
,  // measure 63
0010
0100
0010
0100
,  // measure 64
0010
0010
0000
0000
,  // measure 65
0000
0001
0000
0000
,  // measure 66
0000
1000
0000
0000
,  // measure 67
0000
0001
0000
0000
,  // measure 68
0000
0100
0000
0000
,  // measure 69
0010
0000
0010
0000
,  // measure 70
0010
0000
0010
0000
,  // measure 71
0010
0100
0010
0100
,  // measure 72
0010
0100
0010
0100
,  // measure 73
0000
0001
0000
1000
,  // measure 74
0000
0001
0000
0100
,  // measure 75
0001
0010
0100
1000
,  // measure 76
0001
0100
0010
0000
,  // measure 77
0100
0001
0100
0000
,  // measure 78
0010
1000
0100
0000
,  // measure 79
0010
0001
1000
0000
,  // measure 80
0001
0100
0010
0000
,  // measure 81
1000
0001
0100
0000
,  // measure 82
0100
0000
0100
0000
,  // measure 83
0001
1000
0100
0000
,  // measure 84
0010
0100
0001
1000
;

//---------------dance-single - ----------------
#NOTES:
     dance-single:
     :
     Beginner:
     3:
     0.127,0.222,0.000,0.000,0.000: // measure 1
0000
0000
0000
0000
,  // measure 2
0000
0000
0000
0000
,  // measure 3
0000
0000
0000
0000
,  // measure 4
0000
0000
0000
0000
,  // measure 5
1000
0000
0000
0000
,  // measure 6
0001
0000
0000
0000
,  // measure 7
1000
0000
0000
0000
,  // measure 8
0001
0000
0000
0000
,  // measure 9
0100
0000
0000
0000
,  // measure 10
0000
0000
0000
0000
,  // measure 11
0100
0000
0000
0000
,  // measure 12
0000
0000
0000
0000
,  // measure 13
0100
0000
0000
0000
,  // measure 14
0000
0000
0000
0000
,  // measure 15
0100
0000
0000
0000
,  // measure 16
0100
0100
0100
0000
,  // measure 17
0001
0000
0000
0000
,  // measure 18
1000
0000
0000
0000
,  // measure 19
0001
0000
0000
0000
,  // measure 20
0010
0000
0000
0000
,  // measure 21
0001
0000
0000
0000
,  // measure 22
0100
0000
0000
0000
,  // measure 23
0010
0000
0000
0000
,  // measure 24
1000
0000
0000
0000
,  // measure 25
0100
0000
0000
0000
,  // measure 26
0001
0000
0000
0000
,  // measure 27
0100
0000
0000
0000
,  // measure 28
1000
0000
0000
0000
,  // measure 29
0010
0000
0010
0000
,  // measure 30
0010
0000
0000
0000
,  // measure 31
0100
0000
0100
0000
,  // measure 32
0100
0000
0000
0000
,  // measure 33
0001
0000
0001
0000
,  // measure 34
0001
0000
0000
0000
,  // measure 35
0000
1000
0000
0000
,  // measure 36
0000
0000
0000
0000
,  // measure 37
0001
0000
0001
0000
,  // measure 38
0001
0000
0000
0000
,  // measure 39
0100
0000
0100
0000
,  // measure 40
0100
0000
0000
0000
,  // measure 41
0010
0000
0010
0000
,  // measure 42
0010
0000
0000
0000
,  // measure 43
0000
0100
0000
0000
,  // measure 44
0000
0000
0000
0000
,  // measure 45
0001
0000
0001
0000
,  // measure 46
0001
0000
0000
0000
,  // measure 47
1000
0000
0000
0000
,  // measure 48
0100
0100
0100
0000
,  // measure 49
0100
0000
0000
0000
,  // measure 50
0010
0010
0010
0000
,  // measure 51
0010
0000
0000
0000
,  // measure 52
0001
0001
0001
0000
,  // measure 53
0001
0000
0000
0000
,  // measure 54
1000
1000
1000
0000
,  // measure 55
0000
0010
0000
0010
,  // measure 56
0000
0100
0000
0100
,  // measure 57
0000
0010
0000
0010
,  // measure 58
0000
0100
0000
0100
,  // measure 59
0000
0000
0000
0000
,  // measure 60
0001
0000
0000
0000
,  // measure 61
0001
0000
0000
0000
,  // measure 62
1000
0000
1000
0000
,  // measure 63
1000
0000
1000
1000
,  // measure 64
1000
0000
0000
0000
,  // measure 65
0000
0000
0000
0000
,  // measure 66
0000
0000
0000
0000
,  // measure 67
0000
0000
0000
0000
,  // measure 68
0000
0000
0000
0000
,  // measure 69
0100
0000
0000
0000
,  // measure 70
0010
0000
0000
0000
,  // measure 71
0001
0000
0001
0000
,  // measure 72
0001
0000
0000
0000
,  // measure 73
0000
0001
0000
0001
,  // measure 74
0000
0001
0001
0000
,  // measure 75
0001
0000
0000
0000
,  // measure 76
0100
0000
0000
0000
,  // measure 77
0010
0000
0000
0000
,  // measure 78
1000
0000
0000
0000
,  // measure 79
0100
0000
0000
0000
,  // measure 80
0001
0000
0000
0000
,  // measure 81
0010
0000
0000
0000
,  // measure 82
0100
0000
0000
0000
,  // measure 83
1000
0000
1000
0000
,  // measure 84
0001
0001
0001
0001
;
