#TITLE:DYNAMITE RAVE;
#SUBTITLE:;
#ARTIST:NAOKI;
#TITLETRANSLIT:DYNAMITE RAVE;
#SUBTITLETRANSLIT:;
#ARTISTTRANSLIT:NAOKI;
#GENRE:;
#CREDIT:;
#MENUCOLOR:;
#METERTYPE:DDR;
#BANNER:DYNAMITE RAVE.png;
#BACKGROUND:DYNAMITE RAVE-bg.png;
#LYRICSPATH:;
#CDTITLE:cdtitle.png;
#MUSIC:DYNAMITE RAVE.mp3;
#OFFSET:-0.031;
#SAMPLESTART:40.020;
#SAMPLELENGTH:13.000;
#SELECTABLE:YES;
#LISTSORT:;
#BPMS:0.000=150.000;
#STOPS:;
#BGCHANGES:;
#ATTACKS:;

//---------------dance-single - ----------------
#NOTES:
     dance-single:
     :
     Hard:
     11:
     0.600,0.645,0.593,0.064,0.106:
0000
0000
0000
0000
,
0000
0000
0000
0000
,
0000
0000
0000
0000
,
0000
0000
0000
0000
,
1000
0000
0001
0000
0100
0000
0010
0100
0000
0001
0100
0000
0010
0000
1000
0000
,
0100
0000
0010
0000
0001
0000
0100
0001
0000
0010
0001
0000
0100
0000
0010
0000
,
1000
0000
0100
0000
0010
0000
0100
1000
0000
0010
1000
0000
0001
0000
0100
0000
,
0010
0000
1000
0000
0001
0000
0100
0010
0000
1000
0010
0000
1000
0001
1000
0002
,
2000
0000
0000
3003
,
1000
0001
0100
0000
0001
1000
0010
0000
,
1000
0001
0100
0010
0100
0001
1001
0000
,
0001
0010
0100
0000
1000
0010
0100
0000
,
0001
0100
1000
0100
0001
0010
0110
0000
,
1000
0100
0001
1000
0010
0001
0100
0000
,
0001
0100
1000
0001
0010
1000
0100
0000
,
1000
0100
1100
0000
0001
0100
0101
0000
,
1010
0000
0011
0000
0001
1000
1001
0000
,
1100
0000
1100
0000
0001
0100
0110
0000
,
1000
0010
0001
0010
1000
0001
0101
0000
,
0010
0000
1000
0000
1001
0000
0000
0000
0100
0010
0100
0000
0110
0000
0000
0000
,
0010
1000
0001
0000
0100
0010
0110
0000
,
0010
1000
1100
0000
0010
0001
0101
0000
,
1000
0100
0001
0010
1000
0010
0001
0000
,
1001
0010
0100
0000
0110
1000
0001
0000
,
1100
0101
0011
1010
,
1001
0000
1100
0000
1001
0000
0101
0010
,
0000
0010
1000
0100
0000
0100
1000
0010
,
0000
0100
0001
0100
0010
0100
0000
0110
,
0000
0001
0100
1000
0100
0001
0010
0010
,
0010
1100
0101
1001
,
0001
0100
1000
0100
0000
0001
0000
0010
,
0100
1000
0001
0100
0010
0100
0001
1000
,
0100
0101
2200
3300
,
0001
0000
0100
0000
0010
0000
0000
1000
0000
0000
0100
0000
0010
0000
0000
0000
,
0100
0000
1000
0000
0001
0000
0000
0100
0000
0000
0001
0000
0000
0010
0000
0000
,
0000
1000
0010
0000
0000
0001
0100
0000
,
0010
0000
1000
0000
0001
0000
1000
0100
0000
0001
0100
0000
0000
0000
0000
0000
,
1001
0000
1001
0000
0100
0000
0000
0000
0000
0000
0010
0000
0000
0100
0000
0000
,
0000
0000
0001
0000
0100
0000
0000
0000
0000
0000
1000
0000
0000
0100
0000
0000
,
0001
0100
0010
0000
1000
0100
0010
0000
,
0001
0100
1000
0100
0001
0100
0010
0100
,
0001
0000
1001
0000
0010
0100
0110
0000
,
1000
0100
0001
0100
1000
0010
0110
0000
,
0101
0100
0001
0000
1100
0100
1000
0000
,
0001
0010
0100
1000
0001
0100
0110
0000
,
0010
1000
0010
0100
0001
0010
0100
0000
,
0001
0100
1000
0010
0100
0001
0010
0000
,
1000
0100
1100
0000
0001
0100
0101
0000
,
1000
0100
0001
0010
0100
1000
0010
0001
,
1001
0000
0110
0000
1001
0000
0001
0100
,
0001
0010
0100
1000
0000
1100
0000
0101
,
0000
0010
0100
0001
1000
0100
0000
1100
,
0000
0101
0001
0010
0001
0100
0010
0010
,
0010
1100
0202
0303
,
0001
0010
1000
0010
0000
0001
0000
1000
,
0100
0001
1000
0010
0001
1000
0010
0001
,
1000
0000
0100
0001
1001
0000
0110
0000
,
0001
0000
0000
1100
0000
0000
1000
0000
0000
0101
0000
0000
0010
0000
0100
0000
,
1001
0000
0000
0000
;

//---------------dance-single - ----------------
#NOTES:
     dance-single:
     :
     Medium:
     9:
     0.449,0.553,0.815,0.021,0.011:
0000
0000
0000
0000
,
0000
0000
0000
0000
,
0000
0000
0000
0000
,
0000
0000
0000
0000
,
1000
0001
0100
0000
0001
1000
0100
0000
,
1000
0001
0010
0000
0001
1000
0010
0000
,
1000
0100
0001
0000
0001
0100
1000
0000
,
0001
0100
1000
0000
1000
0100
0001
0000
,
2002
0000
0000
3003
,
0010
0010
0100
0100
,
0001
1000
0001
1000
,
0100
0100
0010
0010
,
0001
1000
0001
1000
,
0010
0010
0100
0100
,
0001
0010
0100
1000
,
0001
0100
0010
0100
,
0001
1000
0100
0010
,
1000
0001
0100
0101
,
0001
1000
0100
1100
,
1000
0010
0100
0101
,
0010
1000
0001
0101
,
0001
1000
0100
0110
,
0010
1000
0001
0101
,
1000
0100
1000
0100
,
0010
0001
0100
1001
,
1001
1001
1100
1100
,
1001
1001
0101
0101
,
1001
1100
1001
0101
,
1001
0110
1001
0110
,
1001
1010
1100
0101
,
0011
1001
0110
1001
,
1001
0101
0011
1010
,
1100
1001
0110
1001
,
1001
0010
0000
0010
,
0100
0001
0000
0001
,
1000
0100
0000
0100
,
0010
0001
0100
0010
,
1000
0100
0000
0100
,
0010
0001
0000
0001
,
0100
0010
0000
0010
,
1000
0001
1000
0001
,
0100
0100
0010
1010
,
0100
0001
0010
0100
,
1000
0001
0100
0101
,
0001
1000
0100
0100
,
1000
0010
0100
0101
,
0010
1000
0001
0010
,
0100
1000
0001
0101
,
0010
1000
0001
0100
,
1001
1001
1100
1100
,
1001
1001
0101
0101
,
1001
1100
1001
0101
,
1001
0110
1001
0110
,
1001
1010
1100
0101
,
0011
1001
0110
1001
,
1001
0101
0011
1010
,
1100
1001
0110
1001
,
0010
0000
0000
0010
0000
0000
0010
0000
0000
0010
0000
0000
0100
0000
0001
0000
,
1000
0000
0000
0000
;

//---------------dance-single - ----------------
#NOTES:
     dance-single:
     :
     Easy:
     5:
     0.253,0.276,0.032,0.011,0.000: // measure 1
0000
0000
0000
0000
,  // measure 2
0000
0000
0000
0000
,  // measure 3
0000
0000
0000
0000
,  // measure 4
0000
0000
0000
0000
,  // measure 5
1000
0001
0100
0100
,  // measure 6
0001
1000
0100
0100
,  // measure 7
1000
0001
0100
0100
,  // measure 8
0001
1000
0100
0100
,  // measure 9
0020
0000
0000
0030
,  // measure 10
0001
0100
0001
0000
,  // measure 11
1000
0100
1000
0000
,  // measure 12
0001
0000
0101
0000
,  // measure 13
1000
0000
1100
0000
,  // measure 14
0001
0100
0010
0000
,  // measure 15
1000
0100
0010
0000
,  // measure 16
0001
1000
0100
0000
,  // measure 17
1000
0001
0100
0000
,  // measure 18
0010
0010
0010
0000
,  // measure 19
0100
0100
0100
0000
,  // measure 20
0001
1000
0001
0000
,  // measure 21
1000
0001
1000
0000
,  // measure 22
0010
0100
0001
0000
,  // measure 23
0010
0100
1000
0000
,  // measure 24
0001
1000
0001
0000
,  // measure 25
1000
0001
1000
0000
,  // measure 26
0010
0000
0100
0000
,  // measure 27
0001
1000
0100
0010
,  // measure 28
0100
1000
0001
0000
,  // measure 29
0100
0100
0100
0000
,  // measure 30
0000
0010
0010
0000
,  // measure 31
0100
0000
0001
1000
0000
0000
0000
0000
,  // measure 32
0001
0100
1000
0100
,  // measure 33
0001
1000
0001
0000
,  // measure 34
1000
0100
0000
0100
,  // measure 35
0000
0100
0000
0100
,  // measure 36
0000
0010
0000
0010
,  // measure 37
0000
0010
0001
1000
,  // measure 38
0000
0010
0000
0010
,  // measure 39
0000
0100
0000
0100
,  // measure 40
0000
0001
0000
1000
,  // measure 41
0001
1000
0001
1000
,  // measure 42
0010
0010
0010
0000
,  // measure 43
0100
0001
1000
0100
,  // measure 44
0010
0010
0010
0000
,  // measure 45
0001
0100
0010
1000
,  // measure 46
0100
0100
0100
0000
,  // measure 47
0010
0001
1000
0001
,  // measure 48
0100
0100
0100
0000
,  // measure 49
0010
1000
0001
0010
,  // measure 50
0100
1000
0100
0000
,  // measure 51
0010
0000
0010
0000
,  // measure 52
0001
0100
0001
0000
,  // measure 53
1000
0100
1000
0000
,  // measure 54
0000
0010
0010
0000
,  // measure 55
0100
0000
0001
1000
0000
0000
0000
0000
,  // measure 56
0100
0001
1000
0100
,  // measure 57
0010
0010
0010
0001
,  // measure 58
1000
0000
0000
0001
0000
0000
1000
0000
,  // measure 59
1001
0000
0000
0000
;

//---------------dance-single - ----------------
#NOTES:
     dance-single:
     :
     Beginner:
     1:
     0.091,0.154,0.011,0.000,0.000: // measure 1
0000
0000
0000
0000
,  // measure 2
0000
0000
0000
0000
,  // measure 3
0000
0000
0000
0000
,  // measure 4
0000
0000
0000
0000
,  // measure 5
0001
0000
0000
0000
,  // measure 6
1000
0000
0000
0000
,  // measure 7
0001
0000
0000
0000
,  // measure 8
1000
0000
0000
0000
,  // measure 9
0100
0000
0000
0000
,  // measure 10
0100
0000
0000
0000
,  // measure 11
0001
0000
0000
0000
,  // measure 12
1000
0000
0000
0000
,  // measure 13
0100
0000
0000
0000
,  // measure 14
1000
0000
1000
0000
,  // measure 15
1000
0000
0000
0000
,  // measure 16
0001
0000
0001
0000
,  // measure 17
0001
0000
0000
0000
,  // measure 18
0100
0000
0000
0000
,  // measure 19
0001
0000
0000
0000
,  // measure 20
1000
0000
0000
0000
,  // measure 21
0100
0000
0000
0000
,  // measure 22
1000
0000
0000
0000
,  // measure 23
0001
0000
0000
0000
,  // measure 24
0100
0000
0100
0000
,  // measure 25
0100
0000
0100
0000
,  // measure 26
0100
0000
0000
0000
,  // measure 27
0000
0000
0001
0000
,  // measure 28
0001
0000
0000
0000
,  // measure 29
0000
0000
1000
0000
,  // measure 30
1000
0000
0000
0000
,  // measure 31
0000
0000
0100
0000
,  // measure 32
0100
0000
0000
0000
,  // measure 33
0000
0000
1000
0000
,  // measure 34
1000
0000
0000
0000
,  // measure 35
0000
0000
0000
0000
,  // measure 36
0100
0000
0000
0000
,  // measure 37
0000
0000
0000
0000
,  // measure 38
0001
0000
0000
0000
,  // measure 39
0000
0000
0000
0000
,  // measure 40
0100
0000
0000
0000
,  // measure 41
0000
0000
0000
0000
,  // measure 42
1000
0000
0000
0000
,  // measure 43
0001
0000
0000
0000
,  // measure 44
0100
0000
0000
0000
,  // measure 45
0001
0000
0000
0000
,  // measure 46
1000
0000
0000
0000
,  // measure 47
0100
0000
0000
0000
,  // measure 48
1000
0000
0000
0000
,  // measure 49
0001
0000
0000
0000
,  // measure 50
0100
0000
0000
0000
,  // measure 51
0100
0000
0000
0000
,  // measure 52
0001
0000
0001
0000
,  // measure 53
0001
0000
0001
0000
,  // measure 54
0001
0000
0000
0000
,  // measure 55
1000
0000
0000
0000
,  // measure 56
0100
0000
0100
0000
,  // measure 57
0100
0000
0100
0000
,  // measure 58
0100
0000
0000
0000
,  // measure 59
1001
0000
0000
0000
;
