#TITLE:DROP OUT;
#SUBTITLE:;
#ARTIST:NW260;
#TITLETRANSLIT:DROP OUT;
#SUBTITLETRANSLIT:;
#ARTISTTRANSLIT:NW260;
#GENRE:;
#CREDIT:;
#MENUCOLOR:;
#METERTYPE:DDR;
#BANNER:DROP OUT.PNG;
#BACKGROUND:DROP OUT-bg.png;
#LYRICSPATH:;
#CDTITLE:cdtitle.png;
#MUSIC:DROP OUT.mp3;
#OFFSET:-0.024;
#SAMPLESTART:38.777;
#SAMPLELENGTH:15.000;
#SELECTABLE:YES;
#LISTSORT:;
#BPMS:0.000=260.000;
#STOPS:;
#BGCHANGES:;
#ATTACKS:;

//---------------dance-single - ----------------
#NOTES:
     dance-single:
     :
     Hard:
     13:
     0.689,0.896,0.331,0.130,0.000:
0000
0000
0000
0000
,
0000
0000
0000
0000
,
0000
0000
0000
0000
,
0000
0000
0000
0000
,
0000
0000
0000
0000
,
0000
0000
0000
0000
,
0000
0000
0000
0000
,
0000
0000
0000
0000
,
0010
1001
0100
0100
,
0001
1000
0000
1000
0100
0000
0000
0000
,
1000
0101
0010
0010
,
1000
0100
0000
0100
0010
0000
0000
0000
,
0001
0110
1000
1000
,
0010
0100
0000
0100
0001
0000
0000
0000
,
0100
1010
0001
0001
,
1000
0010
1000
0010
0100
0001
0100
0001
,
0020
0000
0000
0000
,
0000
0000
0130
0000
,
1000
0001
0100
0010
,
0100
0001
0000
0001
0010
0000
0000
0000
,
0100
1000
0001
0100
,
0010
0100
0000
0100
0001
0000
0000
0000
,
1000
0100
0001
0100
,
1000
0010
0000
0010
0100
0000
0000
0000
,
0001
0100
1000
0100
,
0001
0010
0000
0010
0100
0000
0000
0000
,
1000
0000
0100
0010
0001
0000
0100
0000
,
0001
0000
0010
0100
1000
0000
0010
0000
,
1000
0000
0100
0010
0001
0000
0100
0000
,
0001
0000
0010
0100
1000
0000
0010
0000
,
0100
0001
0100
0001
,
1000
0100
1000
0100
,
0010
0001
0100
0010
,
1000
0001
1001
0000
,
0001
0000
0100
0010
1000
0000
0100
0000
,
1000
0000
0010
0100
0001
0000
0010
0000
,
0001
0000
0100
0010
1000
0000
0100
0000
,
1000
0000
0010
0100
0001
0000
0010
0000
,
0100
1000
0100
1000
,
0001
0100
0001
0100
,
0010
1000
0100
0010
,
0001
1000
1001
0000
,
0020
0000
0000
0000
,
0000
0000
0130
0000
,
0001
1000
0100
0010
,
0100
1000
0000
1000
0010
0000
0000
0000
,
0100
0001
1000
0100
,
0010
0100
0000
0100
1000
0000
0000
0000
,
0001
0100
1000
0100
,
0001
0010
0000
0010
0100
0000
0000
0000
,
1000
0100
0001
0100
,
1000
0010
0000
0010
0100
0000
0000
0000
,
0001
1000
1100
0000
,
1000
0001
0101
0000
,
0001
1000
1010
0000
,
1000
0001
0010
0100
,
1000
0010
0100
0001
,
1000
0100
0010
0001
,
1000
0100
0001
0100
,
1000
0000
0001
0000
0100
0010
0100
0010
,
0000
0200
0301
2000
,
3100
0000
1000
0010
0100
0000
0001
0000
,
0010
0200
1300
0020
,
0130
0000
0001
0100
0010
0000
1000
0001
,
1000
0001
1000
0000
0100
0000
1100
0000
,
1100
0001
0100
0101
,
0101
1000
0010
1010
,
1010
0000
0001
1000
0000
1000
0001
0000
,
0000
2000
3010
0002
,
0013
0000
1000
0100
0010
0000
0001
0000
,
1000
0200
0301
0200
,
1300
0000
0001
0100
0010
0000
1000
0001
,
1000
0001
1000
0000
0001
0000
0011
0000
,
0011
0001
1000
1010
,
1010
1000
0001
1001
,
1001
0000
1000
0100
0000
0100
0010
0001
,
1000
0001
1000
0000
0100
0000
0010
0000
,
0001
1000
0100
0010
,
0001
0001
0100
0010
,
1000
0001
0100
0010
,
1000
1000
0010
0100
,
0001
1000
0010
0100
,
0001
0000
1000
0100
1000
0001
1000
0000
,
0001
0100
0001
1000
0001
0000
1000
0001
,
2000
0002
0000
0000
0000
0000
0000
0000
,
0000
0000
0000
3003
,
0010
0010
0100
0100
,
0001
0010
0100
1000
,
0001
0100
0001
0000
1000
0100
1000
0000
,
0001
0010
0001
0000
1000
0010
1000
0000
,
0001
0010
0100
0000
0100
0010
0001
0000
,
1000
0010
0100
0000
0100
0010
1000
0000
,
0001
0100
0001
0000
1000
0010
1000
0000
,
0001
0010
0001
0000
0200
0000
0000
0000
,
0300
0000
0001
0010
0001
0010
0100
1000
,
0100
1000
0001
0100
0001
0100
0010
1000
,
0010
1000
0001
0100
0001
1000
0001
0100
,
0001
1000
0010
0100
0010
1000
0010
0100
,
0010
1000
0001
0010
0100
1000
0001
0100
,
0010
0100
0001
0010
0100
1000
0001
0100
,
0010
1000
0100
0010
0100
1000
0001
0100
,
0010
1000
0100
0010
0001
0000
1000
0100
,
1000
0001
0000
0101
0000
1100
0000
0101
,
0000
1100
0000
0011
0000
1010
0000
0011
,
0000
1010
0000
1001
0000
0011
0000
1100
,
0000
1001
0000
0000
0000
0000
0000
0000
;

//---------------dance-single - ----------------
#NOTES:
     dance-single:
     :
     Medium:
     10:
     0.411,0.475,0.010,0.010,0.000:
0000
0000
0000
0000
,
0000
0000
0000
0000
,
0000
0000
0000
0000
,
0000
0000
0000
0000
,
0000
0000
0000
0000
,
0000
0000
0000
0000
,
0000
0000
0000
0000
,
0000
0000
1001
0000
,
0010
1000
0001
0000
,
0100
1000
0001
0000
,
1000
0100
0010
0000
,
1000
0100
0010
0000
,
0001
1000
0010
0000
,
0001
1000
0010
0000
,
0100
0001
1000
0000
,
1000
0001
0100
0000
,
0010
0000
0010
0000
,
0100
0010
0100
0000
,
0001
0000
1000
0000
,
0001
1000
0100
0000
,
1000
0000
0001
0000
,
1000
0001
0100
0000
,
0001
0000
1000
0000
,
0001
1000
0010
0000
,
1000
0000
0001
0000
,
1000
0001
0010
0000
,
0001
0100
0001
0001
,
1000
0100
1000
1000
,
0001
0010
0001
0001
,
1000
0010
1000
1000
,
0001
0000
0100
0000
,
0001
0000
1000
0000
,
0100
0000
1000
0000
,
0001
0100
0010
0000
,
1000
0100
1000
1000
,
0001
0100
0001
0001
,
1000
0010
1000
1000
,
0001
0010
0001
0001
,
0100
0000
0001
0000
,
0010
0000
0100
0000
,
1000
0000
0001
0000
,
0100
0010
0100
0000
,
0001
0000
1000
0000
,
0001
1000
0100
0000
,
0010
0000
0100
0000
,
1000
0000
0100
0000
,
0010
0000
0001
0000
,
0100
0001
1000
0000
,
0010
0000
1000
0000
,
0010
0000
0100
0000
,
0001
0000
0010
0000
,
0100
1000
0001
0000
,
1000
0100
1000
0000
,
0100
0001
0100
0000
,
0001
0010
0001
0000
,
0010
1000
0010
1000
,
0100
1000
0100
0000
,
0001
0100
0001
0000
,
0010
0001
0010
0000
,
1000
0010
1000
0001
,
0000
0100
0000
0001
,
0000
1000
0100
0010
,
0000
0001
0000
0100
,
0000
0010
0100
0001
,
1000
0100
0000
0010
,
0000
0100
1000
0001
,
0000
0100
0000
0010
,
0000
0100
0001
1000
,
0001
1000
0000
0100
,
0000
0010
0100
1000
,
0000
0001
0000
0100
,
0000
0010
0100
0001
,
1000
0001
0000
0100
,
0000
0010
1000
0100
,
0000
0010
0000
0100
,
0000
1000
0001
0100
,
0010
0100
0000
0001
,
0000
1000
0000
1000
,
0000
0100
0010
0100
,
0000
1000
0000
1000
,
0000
0001
0000
0100
,
0000
0010
0000
0010
,
0000
0100
0001
0100
,
0000
0010
0000
0010
,
0000
0200
0000
0000
,
0000
0000
0000
0300
,
0001
0100
0001
0001
,
1000
0100
1000
0000
,
0001
0010
0100
1000
,
0001
0010
0100
0001
,
0000
0100
0001
1000
,
0100
0010
0100
1000
,
0000
0001
0100
0010
,
0010
0100
0100
0000
,
0000
0001
1000
0001
,
1000
0010
0100
0001
,
0010
0100
1000
0100
,
1000
0010
0100
0001
,
1000
0001
0100
0010
,
0100
0001
0010
0100
,
1000
0001
0100
0010
,
0100
0001
1000
0100
,
1000
0000
0000
0001
0000
0001
0000
0100
,
0000
0100
0000
1000
0000
1000
0000
0100
,
0000
0100
0000
0001
0000
0100
0000
1000
,
0000
0100
0000
0001
0000
0000
0000
0000
;

//---------------dance-single - ----------------
#NOTES:
     dance-single:
     :
     Easy:
     6:
     0.312,0.369,0.070,0.110,0.000: // measure 1
0000
0000
0000
0000
,  // measure 2
0000
0000
0000
0000
,  // measure 3
0000
0000
0000
0000
,  // measure 4
0000
0000
0000
0000
,  // measure 5
0000
0000
0000
0000
,  // measure 6
0000
0000
0000
0000
,  // measure 7
0000
0000
0000
0000
,  // measure 8
0000
0000
0000
0000
,  // measure 9
0010
0000
0100
0000
,  // measure 10
0010
0000
0000
0000
,  // measure 11
0100
0000
0010
0000
,  // measure 12
0100
0000
0000
0000
,  // measure 13
0001
0000
1000
0000
,  // measure 14
0001
0000
0000
0000
,  // measure 15
1000
0000
0001
0000
,  // measure 16
1000
0001
1000
0001
,  // measure 17
0200
0000
0000
0000
,  // measure 18
0000
0000
0300
0000
,  // measure 19
0010
0000
1000
0000
,  // measure 20
0001
0000
0100
0000
,  // measure 21
0001
0000
0010
0000
,  // measure 22
0100
0000
1000
0000
,  // measure 23
0010
0000
1000
0000
,  // measure 24
0001
0000
0100
0000
,  // measure 25
0001
0000
0010
0000
,  // measure 26
0100
0000
1000
0000
,  // measure 27
0002
0000
0003
1000
,  // measure 28
2000
0000
3000
0001
,  // measure 29
0002
0000
0003
1000
,  // measure 30
2000
0000
3000
0001
,  // measure 31
0100
0000
0000
1000
,  // measure 32
0100
0000
0000
0001
,  // measure 33
0010
0000
0000
1000
,  // measure 34
0010
0000
0000
0000
,  // measure 35
0002
0000
0003
1000
,  // measure 36
2000
0000
3000
0001
,  // measure 37
0002
0000
0003
1000
,  // measure 38
2000
0000
3000
0001
,  // measure 39
0100
0000
0000
1000
,  // measure 40
0100
0000
0000
0001
,  // measure 41
0010
0000
0000
1000
,  // measure 42
0010
0000
0000
0000
,  // measure 43
0200
0000
0000
0000
,  // measure 44
0000
0000
0300
0000
,  // measure 45
1000
0000
0001
0000
,  // measure 46
0100
0000
0010
0000
,  // measure 47
1000
0000
0100
0000
,  // measure 48
0010
0000
0001
0000
,  // measure 49
1000
0000
0001
0000
,  // measure 50
0100
0000
0010
0000
,  // measure 51
1000
0000
0100
0000
,  // measure 52
0010
0000
0001
0000
,  // measure 53
1000
0000
1100
0000
,  // measure 54
0001
0000
0101
0000
,  // measure 55
1000
0000
1100
0000
,  // measure 56
0001
0000
0101
0000
,  // measure 57
1000
0000
0010
0000
,  // measure 58
0100
0000
0001
0000
,  // measure 59
0010
0000
0100
0000
,  // measure 60
1000
0001
1000
0001
,  // measure 61
0000
0100
0000
0001
,  // measure 62
0000
0010
0000
0100
,  // measure 63
0000
1000
0000
0010
,  // measure 64
0000
0100
0000
0001
,  // measure 65
0000
0010
0100
1000
,  // measure 66
0000
0010
0100
0001
,  // measure 67
0000
0010
0100
1000
,  // measure 68
0000
0010
0100
0001
,  // measure 69
0000
0010
0000
0100
,  // measure 70
0000
1000
0000
0010
,  // measure 71
0000
0100
0000
0001
,  // measure 72
0000
0010
0000
0100
,  // measure 73
0000
1000
0001
0100
,  // measure 74
0000
0010
1000
0001
,  // measure 75
0000
0010
0100
1000
,  // measure 76
0000
0001
0100
0010
,  // measure 77
0000
1000
0000
1000
,  // measure 78
0000
0001
0000
0001
,  // measure 79
0000
1000
0000
1000
,  // measure 80
0000
0001
1000
0001
,  // measure 81
0000
1000
0000
1000
,  // measure 82
0000
0001
0000
0001
,  // measure 83
0000
1000
0000
1000
,  // measure 84
0000
0001
1000
0001
,  // measure 85
0000
0200
0000
0000
,  // measure 86
0000
0000
0300
0000
,  // measure 87
0001
1000
0000
0001
,  // measure 88
0000
0010
0000
0100
,  // measure 89
0000
1000
0000
0001
,  // measure 90
0000
0100
0000
0010
,  // measure 91
0000
0010
0000
0100
,  // measure 92
0000
0100
0000
0001
,  // measure 93
0000
1000
0000
0100
,  // measure 94
0000
0010
0001
0000
,  // measure 95
0000
0001
0000
0100
,  // measure 96
0000
0001
0000
1000
,  // measure 97
0000
0100
0010
0100
,  // measure 98
0000
1000
0001
1000
,  // measure 99
0000
0001
0000
0100
,  // measure 100
0000
0010
0000
1000
,  // measure 101
0000
0001
0100
0001
,  // measure 102
1000
0100
0100
0000
,  // measure 103
0000
0000
0000
1000
0000
0000
0000
0101
,  // measure 104
0000
0000
0000
0001
0000
0000
0000
1100
,  // measure 105
0000
0000
0000
1001
0000
0000
0000
0100
,  // measure 106
0000
0010
0000
0000
0000
0000
0000
0000
;

//---------------dance-single - ----------------
#NOTES:
     dance-single:
     :
     Beginner:
     3:
     0.163,0.211,0.060,0.000,0.000: // measure 1
0000
0000
0000
0000
,  // measure 2
0000
0000
0000
0000
,  // measure 3
0000
0000
0000
0000
,  // measure 4
0000
0000
0000
0000
,  // measure 5
0000
0000
0000
0000
,  // measure 6
0000
0000
0000
0000
,  // measure 7
0000
0000
0000
0000
,  // measure 8
0000
0000
0000
0000
,  // measure 9
1000
0000
0000
0000
,  // measure 10
0001
0000
0000
0000
,  // measure 11
1000
0000
0000
0000
,  // measure 12
0001
0000
0000
0000
,  // measure 13
0100
0000
0000
0000
,  // measure 14
0010
0000
0000
0000
,  // measure 15
0100
0000
0000
0000
,  // measure 16
0010
0000
0000
0000
,  // measure 17
1001
0000
0000
0000
,  // measure 18
0000
0000
0000
0000
,  // measure 19
1000
0000
0000
0000
,  // measure 20
0100
0000
0000
0000
,  // measure 21
0010
0000
0000
0000
,  // measure 22
0001
0000
0000
0000
,  // measure 23
1000
0000
0000
0000
,  // measure 24
0010
0000
0000
0000
,  // measure 25
0100
0000
0100
0000
,  // measure 26
0100
0000
0000
0000
,  // measure 27
0001
0000
0000
0000
,  // measure 28
0010
0000
0000
0000
,  // measure 29
0100
0000
0000
0000
,  // measure 30
1000
0000
1000
0000
,  // measure 31
1000
0000
0000
0000
,  // measure 32
0100
0000
0000
0000
,  // measure 33
0010
0000
0000
0000
,  // measure 34
0001
0000
0001
0000
,  // measure 35
0001
0000
0000
0000
,  // measure 36
0100
0000
0000
0000
,  // measure 37
0010
0000
0000
0000
,  // measure 38
1000
0000
1000
0000
,  // measure 39
1000
0000
0000
0000
,  // measure 40
0010
0000
0000
0000
,  // measure 41
0100
0000
0000
0000
,  // measure 42
0001
0000
0000
0000
,  // measure 43
1001
0000
0000
0000
,  // measure 44
0000
0000
0000
0000
,  // measure 45
0100
0000
0000
0000
,  // measure 46
0001
0000
0000
0000
,  // measure 47
0010
0000
0000
0000
,  // measure 48
1000
0000
0000
0000
,  // measure 49
0100
0000
0000
0000
,  // measure 50
1000
0000
0000
0000
,  // measure 51
0010
0000
0000
0000
,  // measure 52
0001
0000
0000
0000
,  // measure 53
0100
0000
0000
0000
,  // measure 54
1001
0000
0000
0000
,  // measure 55
0100
0000
0000
0000
,  // measure 56
1001
0000
0000
0000
,  // measure 57
0100
0000
0000
0000
,  // measure 58
1001
0000
0000
0000
,  // measure 59
0100
0000
0000
0000
,  // measure 60
1001
0000
0000
0000
,  // measure 61
0000
0010
0000
0000
,  // measure 62
0000
0100
0000
0000
,  // measure 63
0000
0001
0000
0000
,  // measure 64
0000
1000
0000
1000
,  // measure 65
0000
1000
0000
0000
,  // measure 66
0000
0001
0000
0000
,  // measure 67
0000
0100
0000
0000
,  // measure 68
0000
0010
0000
0010
,  // measure 69
0000
0010
0000
0000
,  // measure 70
0000
0100
0000
0000
,  // measure 71
0000
0001
0000
0000
,  // measure 72
0000
1000
0000
1000
,  // measure 73
0000
1000
0000
0000
,  // measure 74
0000
0001
0000
0000
,  // measure 75
0000
0100
0000
0000
,  // measure 76
0000
0010
0000
0010
,  // measure 77
0000
0010
0000
0000
,  // measure 78
0000
0100
0000
0000
,  // measure 79
0000
0001
0000
0000
,  // measure 80
0000
0010
0000
0000
,  // measure 81
0000
0100
0000
0000
,  // measure 82
0000
1000
0000
0000
,  // measure 83
0000
0001
0000
0001
,  // measure 84
0000
0001
0000
0001
,  // measure 85
0000
0001
0000
0000
,  // measure 86
0000
0000
0000
0000
,  // measure 87
0000
1000
0000
0000
,  // measure 88
0000
0001
0000
0000
,  // measure 89
0000
0100
0000
0000
,  // measure 90
0000
0010
0000
0000
,  // measure 91
0000
0100
0000
0000
,  // measure 92
0000
0001
0000
0000
,  // measure 93
0000
0010
0000
0000
,  // measure 94
0000
0100
0000
0000
,  // measure 95
0000
1000
0000
0000
,  // measure 96
0000
0001
0000
0000
,  // measure 97
0000
1000
0000
0000
,  // measure 98
0000
0001
0000
0000
,  // measure 99
0000
1000
0000
1000
,  // measure 100
0000
0001
0000
0001
,  // measure 101
0000
1000
0000
0001
,  // measure 102
0000
1000
0000
0000
,  // measure 103
0000
0000
0000
0001
0000
0000
0000
0000
,  // measure 104
0000
0000
0000
1000
0000
0000
0000
0000
,  // measure 105
0000
0000
0000
0001
0000
0000
0000
0000
,  // measure 106
0000
0100
0000
0000
0000
0000
0000
0000
;
