#TITLE:カモミール・バスルーム;
#SUBTITLE:;
#ARTIST:常盤ゆう;
#TITLETRANSLIT:Chamomile Bathroom;
#SUBTITLETRANSLIT:;
#ARTISTTRANSLIT:Yuu Tokiwa;
#GENRE:;
#CREDIT:;
#MENUCOLOR:;
#METERTYPE:DDR;
#BANNER:Chamomile Bathroom.png;
#BACKGROUND:Chamomile Bathroom-bg.png;
#LYRICSPATH:;
#CDTITLE:cdtitle.png;
#MUSIC:Chamomile Bathroom.mp3;
#OFFSET:-0.029;
#SAMPLESTART:64.294;
#SAMPLELENGTH:15.000;
#SELECTABLE:YES;
#LISTSORT:;
#BPMS:0.000=168.000;
#STOPS:;
#BGCHANGES:;
#ATTACKS:;

//---------------dance-single - ----------------
#NOTES:
     dance-single:
     :
     Hard:
     11:
     0.571,0.548,0.570,0.164,0.000: // measure 1
0000
0000
0000
0000
,  // measure 2
0000
0000
0000
0000
,  // measure 3
1000
0000
0001
0100
0010
0100
0000
0001
,  // measure 4
0000
0100
0010
0100
0000
0001
1000
0000
,  // measure 5
0100
0000
0010
0100
1000
0001
0000
0100
,  // measure 6
0000
0001
0010
0001
0000
1000
0100
0000
,  // measure 7
0010
0000
0100
1000
0100
0010
0000
0001
,  // measure 8
0000
0100
0001
0100
0000
0010
1000
0000
,  // measure 9
0001
0000
1000
0100
0010
0100
0000
1000
,  // measure 10
0000
0001
0100
0001
0000
1000
0100
0000
,  // measure 11
1001
0000
0010
0000
0100
1000
0100
0002
,  // measure 12
0000
0003
0100
0000
1000
0100
0001
0200
,  // measure 13
0000
0300
1000
0000
0100
0001
0100
1000
,  // measure 14
0000
0010
0000
0100
0000
0001
0001
1000
,  // measure 15
0100
0000
0010
0000
0001
0100
1000
0200
,  // measure 16
0000
0300
0001
0000
0100
1000
0100
0002
,  // measure 17
0000
0003
0010
0000
0001
0100
1000
0100
,  // measure 18
0002
0000
1003
0000
0010
1000
0100
0010
,  // measure 19
0001
1000
0001
0000
1000
1001
0000
0000
,  // measure 20
0001
0000
0100
0000
0010
0100
0001
0000
,  // measure 21
0100
0010
0000
1000
0000
0001
0000
1000
,  // measure 22
0001
0000
0100
0000
0001
0010
0000
0100
,  // measure 23
0000
1000
0010
0000
0100
0010
0001
0000
,  // measure 24
0010
0000
1000
0000
0100
1000
0010
0000
,  // measure 25
0100
0001
0000
1000
0000
0100
0000
0010
,  // measure 26
0001
0000
1000
0000
0010
0100
0001
1000
,  // measure 27
0000
0010
0000
1001
0000
0100
0000
0010
,  // measure 28
0001
0000
0100
0001
1000
0001
0010
0000
,  // measure 29
0100
1000
0010
0000
0001
0010
1000
0000
,  // measure 30
0100
0000
0001
0100
0010
0100
1000
0000
,  // measure 31
0001
0100
0010
0000
1000
0100
0000
0110
,  // measure 32
0000
0000
0100
1000
0001
0101
0000
0010
,  // measure 33
0100
0010
0000
1000
0000
1100
0000
0101
,  // measure 34
0000
1000
0001
0000
1000
0001
0100
0000
,  // measure 35
0010
0100
0000
0010
0000
1010
0000
0101
,  // measure 36
0000
0001
0100
0000
0010
0001
0010
0100
,  // measure 37
0000
1000
0100
0000
1000
0010
0100
0001
,  // measure 38
0000
0010
0001
0000
0010
0100
0000
0010
,  // measure 39
0000
0100
0000
1000
0001
1100
0000
0000
,  // measure 40
0101
0000
1010
0000
0001
0100
0010
0000
,  // measure 41
0100
0001
0010
0000
0100
1000
0010
0100
,  // measure 42
0002
0000
0000
2000
0000
0000
0000
0000
,  // measure 43
0000
0000
0000
3003
,  // measure 44
0220
0000
0000
0330
,  // measure 45
1000
0100
0001
0100
1100
0000
0011
0000
,  // measure 46
1001
0000
1001
0000
0010
1000
0100
0010
,  // measure 47
0000
0001
0100
0000
0001
0010
0100
0000
,  // measure 48
1000
0100
0000
1100
0000
0101
0000
0011
,  // measure 49
0000
1010
0000
1001
0000
0110
0000
0000
,  // measure 50
0101
0000
1100
0000
0001
0100
0000
1000
,  // measure 51
0000
0100
0001
0000
0010
0100
1000
0000
,  // measure 52
0001
0100
0000
0101
0000
0011
0000
1010
,  // measure 53
0000
1100
0000
1001
0000
0110
0000
0200
,  // measure 54
0300
0000
0101
0000
0001
0100
0010
0001
,  // measure 55
0000
0010
1000
0000
0100
0001
0100
0000
,  // measure 56
1000
0010
0000
1010
0000
0101
0000
0011
,  // measure 57
0000
1100
0000
1001
0000
0110
0000
0000
,  // measure 58
0110
0000
1001
0000
0001
0010
0000
0100
,  // measure 59
0000
0001
0100
0000
1000
0010
0100
0000
,  // measure 60
0001
0020
0000
0032
0000
2003
0000
3020
,  // measure 61
0000
0230
0000
0301
1000
0000
1001
0000
,  // measure 62
1100
1100
0101
0101
,  // measure 63
0001
0010
0100
1000
0001
0000
0100
0010
,  // measure 64
0110
0110
1010
1010
,  // measure 65
1000
0001
0100
0001
0010
0000
0001
0100
,  // measure 66
0101
0101
0011
0011
,  // measure 67
0010
0100
1000
0100
0010
0000
0100
2100
,  // measure 68
0000
0000
3002
1003
,  // measure 69
0001
0100
1000
0100
0001
0010
0100
1000
,  // measure 70
0001
0000
1001
0000
0100
0001
0100
1000
,  // measure 71
0000
0000
1001
0000
0100
1000
0100
0001
,  // measure 72
0000
0000
1001
0000
0010
1000
0010
0001
,  // measure 73
0000
1100
0000
0011
0000
0001
0001
0100
,  // measure 74
0010
0000
0110
0000
0010
1000
0010
0001
,  // measure 75
0000
0000
0110
0000
0001
0010
1000
0010
,  // measure 76
0000
0000
0110
0000
0010
0001
0010
1000
,  // measure 77
0001
0101
0000
1100
0000
1001
0000
0220
,  // measure 78
0000
0000
0000
0000
,  // measure 79
0000
0000
0000
0000
,  // measure 80
0000
0330
0000
0000
;

//---------------dance-single - ----------------
#NOTES:
     dance-single:
     :
     Medium:
     8:
     0.392,0.445,0.052,0.060,0.000:
0000
0000
0000
0000
,
0000
0000
0000
0000
,
1000
0100
0100
0100
,
0010
0100
1000
0000
0010
0000
0001
0000
,
0010
0100
0100
0100
,
0010
0100
0001
0000
1000
0000
0100
0000
,
0010
0100
0100
0100
,
1000
0100
0010
0000
0001
0000
0100
0000
,
0001
0010
0010
0010
,
0001
0100
0010
0000
1000
0000
0001
0000
,
1000
0000
0001
0000
1000
0100
0000
0000
,
1000
0000
0001
0000
1000
0100
0000
0000
,
1000
0000
0001
0000
0010
0001
0000
0000
,
0100
0100
0100
0000
,
0010
0000
1000
0000
0001
0100
0000
0000
,
0010
0000
1000
0000
0001
0100
0000
0000
,
0010
0000
1000
0000
0100
0010
0000
0000
,
0001
0001
0001
0000
,
1000
0000
0100
0000
1000
0001
0000
0000
,
0100
0010
2000
3000
,
0001
0100
0000
0001
0000
0100
0000
0001
,
0000
0000
1000
0000
0100
1000
0000
0001
,
0000
0100
0010
0000
0100
0000
0001
0000
,
1000
0100
0020
0030
,
0001
0100
0000
0001
0000
0010
0000
0001
,
0000
0000
1000
0000
0010
0100
0000
0010
,
0000
1001
0000
0110
0000
0000
0000
0000
,
0001
0100
0001
0010
,
0100
1000
0000
0100
0000
0010
0000
0001
,
0100
0001
1000
0010
,
0100
0100
0100
0010
,
1000
0100
1000
0000
0001
0000
0100
0000
,
0001
0100
0001
0000
1000
0000
0100
0000
,
1000
0010
0100
0001
,
1000
0100
0000
0010
0000
0001
0000
0100
,
0000
0000
0001
0000
1000
0100
1000
0000
,
0001
0000
0100
0000
0010
0100
0010
0000
,
1000
0100
0010
0001
,
1000
0000
0010
0000
0100
0001
0000
0000
,
1000
0100
1000
0010
,
0001
0100
0001
0010
,
0100
1000
0001
0100
,
1000
0000
0001
0000
1000
0001
1000
0000
,
0020
0000
0000
0030
,
0100
0001
1000
0000
1001
0000
1001
0000
,
0010
0000
0100
0000
0010
0100
0000
0010
,
0100
0000
0010
0000
1000
0001
1000
0000
,
0001
0000
0010
0000
0100
1000
0000
0100
,
0000
0010
0000
0001
0000
0100
0000
0000
,
0001
0000
0100
0000
0001
0100
0000
0000
,
0010
0000
1000
0000
0010
1000
0000
0000
,
0100
0010
0001
0100
,
0001
0001
1000
1000
,
0001
0000
0100
0000
0010
0100
0000
0000
,
0001
0000
0100
0000
0010
0100
0000
0000
,
0010
1000
0100
0010
,
0001
0000
0100
0000
0001
1000
0001
0000
,
0010
0000
0100
0000
1000
0100
0000
0000
,
0010
0000
0100
0000
1000
0100
0000
0000
,
0010
0001
0100
0001
,
1000
0001
1000
1001
,
0010
0010
0010
0010
,
1000
1000
1000
1000
,
0100
0100
0100
0100
,
0001
0001
0001
0001
,
0010
0010
0010
0010
,
0001
0001
0001
0001
,
0200
0000
0020
0330
,
0001
0100
0010
1000
,
0001
0000
1000
0000
0001
0100
0000
0000
,
0001
0000
1000
0000
0001
0100
0000
0000
,
0001
0000
1000
0000
0001
0100
0000
0010
,
0000
0100
0000
0001
0000
0000
0000
0000
,
1000
0000
0100
0000
0010
0100
0000
0000
,
1000
0000
0100
0000
0010
0100
0000
0000
,
1000
0000
0100
0000
0010
0100
0000
1000
,
0000
0001
0000
0100
0000
0010
0000
2002
,
0000
0000
0000
0000
,
0000
0000
0000
0000
,
0000
3003
0000
0000
;

//---------------dance-single - ----------------
#NOTES:
     dance-single:
     :
     Easy:
     5:
     0.247,0.274,0.017,0.035,0.000:
0000
0000
0000
0000
,
0000
0000
0000
0000
,
1000
0001
1000
0000
,
0001
1000
0001
0000
,
0100
0010
0100
0000
,
0010
0100
0010
0000
,
1000
0001
1000
0000
,
0001
1000
0001
0000
,
0010
0100
0010
0000
,
0100
0010
0100
0000
,
1000
1000
1000
0000
,
0001
0001
0001
0000
,
0100
0100
0100
0010
,
1000
0010
0100
0000
,
0001
0001
0001
0000
,
1000
1000
1000
0000
,
0010
0010
0010
0000
,
0200
0000
0000
0300
,
0001
1000
1001
0000
,
0010
0100
0001
0000
,
0010
0100
1000
0000
,
0001
1000
0001
0000
,
1000
0001
1000
0000
,
0010
0100
0001
0000
,
0010
0100
1000
0000
,
0001
0000
1000
0000
,
0001
0000
1000
0000
,
0010
0100
0001
0000
,
0010
0100
1000
0000
,
0001
0000
1000
0000
,
0001
0000
0100
0000
,
0010
0000
1000
0100
,
0010
0000
0001
0000
,
0100
0010
0100
0000
,
0001
1000
0001
0000
,
0010
0000
0100
0000
,
1000
0000
0001
0000
,
0100
0000
0010
0000
,
1000
0000
0001
0000
,
0010
0010
0010
0000
,
0100
0100
0100
0000
,
1000
1000
1000
0000
,
0001
0001
0001
0000
,
0200
0000
0000
0300
,
0100
0100
0010
0010
,
1000
0100
1000
0000
,
0001
0000
0001
0000
,
1000
0100
1000
0000
,
0001
0100
0001
0000
,
1000
0100
1000
0000
,
0001
0000
0001
0000
,
0100
0000
0010
0000
,
1000
0100
0010
0000
,
0001
0100
0001
0000
,
1000
0000
1000
0000
,
0010
1000
0010
0000
,
0100
0000
0001
0000
,
0010
0100
0010
0000
,
0001
0000
0100
0000
,
0010
0000
1000
0000
,
0001
0000
1000
0000
,
0001
0000
0001
0000
,
0100
0000
0100
0000
,
1000
0000
1000
0000
,
0010
0000
0010
0000
,
1000
0000
1000
0000
,
0100
0000
0100
0000
,
0001
0000
0000
0000
,
1000
0000
0000
0000
,
0010
0000
0010
0000
,
1000
0000
1000
0000
,
0001
0000
0001
0000
,
0010
0000
0010
0000
,
0100
1000
0100
0000
,
0010
0001
0010
0001
,
0100
0001
0100
0000
,
0010
0000
0000
1000
0000
0001
0000
2002
,
0000
0000
0000
0000
,
0000
0000
0000
0000
,
0000
3003
0000
0000
;

//---------------dance-single - ----------------
#NOTES:
     dance-single:
     :
     Beginner:
     2:
     0.123,0.164,0.000,0.000,0.000:
0000
0000
0000
0000
,
0000
0000
0000
0000
,
1000
0000
0000
0000
,
0001
0000
0000
0000
,
0100
0000
0000
0000
,
0010
0000
0000
0000
,
1000
0000
0000
0000
,
0100
0000
0000
0000
,
0010
0000
0000
0000
,
0001
0000
0000
0000
,
1000
0000
1000
0000
,
1000
0000
0000
0000
,
0001
0000
0001
0000
,
0001
0000
0000
0000
,
1000
0000
1000
0000
,
1000
0000
0000
0000
,
0001
0000
0001
0000
,
0001
0000
0000
0000
,
0000
0000
0000
0000
,
0100
0000
0100
0000
,
0100
0000
0000
0000
,
0010
0000
0010
0000
,
0010
0000
0000
0000
,
1000
0000
0000
0000
,
0001
0000
0000
0000
,
0100
0000
0100
0000
,
0100
0000
0000
0000
,
0010
0000
0000
0000
,
1000
0000
0000
0000
,
0001
0000
0001
0000
,
0001
0000
0000
0000
,
1000
0000
0000
0000
,
0001
0000
0000
0000
,
0100
0000
0000
0000
,
0010
0000
0010
0000
,
0010
0000
0000
0000
,
1000
0000
0000
0000
,
0001
0000
0000
0000
,
0100
0000
0000
0100
,
0100
0000
0000
0000
,
0001
0000
0000
0000
,
1000
0000
1000
0000
,
1000
0000
0000
0000
,
0001
0000
0001
0000
,
0001
0000
0001
0001
,
0001
0000
0000
0000
,
1000
0000
0000
0000
,
0100
0000
0100
0000
,
0100
0000
0000
0000
,
1000
0000
0000
0000
,
0001
0000
0000
0000
,
0100
0000
0100
0000
,
0100
0000
0000
0000
,
0000
0001
0000
0001
,
0000
0001
0000
0000
,
1000
0000
0000
0000
,
0001
0000
0000
0000
,
0100
0000
0100
0000
,
0100
0000
0000
0000
,
0000
0100
0000
0100
,
0000
0100
0100
0100
,
0100
0000
0000
0000
,
0001
0000
0000
0000
,
0010
0000
0000
0000
,
1000
0000
0000
0000
,
0100
0000
0000
0000
,
0001
0000
0000
0000
,
0010
0000
0000
0000
,
1000
0000
0000
0000
,
0100
0100
0000
0100
,
0000
0100
0000
0000
,
0000
1000
0000
1000
,
0000
1000
0000
0000
,
0000
0001
0000
0001
,
0000
0001
0000
0000
,
0000
0100
0000
0100
,
0100
0000
0000
0000
;
