#TITLE:CAPTAIN'S VOYAGE;
#SUBTITLE:;
#ARTIST:古川もとあき;
#TITLETRANSLIT:CAPTAIN'S VOYAGE;
#SUBTITLETRANSLIT:;
#ARTISTTRANSLIT:Motoaki Furukawa;
#GENRE:;
#CREDIT:;
#MENUCOLOR:;
#METERTYPE:DDR;
#BANNER:CAPTAIN'S VOYAGE.png;
#BACKGROUND:CAPTAIN'S VOYAGE-bg.png;
#LYRICSPATH:;
#CDTITLE:cdtitle.png;
#MUSIC:CAPTAIN'S VOYAGE.mp3;
#OFFSET:-0.025;
#SAMPLESTART:1.562;
#SAMPLELENGTH:15.000;
#SELECTABLE:YES;
#LISTSORT:;
#BPMS:0.000=156.000;
#STOPS:;
#BGCHANGES:;
#ATTACKS:;

//---------------dance-single - ----------------
#NOTES:
     dance-single:
     :
     Hard:
     11:
     0.522,0.548,0.305,0.600,0.108:
0000
0000
0000
0000
,
0000
0000
0000
0000
,
0000
0000
0000
0000
,
0000
0000
0000
0000
,
0000
0000
0000
0000
,
2000
0000
0000
3002
0000
0203
0300
0000
,
0202
0000
0000
0303
2200
0000
3300
2002
,
0000
0000
0000
3003
,
0010
0100
0000
0000
1100
0000
0011
0000
,
2002
3003
0220
0330
,
1000
0100
0001
0100
1000
0010
0100
0001
,
0000
0010
0100
1000
0000
0001
0100
0001
,
0020
0000
0000
0230
0000
0000
2300
0000
,
0000
3001
0100
0000
0001
0010
0100
0000
,
1000
0100
0001
0100
0000
1001
0000
1000
,
0001
0100
1000
0100
0000
1001
0000
0001
,
0100
0000
0010
1000
0100
0000
0001
0000
,
1100
0000
1000
0000
0001
1000
0100
0010
,
0001
0100
1000
0100
0001
0010
0100
1000
,
0000
0010
0100
0001
0000
1000
0100
1000
,
0020
0000
0000
0230
0000
0000
0302
0000
,
0000
1003
0100
0000
1000
0010
0100
0000
,
0001
0100
0001
0010
0000
0100
1000
0010
,
0000
0100
0001
0000
1000
0100
0001
0100
,
2000
3020
0230
0301
,
1100
0001
0101
1000
,
1000
0100
0010
0001
0100
0010
1000
0100
,
0010
0001
0100
0010
0001
0000
1000
0000
,
0001
0010
0100
0001
0010
0100
1000
0010
,
0100
0001
0010
0100
1000
0000
0001
0000
,
1000
0001
0200
0000
0310
0000
1000
0001
,
0100
0001
1000
0000
0010
0000
0100
0000
,
0001
0000
1000
0100
0000
0020
0000
0000
,
0031
0100
0010
0100
0000
0001
0010
0100
,
0001
0100
1000
0100
0000
0010
0001
0100
,
0000
0010
1000
0000
0010
0100
0010
0000
,
1000
0100
0010
0000
0001
0100
0010
0000
,
1000
0010
0100
0001
0000
0100
0110
0000
,
1000
0100
0001
0100
0000
0010
1000
0100
,
0000
0010
0001
0000
0010
0100
0010
0000
,
0001
0100
0010
0100
0000
0001
0010
0000
,
1000
0010
0001
0000
0100
0010
0110
0000
,
0020
0000
0000
2030
0000
3002
0003
0000
,
0202
0000
0303
2020
0000
0000
3030
0000
,
0002
0000
0000
2003
0000
3020
0030
0000
,
2200
3300
0022
0033
,
1000
0000
1000
0100
0000
0100
0010
0000
0010
0001
0000
0001
,
0100
0000
0100
0010
0000
0010
1000
0000
1000
0001
0000
0001
,
0010
0000
0001
0100
0000
1000
0100
0000
0001
0010
0000
1000
,
0020
0000
0000
0031
0000
1000
0200
0000
0000
0310
0000
0001
,
1000
0000
0010
0000
0100
0000
0002
0000
0000
0000
0000
1003
,
0010
1000
0010
2000
0000
0000
0000
0000
0000
3001
0000
0000
,
0100
0000
0001
0100
0000
0001
0010
0000
0000
0100
0000
1000
,
0010
0100
0001
0110
,
1001
2001
0000
3020
0000
0130
0000
0202
,
0000
0303
0000
2200
0000
0000
3300
0000
,
1100
1200
0000
0320
0000
0031
0000
0022
,
0000
0030
0000
2003
0000
3001
0000
0000
,
1001
2001
0000
3020
0000
0130
0000
0202
,
0000
0000
0000
0303
2200
0000
3300
2002
,
0000
0000
0000
0000
,
0000
0000
0000
0000
0000
0000
0000
3003
;

//---------------dance-single - ----------------
#NOTES:
     dance-single:
     :
     Medium:
     8:
     0.387,0.426,0.276,0.374,0.000:
0000
0000
0000
0000
,
0000
0000
0000
0000
,
0000
0000
0000
0000
,
0000
0000
0000
0000
,
0000
0000
0000
0000
,
1000
0000
0000
0001
0000
0100
0000
0000
,
0101
0000
0000
0000
1100
0000
0000
2002
,
0000
0000
0000
3003
,
1000
0100
0000
0000
0010
0000
0001
0000
,
2200
3300
0202
0303
,
0010
0000
0100
0000
0001
0100
0010
0000
,
1000
0000
0100
0010
0000
0100
1000
0000
,
0001
0000
0000
0100
0000
0000
0010
0000
,
0000
1000
0001
1000
,
0100
0000
0100
0010
0000
0010
0000
0010
,
0001
0000
0001
0100
0000
0100
0000
0100
,
0010
0000
1000
0100
0010
0000
0001
0000
,
0100
0000
0001
0000
1000
0100
1000
0000
,
0010
0000
0100
0000
0010
1000
0100
0000
,
0010
0000
0001
0100
0000
0001
1000
0000
,
0100
0000
0000
0010
0000
0000
0001
0000
,
0000
1000
0000
0000
0001
0000
0100
0000
,
0001
0000
1000
0100
0000
0010
0100
1000
,
0000
0001
0100
0000
0010
0000
0100
0000
,
0001
1000
0100
0010
,
1000
0000
0010
0000
0001
0100
0010
0000
,
1000
0000
1000
0001
0000
0100
0000
0010
,
0100
0000
0001
1000
0000
0100
0000
1000
,
0010
0000
0000
0210
0000
0000
0000
0000
,
0010
0001
0010
0301
,
1000
0002
0023
0230
,
1300
0000
0000
1001
0000
0000
0001
0000
,
0100
0000
0010
1000
0000
0010
0000
0000
,
0100
0000
0001
0010
0000
0001
0000
0000
,
1000
0000
0100
1000
0000
0001
0100
0000
,
0002
0023
0230
2300
,
3001
0101
1000
1100
,
0001
0000
0000
1000
0000
0000
1001
0000
,
0001
0000
0100
0001
0000
1000
0100
0000
,
2000
3020
0230
0302
,
1003
1100
0001
0101
,
1000
0001
0100
0000
0010
0000
1001
0000
,
0010
0000
0000
1000
0000
0001
0000
0000
,
1100
0000
0000
0202
0000
0000
0303
0000
,
0001
0000
0000
0010
0000
0100
0000
0000
,
2200
3300
0202
0303
,
1000
1100
0100
0110
,
0010
0011
0001
0101
,
0001
1000
0100
0010
,
0100
1000
2002
3003
,
0001
0100
0020
0030
,
1000
0100
0020
0030
,
0001
1000
0100
0000
1000
0000
0001
0000
,
0100
0010
1000
0000
0001
0000
0010
0000
,
0100
0100
0000
1000
0000
0001
0000
0202
,
0000
0303
0000
2200
0000
3300
0000
0000
,
0001
0001
0000
1000
0000
0010
0000
2002
,
0000
3003
0000
0200
0000
0302
0000
0003
,
1000
1000
0000
0100
0000
0010
0000
0011
,
0000
0000
0000
0000
1100
0000
0000
2002
,
0000
0000
0000
0000
,
0000
0000
0000
0000
0000
0000
0000
3003
;

//---------------dance-single - ----------------
#NOTES:
     dance-single:
     :
     Easy:
     4:
     0.221,0.214,0.138,0.059,0.000: // measure 1
0000
0000
0000
0000
,  // measure 2
0000
0000
0000
0000
,  // measure 3
0000
0000
0000
0000
,  // measure 4
0000
0000
0000
0000
,  // measure 5
0000
0000
0000
0000
,  // measure 6
0001
0000
1000
0000
,  // measure 7
1001
0000
0110
0000
,  // measure 8
1001
0000
0000
0000
,  // measure 9
0010
0000
0100
0000
,  // measure 10
0001
0000
1000
0000
,  // measure 11
0001
0100
0001
0000
,  // measure 12
1000
0100
1000
0000
,  // measure 13
0001
0010
0100
0010
,  // measure 14
0001
0000
0100
0000
,  // measure 15
0010
1000
1000
0000
,  // measure 16
0001
0100
0100
0000
,  // measure 17
0010
1000
0100
0010
,  // measure 18
0001
0000
0100
0000
,  // measure 19
0001
1000
0001
0000
,  // measure 20
0100
0010
0100
0000
,  // measure 21
0010
1000
0100
1000
,  // measure 22
0010
0000
0100
0000
,  // measure 23
0001
1000
1000
0000
,  // measure 24
0100
0010
0010
0000
,  // measure 25
0001
0010
0100
1000
,  // measure 26
0001
0000
1000
0000
,  // measure 27
0010
0000
0000
0010
0000
0000
0010
0000
,  // measure 28
0000
0010
0000
0000
0010
0000
0100
0000
,  // measure 29
0100
0000
0000
0100
0000
0000
0100
0000
,  // measure 30
0000
0100
0000
0000
0100
0000
0001
0000
,  // measure 31
0001
1000
0100
0000
,  // measure 32
1000
0001
0100
0000
,  // measure 33
0010
0000
0100
0000
,  // measure 34
1001
0000
0110
0000
,  // measure 35
0010
1000
0100
0000
,  // measure 36
0010
0001
0100
0000
,  // measure 37
0001
0000
1000
0000
,  // measure 38
0010
0000
0100
0000
,  // measure 39
0001
0010
0100
0000
,  // measure 40
1000
0100
0010
0000
,  // measure 41
0001
1000
0001
0000
,  // measure 42
1000
0000
0001
0000
,  // measure 43
0100
0000
0010
0000
,  // measure 44
1001
0000
0110
0000
,  // measure 45
0001
0000
1000
0000
,  // measure 46
0110
0000
1001
0000
,  // measure 47
2000
0000
0000
3000
,  // measure 48
0002
0000
0000
0003
,  // measure 49
0200
0000
0000
0300
,  // measure 50
0020
0000
0000
0030
,  // measure 51
0100
0001
0100
0000
,  // measure 52
0010
1000
0010
0000
,  // measure 53
1000
0100
0010
0000
,  // measure 54
0001
0010
0100
0000
,  // measure 55
1000
0000
0001
0000
,  // measure 56
1001
0000
0110
0000
,  // measure 57
0010
0000
0100
0000
,  // measure 58
1001
0000
0110
0000
,  // measure 59
1000
0000
0100
0000
,  // measure 60
0010
0000
0001
0000
,  // measure 61
2002
0000
0000
0000
,  // measure 62
0000
0000
0000
0000
,  // measure 63
3003
0000
0000
0000
;

//---------------dance-single - ----------------
#NOTES:
     dance-single:
     :
     Beginner:
     1:
     0.093,0.118,0.000,0.039,0.000: // measure 1
0000
0000
0000
0000
,  // measure 2
0000
0000
0000
0000
,  // measure 3
0000
0000
0000
0000
,  // measure 4
0000
0000
0000
0000
,  // measure 5
0000
0000
0000
0000
,  // measure 6
0001
0000
0000
0000
,  // measure 7
1000
0000
0000
0000
,  // measure 8
0000
0000
0000
0000
,  // measure 9
0001
0000
0000
0000
,  // measure 10
0100
0000
0100
0000
,  // measure 11
0100
0000
0000
0000
,  // measure 12
0001
0000
0000
0000
,  // measure 13
1000
0000
1000
0000
,  // measure 14
1000
0000
0000
0000
,  // measure 15
0100
0000
0000
0000
,  // measure 16
1000
0000
0000
0000
,  // measure 17
0001
0000
0001
0000
,  // measure 18
0001
0000
0000
0000
,  // measure 19
0100
0000
0000
0000
,  // measure 20
0010
0000
0000
0000
,  // measure 21
1000
0000
0000
0000
,  // measure 22
0001
0000
0001
0000
,  // measure 23
0001
0000
0000
0000
,  // measure 24
0010
0000
0000
0000
,  // measure 25
0100
0000
0000
0000
,  // measure 26
2000
0000
3000
0000
,  // measure 27
0001
0000
0000
0000
,  // measure 28
0100
0000
0000
0000
,  // measure 29
0010
0000
0010
0000
,  // measure 30
0010
0000
0000
0000
,  // measure 31
0100
0000
0000
0000
,  // measure 32
0001
0000
0000
0000
,  // measure 33
1000
0000
1000
0000
,  // measure 34
1000
0000
0000
0000
,  // measure 35
0100
0000
0100
0000
,  // measure 36
0100
0000
0000
0000
,  // measure 37
0010
0000
0000
0000
,  // measure 38
0001
0000
0000
0000
,  // measure 39
0100
0000
0100
0000
,  // measure 40
0100
0000
0000
0000
,  // measure 41
0010
0000
0000
0000
,  // measure 42
1000
0000
0000
0000
,  // measure 43
0001
0000
0000
0000
,  // measure 44
1000
0000
0000
0000
,  // measure 45
0001
0000
0000
0000
,  // measure 46
1000
0000
0000
0000
,  // measure 47
0010
0000
0000
0000
,  // measure 48
0010
0000
0000
0000
,  // measure 49
0100
0000
0000
0000
,  // measure 50
0100
0000
0000
0000
,  // measure 51
0001
0000
0000
0000
,  // measure 52
0001
0000
0000
0000
,  // measure 53
1000
0000
0000
0000
,  // measure 54
1000
0000
0000
0000
,  // measure 55
0100
0000
0000
0000
,  // measure 56
0020
0000
0030
0000
,  // measure 57
0001
0000
0000
0000
,  // measure 58
0200
0000
0300
0000
,  // measure 59
1000
0000
0000
0000
,  // measure 60
0020
0000
0000
0000
0000
0000
0000
0030
;
