#TITLE:0/1 ANGEL;
#SUBTITLE:;
#ARTIST:V.C.O. featuring Alt;
#TITLETRANSLIT:0/1 ANGEL;
#SUBTITLETRANSLIT:;
#ARTISTTRANSLIT:V.C.O. featuring Alt;
#GENRE:;
#CREDIT:;
#MENUCOLOR:;
#METERTYPE:DDR;
#BANNER:01 ANGEL.png;
#BACKGROUND:01 ANGEL-bg.png;
#LYRICSPATH:;
#CDTITLE:cdtitle.png;
#MUSIC:01 ANGEL.mp3;
#OFFSET:-0.050;
#SAMPLESTART:8.597;
#SAMPLELENGTH:14.000;
#SELECTABLE:YES;
#LISTSORT:;
#BPMS:0.000=140.000;
#STOPS:;
#BGCHANGES:;
#ATTACKS:;

//---------------dance-single - ----------------
#NOTES:
     dance-single:
     :
     Hard:
     10:
     0.512,0.489,0.094,0.323,0.026:
0000
0000
0000
0000
,
0000
0000
0000
0000
,
0000
0000
0000
0000
,
0000
0000
0000
0000
,
0000
0000
0000
0000
,
1000
0000
0001
0100
0010
1000
0100
0000
,
0010
0000
0001
1000
0100
0010
0100
0000
,
1000
0000
0001
0100
0010
0100
0001
1000
,
0200
0320
0032
0203
,
0320
0000
1030
0100
0001
0100
1000
0010
,
0200
0000
0301
0100
1000
0100
0001
0010
,
0200
0000
0301
0100
1000
0010
0100
0001
,
0020
0000
0031
0001
0000
1000
0010
1000
,
0200
0000
1300
0001
1000
0100
0010
0010
,
0002
0000
1003
0100
1000
0010
0100
0100
,
0002
0000
1003
0100
0001
0100
1000
0010
,
0200
0000
0301
0200
0000
1300
0100
0001
,
0020
0000
1030
0010
0100
0001
0100
1000
,
0020
0000
0130
1000
0001
0010
1000
0100
,
0020
0000
1030
0010
0001
0010
0100
1000
,
0020
0000
0130
0020
0000
0031
0010
1000
,
0200
2300
3002
0203
,
0310
0010
0000
0110
0000
1001
0000
0100
,
0010
0000
0100
0000
0010
0100
1000
0000
,
0001
0100
0010
0100
0000
0001
1000
0000
,
0002
0203
2300
3200
,
0301
0010
0000
1100
0000
1000
0001
0200
,
0000
0000
0310
0000
1000
0010
0100
0000
,
0001
0010
0100
0000
1000
0100
0000
0110
,
0000
0001
0100
0000
0001
1000
0100
0010
,
0001
0000
0100
0000
0010
0000
1000
0100
0000
0001
0100
0000
1000
0000
0001
0000
,
2000
0000
3010
0100
0010
0000
1000
0100
,
0000
0001
0100
0000
1000
0010
0100
0001
,
0010
0000
0100
0000
0110
0000
1000
0100
,
0001
0100
1000
0010
0000
0100
0100
0000
,
0002
0000
1003
0100
1000
0000
0001
0100
,
0000
1000
0100
0000
0001
0000
0010
0100
,
1000
0100
0001
0000
0100
0000
1000
0010
,
0001
0010
0100
0001
0000
1000
1000
0001
,
0200
0000
0310
1000
0010
0000
0100
0001
,
0000
0010
0001
0000
0100
0000
1000
0100
,
0001
0010
0100
0000
1000
0000
0010
0001
,
0010
0100
1000
0100
0000
0001
0001
1000
,
0100
0000
0000
1100
0000
0000
0101
0000
,
0000
0001
0100
0001
0000
1000
0100
1000
,
0010
0000
0000
0101
0000
0000
1100
0000
,
1000
0001
0100
0000
0010
0010
0010
0100
,
0001
0000
1000
0100
0010
0000
0001
1000
,
0001
1000
0100
0000
0001
0000
0100
0000
,
1000
0100
0001
0100
1000
0000
0001
0100
,
1000
0100
0001
0000
1000
1000
0010
0100
,
0100
0001
0010
0001
0100
0000
0010
1000
,
0100
1000
0010
0000
0100
0001
1000
0000
,
0100
0010
0001
0010
0100
1000
0001
0100
,
0010
0000
1000
0000
0001
0000
0000
0000
1000
0010
0000
0000
1000
0001
0100
0002
,
0000
0003
0000
0000
;

//---------------dance-single - ----------------
#NOTES:
     dance-single:
     :
     Medium:
     8:
     0.448,0.489,0.021,0.562,0.000:
0000
0000
0000
0000
,
0000
0000
0000
0000
,
0000
0000
0000
0000
,
0000
0000
0000
0000
,
0000
0000
0000
0000
,
1000
0000
0001
0000
0100
0010
0100
0000
,
0001
0000
1000
0000
0100
0010
0100
0000
,
1000
0000
0001
0000
0010
0100
0010
0000
,
0002
2003
3020
0230
,
0301
0000
0010
0000
0100
1000
0100
0000
,
0010
0000
0001
0000
0100
0010
0100
0000
,
1000
0000
0100
0000
0010
0100
0010
0000
,
0200
2300
3002
0203
,
0310
0000
1000
0000
0001
0100
0001
0000
,
1000
0000
0100
0000
0001
0100
0001
0000
,
0100
0000
1000
0000
0010
0100
0010
0000
,
0200
0302
2003
3020
,
0130
0000
0001
0000
0010
0001
0010
0000
,
0100
0000
1000
0000
0010
1000
0010
0000
,
0100
0000
0001
0000
1000
0100
1000
0000
,
0002
0000
0203
0000
0320
0000
1030
0001
,
0020
0230
2300
3002
,
0023
0032
2003
3200
,
0310
0100
1000
0000
0001
0100
0010
0000
,
1000
0000
0001
0000
1000
0010
0010
0000
,
0200
0302
2003
3020
,
2030
3200
0320
0032
,
1003
0100
1000
0100
,
0010
0000
0001
0000
0010
0001
0000
1000
,
0010
0000
0100
0000
0001
1000
0001
0000
,
0100
0010
0100
0000
0110
0000
1001
0000
,
0020
2030
3020
0230
,
0301
0010
0100
0000
1000
0000
0100
0000
,
0020
0032
2003
3020
,
0130
0001
1000
0000
0100
0000
0010
0000
,
0200
2300
3002
0203
,
0310
1000
0001
0000
0010
0000
0100
0000
,
2000
3200
0302
0203
,
1300
0010
0100
0001
0000
1000
0001
0100
,
0001
0010
0100
1000
,
0001
0100
1000
0000
0100
0000
0001
0000
,
1000
0100
0010
0001
,
1000
0100
0001
0000
0100
1000
0010
0100
,
0002
0000
0000
2003
0000
0000
3020
0000
,
0100
0100
0100
0130
,
0200
0000
0000
0302
0000
0000
2003
0000
,
0100
0100
0100
3100
,
0010
0001
1000
0001
0010
0000
0100
1000
,
0001
1000
0010
0000
0100
0000
0001
0000
,
1000
0100
0010
0100
1000
0000
0001
0100
,
0010
0100
0001
0000
1000
0000
0001
0000
,
0100
0010
1000
0010
0100
0000
0010
0100
,
0001
0100
0010
0000
1000
0000
0001
0000
,
1000
0100
0010
0001
1000
0000
0001
0010
,
0100
1000
0001
0000
1000
1000
0001
0002
,
0000
0003
0000
0000
;

//---------------dance-single - ----------------
#NOTES:
     dance-single:
     :
     Easy:
     4:
     0.187,0.201,0.021,0.010,0.000: // measure 1
0000
0000
0000
0000
,  // measure 2
0000
0000
0000
0000
,  // measure 3
0000
0000
0000
0000
,  // measure 4
0000
0000
0000
0000
,  // measure 5
0000
0000
0000
0000
,  // measure 6
1000
0000
0001
0100
,  // measure 7
0010
0000
1000
0100
,  // measure 8
0010
0000
0001
0100
,  // measure 9
0010
0000
1000
0100
,  // measure 10
0010
0000
0001
0010
,  // measure 11
0100
0000
1000
0010
,  // measure 12
0100
0000
0001
0010
,  // measure 13
0100
0000
1000
0100
,  // measure 14
0010
0000
0001
0100
,  // measure 15
0010
0000
1000
0100
,  // measure 16
0010
0000
0001
0100
,  // measure 17
0010
0000
1000
0010
,  // measure 18
0100
0000
0001
0010
,  // measure 19
0100
0000
1000
0010
,  // measure 20
0100
0000
0001
0010
,  // measure 21
0100
0000
1000
0001
,  // measure 22
0100
0000
0001
0000
,  // measure 23
1000
0000
0001
0000
,  // measure 24
0100
0000
0001
0000
,  // measure 25
1000
0000
0001
0000
,  // measure 26
0100
0000
0010
0000
,  // measure 27
1000
0000
0010
0000
,  // measure 28
0100
0000
0010
0000
,  // measure 29
1000
0000
0010
0000
,  // measure 30
0100
0000
0100
0000
,  // measure 31
0110
0000
1001
0000
,  // measure 32
0001
0000
0010
0000
,  // measure 33
0100
0000
1000
0000
,  // measure 34
0001
0100
0010
0000
,  // measure 35
1000
0010
0100
0000
,  // measure 36
0001
0000
1000
0000
,  // measure 37
0001
0000
1000
0000
,  // measure 38
0001
0100
0001
0000
,  // measure 39
1000
0100
1000
0000
,  // measure 40
0001
0000
0010
0000
,  // measure 41
0100
0000
1000
0000
,  // measure 42
0001
0100
0010
0000
,  // measure 43
1000
0010
0100
0000
,  // measure 44
0010
0000
0000
0000
,  // measure 45
0010
0000
0000
0000
,  // measure 46
0100
0000
0000
0000
,  // measure 47
0100
0000
0000
0000
,  // measure 48
0001
0000
1000
0000
,  // measure 49
0001
0010
0100
0000
,  // measure 50
1000
0000
0001
0000
,  // measure 51
1000
0010
0100
0000
,  // measure 52
0001
0000
1000
0000
,  // measure 53
0001
0100
0010
0000
,  // measure 54
1000
0000
0001
0000
,  // measure 55
1000
0100
0010
0002
,  // measure 56
0000
0003
0000
0000
;

//---------------dance-single - ----------------
#NOTES:
     dance-single:
     :
     Beginner:
     1:
     0.076,0.112,0.000,0.000,0.000: // measure 1
0000
0000
0000
0000
,  // measure 2
0000
0000
0000
0000
,  // measure 3
0000
0000
0000
0000
,  // measure 4
0000
0000
0000
0000
,  // measure 5
0000
0000
0000
0000
,  // measure 6
1000
0000
0000
0000
,  // measure 7
0001
0000
0000
0000
,  // measure 8
1000
0000
0000
0000
,  // measure 9
0001
0000
0000
0000
,  // measure 10
0100
0000
0000
0000
,  // measure 11
0010
0000
0000
0000
,  // measure 12
0100
0000
0000
0000
,  // measure 13
0010
0000
0000
0000
,  // measure 14
1000
0000
0000
0000
,  // measure 15
0001
0000
0000
0000
,  // measure 16
1000
0000
0000
0000
,  // measure 17
0001
0000
0000
0000
,  // measure 18
0010
0000
0000
0000
,  // measure 19
0100
0000
0000
0000
,  // measure 20
0010
0000
0000
0000
,  // measure 21
0100
0000
0000
0000
,  // measure 22
1000
0000
1000
0000
,  // measure 23
1000
0000
0000
0000
,  // measure 24
0001
0000
0001
0000
,  // measure 25
0001
0000
0000
0000
,  // measure 26
0100
0000
0100
0000
,  // measure 27
0100
0000
0000
0000
,  // measure 28
0010
0000
0010
0000
,  // measure 29
0010
0000
0000
0000
,  // measure 30
1000
0000
0000
0000
,  // measure 31
0000
0000
0000
0000
,  // measure 32
0100
0000
0000
0000
,  // measure 33
1000
0000
0000
0000
,  // measure 34
0001
0000
0000
0000
,  // measure 35
0100
0000
0000
0000
,  // measure 36
0001
0000
0000
0000
,  // measure 37
1000
0000
0000
0000
,  // measure 38
0100
0000
0000
0000
,  // measure 39
1000
0000
0000
0000
,  // measure 40
0001
0000
0000
0000
,  // measure 41
0100
0000
0000
0000
,  // measure 42
0001
0000
0000
0000
,  // measure 43
1000
0000
0000
0000
,  // measure 44
0001
0000
0000
0000
,  // measure 45
0000
0000
0000
0000
,  // measure 46
1000
0000
0000
0000
,  // measure 47
0000
0000
0000
0000
,  // measure 48
0001
0000
0000
0000
,  // measure 49
1000
0000
0000
0000
,  // measure 50
0010
0000
0000
0000
,  // measure 51
0100
0000
0000
0000
,  // measure 52
0010
0000
0000
0000
,  // measure 53
1000
0000
0000
0000
,  // measure 54
0001
0000
0000
0000
,  // measure 55
0010
0000
0000
0000
;
